osu file format v12

[General]
AudioFilename: -05. WuWunio - Poka- Cycki.mp3
AudioLeadIn: 0
PreviewTime: -1
Countdown: 0
SampleSet: Soft
StackLeniency: 0.7
Mode: 0
LetterboxInBreaks: 1

[Editor]
DistanceSpacing: 1
BeatDivisor: 4
GridSize: 8

[Metadata]
Title:Pokaz Cycki
TitleUnicode:Pokaz Cycki
Artist:WuWunio
ArtistUnicode:WuWunio
Creator:Arbuz-chan
Version:Overcycek!!!!111!
Source:
Tags:
BeatmapID:257665
BeatmapSetID:96039

[Difficulty]
HPDrainRate:8
CircleSize:5
OverallDifficulty:8
ApproachRate:9
SliderMultiplier:1.7
SliderTickRate:1

[Events]
//Background and Video events
0,0,"Neku.(Sky.Hologram).full.1508755.jpg",0,0
//Break Periods
//Storyboard Layer 0 (Background)
//Storyboard Layer 1 (Fail)
//Storyboard Layer 2 (Pass)
//Storyboard Layer 3 (Foreground)
//Storyboard Sound Samples
//Background Colour Transformations
3,100,163,162,255

[TimingPoints]
12000,375,4,1,0,100,1,0
48000,-62.5,4,1,0,100,0,1
60000,-66.6666666666667,4,1,0,100,0,0
84000,-50,4,1,0,100,0,1
87000,-100,4,1,0,100,0,0
120000,-62.5,4,2,1,75,0,1
126750,-200,4,2,1,75,0,1
126850,-66.6666666666667,4,2,1,75,0,1
132000,-66.6666666666667,4,2,1,100,0,0

[Colours]
Combo1 : 221,0,66
Combo2 : 20,102,224
Combo3 : 213,223,17
Combo4 : 228,10,10
Combo5 : 68,187,17

[HitObjects]
48,168,12000,1,0,0:0:0:0:
56,176,12375,2,0,L|160:224,1,85
216,288,12750,2,0,L|288:216,1,85
376,200,13125,5,0,0:0:0:0:
344,112,13312,1,0,0:0:0:0:
240,72,13500,1,0,0:0:0:0:
240,72,13687,2,0,P|200:104|152:80,1,85
80,96,14062,2,4,P|96:176|120:192,1,85
208,272,14625,6,2,P|160:320|120:352,2,85
208,272,15187,1,0,0:0:0:0:
96,168,15375,1,0,0:0:0:0:
208,272,15562,1,0,0:0:0:0:
208,272,15750,2,0,P|304:280|384:240,1,170
416,160,16499,5,0,0:0:0:0:
408,128,16593,1,0,0:0:0:0:
408,96,16686,1,0,0:0:0:0:
336,56,16875,2,0,L|240:48,1,85
246,48,17250,1,0,0:0:0:0:
144,184,17625,5,2,0:0:0:0:
296,296,18000,6,0,P|384:304|400:304,1,85
440,208,18375,1,0,0:0:0:0:
256,144,18562,1,0,0:0:0:0:
80,208,18750,1,0,0:0:0:0:
136,296,18937,6,0,P|200:296|232:288,1,85,0|0,0:0|0:0,0:0:0:0:
248,192,19312,1,0,0:0:0:0:
96,136,19500,1,0,0:0:0:0:
152,224,19687,1,0,0:0:0:0:
184,104,19875,1,8,0:0:0:0:
272,72,20062,1,8,0:0:0:0:
272,72,20250,6,2,P|360:56|448:80,2,170
144,96,21187,1,0,0:0:0:0:
192,184,21375,2,0,P|232:216|272:192,2,85
192,184,21937,1,0,0:0:0:0:
232,288,22125,1,0,0:0:0:0:
344,320,22312,1,0,0:0:0:0:
416,248,22500,6,0,P|464:160|400:88,2,170,0|2|2,0:0|0:0|0:0,0:0:0:0:
288,160,23437,1,0,0:0:0:0:
192,248,23625,1,0,0:0:0:0:
72,88,24000,5,0,0:0:0:0:
200,32,24187,1,0,0:0:0:0:
296,112,24375,1,0,0:0:0:0:
408,96,24562,2,0,P|448:96|456:40,2,85
352,288,25125,2,0,P|392:336|432:328,2,85
256,192,25687,6,2,L|136:192,1,85
336,192,26062,1,0,0:0:0:0:
96,192,26250,1,0,0:0:0:0:
72,112,26625,6,4,P|152:64|248:88,1,170,0|4,0:0|0:0,0:0:0:0:
336,304,27187,2,0,P|424:256|432:240,1,85
408,184,27562,1,0,0:0:0:0:
368,96,27750,2,2,P|424:56|456:64,2,85
200,88,28312,5,0,0:0:0:0:
200,88,28500,2,0,L|160:168,1,85
80,192,28875,2,0,L|72:288,1,85
152,296,29250,2,4,L|240:360,1,85
224,348,29625,1,0,0:0:0:0:
392,320,30000,6,0,L|432:232,1,85
368,192,30375,1,0,0:0:0:0:
432,144,30562,2,0,L|344:96,3,85
256,88,31500,5,0,0:0:0:0:
192,248,31687,1,0,0:0:0:0:
312,248,31875,1,0,0:0:0:0:
160,152,32062,1,0,0:0:0:0:
344,152,32250,1,0,0:0:0:0:
360,80,32437,2,0,L|264:48,1,85
160,64,33000,6,2,P|104:112|120:240,2,212.5
248,72,34125,1,0,0:0:0:0:
336,112,34312,2,0,P|272:192|264:200,1,85
376,192,34687,2,0,L|312:280,1,85
416,264,35062,2,0,L|360:344,1,85
360,336,35437,1,0,0:0:0:0:
360,336,35625,5,2,0:0:0:0:
80,80,36000,1,0,0:0:0:0:
96,184,36187,1,0,0:0:0:0:
168,256,36375,1,0,0:0:0:0:
288,272,36562,2,0,P|368:256|384:224,2,85
168,256,37125,5,0,0:0:0:0:
96,184,37312,1,0,0:0:0:0:
80,80,37500,1,0,0:0:0:0:
184,112,37687,2,0,L|240:192,1,85
224,48,38062,2,0,L|336:56,1,85
400,168,38625,5,2,0:0:0:0:
424,312,39000,6,0,L|336:256,1,85
96,304,39375,2,0,L|200:240,1,85
256,192,39750,1,0,0:0:0:0:
256,192,39843,1,0,0:0:0:0:
256,192,39937,1,0,0:0:0:0:
256,192,40125,5,2,0:0:0:0:
416,64,40500,2,2,L|336:120,1,85
104,64,40875,2,2,L|192:128,1,85
256,192,41250,1,0,0:0:0:0:
256,192,41343,1,0,0:0:0:0:
256,192,41437,1,0,0:0:0:0:
256,192,41625,5,2,0:0:0:0:
256,192,41812,6,0,L|256:312|256:312,1,85
360,288,42375,5,0,0:0:0:0:
448,184,42562,1,0,0:0:0:0:
360,80,42750,1,0,0:0:0:0:
360,192,42937,2,8,L|248:192,1,85
176,128,43312,6,0,L|112:64,1,85
320,136,43687,2,0,L|392:64,1,85
256,200,44062,2,2,P|216:280|184:296,1,127.5
256,200,44437,2,0,P|312:280|320:280,1,85,0|0,0:0|0:0,0:0:0:0:
224,136,45000,6,0,L|152:64,1,85
192,184,45375,2,0,L|96:160,1,85
72,96,45750,5,0,0:0:0:0:
72,96,45843,5,0,0:0:0:0:
72,96,45937,5,0,0:0:0:0:
72,96,46125,5,2,0:0:0:0:
192,248,46500,2,0,L|96:312,1,85
304,248,46875,2,0,L|408:312,1,85
368,136,47250,6,4,L|256:136,1,85
64,64,48000,5,0,0:0:0:0:
96,184,48375,2,0,L|240:240,1,144
128,272,48750,2,0,L|288:336,1,144
336,256,49125,1,2,0:0:0:0:
440,64,49500,6,2,L|272:160,1,144
328,40,49875,2,0,L|176:80,1,144
104,168,50250,1,0,0:0:0:0:
136,256,50437,1,0,0:0:0:0:
208,192,50625,1,0,0:0:0:0:
104,168,50812,1,0,0:0:0:0:
136,256,51000,1,2,0:0:0:0:
288,304,51375,6,4,L|440:248,1,144
352,200,51750,2,4,L|480:96,1,144
408,48,52125,1,0,0:0:0:0:
88,56,52875,5,4,0:0:0:0:
256,192,53625,5,0,0:0:0:0:
88,336,54000,6,0,P|32:256|56:216,1,144
136,224,54375,1,0,0:0:0:0:
192,152,54562,2,2,B|264:120|264:120|352:120,1,144
384,176,54937,1,0,0:0:0:0:
352,248,55125,2,0,L|456:376,2,144
192,64,55875,6,0,B|48:176|56:168,1,144
256,200,56250,1,0,0:0:0:0:
320,336,56437,2,0,L|440:216,1,144
256,200,57000,1,0,0:0:0:0:
56,144,57187,2,0,P|88:72|184:48,1,144
384,352,57562,2,4,P|456:312|464:216,1,144
256,200,58125,1,2,0:0:0:0:
416,72,58875,5,0,0:0:0:0:
112,72,59625,1,0,0:0:0:0:
256,192,60000,5,2,0:0:0:0:
400,168,60375,6,0,P|400:80|320:56,1,135.000005149842
280,96,60750,1,0,0:0:0:0:
152,96,60937,5,0,0:0:0:0:
152,96,61125,2,0,P|104:96|160:72,2,135.000005149842
248,80,61687,1,0,0:0:0:0:
352,56,61875,1,0,0:0:0:0:
400,136,62062,1,0,0:0:0:0:
416,232,62250,6,2,B|368:328|368:328|168:328,1,270.000010299683
72,56,63000,6,0,L|192:144,1,135.000005149842
448,344,63375,2,0,L|320:240,1,135.000005149842
256,192,63750,1,0,0:0:0:0:
256,192,63843,1,0,0:0:0:0:
256,192,63937,1,0,0:0:0:0:
256,192,64125,5,2,0:0:0:0:
256,192,64500,12,2,65625,0:0:0:0:
144,152,66000,6,0,B|88:152|88:152|56:128|112:56,2,135.000005149842
144,152,66562,1,0,0:0:0:0:
248,128,66750,2,0,L|240:48,2,67.5000025749208
296,184,67125,2,2,P|232:264|32:232,2,270.000010299683
424,248,68062,1,0,0:0:0:0:
352,96,68250,1,0,0:0:0:0:
168,120,68437,1,0,0:0:0:0:
96,256,68625,1,8,0:0:0:0:
72,176,69000,6,0,P|48:96|88:80,1,135.000005149842
80,80,69375,2,0,P|144:64|160:120,1,135.000005149842
168,208,69750,1,0,0:0:0:0:
168,208,69843,1,0,0:0:0:0:
168,208,69937,1,0,0:0:0:0:
168,208,70125,5,2,0:0:0:0:
264,128,70500,2,2,L|400:48,1,135.000005149842
440,136,70875,1,0,0:0:0:0:
384,208,71062,1,0,0:0:0:0:
456,256,71250,2,2,B|456:344|456:344|384:352|304:320|304:240,1,270.000010299683
256,176,72000,6,0,B|176:144|232:120|272:104|168:48,1,135.000005149842
120,56,72375,1,0,0:0:0:0:
64,136,72562,1,0,0:0:0:0:
136,184,72750,1,10,0:0:0:0:
64,224,73125,2,0,B|64:344|64:344|160:352|216:264,1,270.000010299683
224,200,73687,5,0,0:0:0:0:
288,272,73875,1,0,0:0:0:0:
240,96,74062,1,0,0:0:0:0:
384,240,74250,1,0,0:0:0:0:
384,136,74625,6,2,P|360:80|376:152,1,270.000010299683
448,224,75187,2,0,L|464:304,2,67.5000025749208
432,96,75562,1,0,0:0:0:0:
432,96,75750,2,2,B|328:48|328:48|280:80|280:152|288:192,1,270.000010299683
128,304,76500,6,0,L|40:184,1,135.000005149842
104,120,76875,1,0,0:0:0:0:
104,120,77062,1,0,0:0:0:0:
104,120,77250,2,2,B|96:232|96:232|216:232|224:112,1,270.000010299683
296,264,78000,6,0,P|400:216|288:240,1,270.000010299683
208,176,78562,1,2,0:0:0:0:
264,80,78750,1,0,0:0:0:0:
352,144,79125,2,2,P|448:224|352:304,2,270.000010299683
240,112,80062,1,0,0:0:0:0:
152,96,80250,1,0,0:0:0:0:
96,168,80437,1,0,0:0:0:0:
144,248,80625,1,8,0:0:0:0:
336,288,81000,6,0,L|256:176,1,135.000005149842
320,112,81375,1,0,0:0:0:0:
256,176,81562,1,0,0:0:0:0:
184,232,81750,1,0,0:0:0:0:
96,224,82125,2,2,P|40:128|160:88,2,270.000010299683
184,232,83062,1,0,0:0:0:0:
256,176,83250,1,0,0:0:0:0:
328,120,83437,2,0,B|408:240|400:232,1,135.000005149842
40,96,84000,6,0,B|120:40|120:40|264:40,1,180
328,120,84375,1,0,0:0:0:0:
360,224,84562,2,0,L|128:224,2,180
384,328,85125,1,0,0:0:0:0:
280,288,85312,1,0,0:0:0:0:
176,328,85500,1,0,0:0:0:0:
104,248,85687,6,0,L|16:80,1,180
104,72,86062,1,0,0:0:0:0:
208,136,86250,1,0,0:0:0:0:
328,72,86437,1,0,0:0:0:0:
408,168,86625,1,0,0:0:0:0:
64,120,87000,6,0,P|40:176|48:200,1,90
112,224,87375,1,0,0:0:0:0:
176,168,87562,1,0,0:0:0:0:
264,192,87750,2,0,L|296:280,2,90
344,88,88312,2,0,L|448:40,2,90
264,128,88875,1,0,0:0:0:0:
152,80,89062,1,0,0:0:0:0:
80,160,89250,1,2,0:0:0:0:
80,160,89625,1,0,0:0:0:0:
112,264,90000,6,0,L|192:320,1,90
185,315,90375,1,0,0:0:0:0:
248,272,90562,2,0,P|224:192|240:168,1,90
288,152,90937,1,0,0:0:0:0:
168,128,91125,1,0,0:0:0:0:
80,224,91312,1,0,0:0:0:0:
48,128,91500,2,0,P|80:64|120:48,2,90
88,192,92062,1,0,0:0:0:0:
144,224,92250,6,2,P|216:184|200:72,2,180
112,152,93187,1,0,0:0:0:0:
208,112,93375,1,0,0:0:0:0:
272,200,93562,1,0,0:0:0:0:
320,280,93750,2,0,P|392:304|432:280,2,90
344,208,94312,5,0,0:0:0:0:
408,160,94500,1,0,0:0:0:0:
352,96,94687,1,0,0:0:0:0:
256,72,94875,2,0,L|168:96,1,90
104,176,95250,2,2,B|104:280|104:280|184:312|200:280,2,180
320,112,96375,6,0,L|400:56,2,90
320,160,96937,1,0,0:0:0:0:
352,184,97125,2,8,P|384:264|336:336,1,180
248,336,97687,1,0,0:0:0:0:
176,280,97875,1,0,0:0:0:0:
112,336,98062,1,0,0:0:0:0:
48,272,98250,2,2,B|48:192|48:192|104:144|160:168,2,180
136,296,99375,5,0,0:0:0:0:
256,88,99562,1,0,0:0:0:0:
384,296,99750,1,0,0:0:0:0:
152,152,99937,1,0,0:0:0:0:
256,304,100125,1,0,0:0:0:0:
352,152,100312,1,0,0:0:0:0:
256,192,100500,12,0,101250,0:0:0:0:
72,96,101625,6,0,L|96:144,4,45,2|0|0|0|0,0:0|0:0|0:0|0:0|0:0,0:0:0:0:
112,48,102375,2,0,P|200:24|296:56,1,180
360,120,102937,1,0,0:0:0:0:
376,208,103125,2,0,L|424:240,2,45
256,176,103500,2,0,L|192:88,1,90
203,103,103875,1,8,0:0:0:0:
120,72,104062,2,4,P|64:112|64:136,2,90
120,72,104625,1,0,0:0:0:0:
296,240,105000,6,0,L|296:136,1,90
216,152,105375,2,0,L|216:248,1,90
384,144,105750,2,0,L|384:40,1,90
104,248,106125,2,0,L|104:352,1,90
400,320,106500,2,0,L|328:256,1,90
104,64,106875,2,0,L|184:144,1,90
256,192,107250,1,0,0:0:0:0:
256,192,107343,1,0,0:0:0:0:
256,192,107437,1,0,0:0:0:0:
256,192,107625,5,2,0:0:0:0:
400,48,108000,6,0,L|272:64,1,90
360,112,108375,2,0,L|248:136,1,90
200,136,108750,1,0,0:0:0:0:
136,64,108937,1,0,0:0:0:0:
80,144,109125,1,0,0:0:0:0:
88,232,109312,1,0,0:0:0:0:
88,232,109500,2,2,B|136:296|136:288|152:272|256:272|64:296,2,180
88,152,110625,2,0,B|128:152|168:112|168:112|200:152|256:152,1,180
336,232,111187,6,0,L|384:312,2,90
368,176,111750,1,0,0:0:0:0:
304,128,111937,1,0,0:0:0:0:
240,96,112125,1,0,0:0:0:0:
144,112,112312,1,0,0:0:0:0:
144,112,112500,1,0,0:0:0:0:
128,184,112687,2,0,L|192:288,1,90
264,288,113250,2,2,B|360:296|360:296|424:264|416:192,2,180
192,144,114375,6,0,P|232:128|232:80,1,90
320,64,114750,1,0,0:0:0:0:
376,128,114937,1,0,0:0:0:0:
336,200,115125,1,0,0:0:0:0:
304,296,115312,2,0,L|400:296,2,90
216,256,115875,1,0,0:0:0:0:
160,208,116250,2,2,B|160:96|160:96|224:72|240:104,2,180
104,56,117375,6,8,P|56:88|64:120,1,90
120,120,117937,1,4,0:0:0:0:
120,120,118500,2,0,L|216:120,2,90
80,192,119062,2,0,P|72:272|104:280,1,90
176,280,119437,2,0,P|200:240|176:200,1,90
368,96,120000,6,0,L|424:32,1,72
368,96,120187,2,0,L|376:24,1,72
368,96,120750,2,0,B|344:152|192:168|192:168|192:272,1,288
320,304,121500,2,0,P|376:256|328:232,1,144
232,184,121875,2,0,P|168:216|208:272,1,144
272,240,122250,1,2,0:0:0:0:
272,240,122625,1,2,0:0:0:0:
224,112,123000,6,0,P|320:112|328:152,1,144
272,144,123375,2,0,B|240:240|240:240|152:240,1,144
120,200,123750,1,2,0:0:0:0:
80,128,124125,1,2,0:0:0:0:
256,192,124500,12,0,125625,0:0:0:0:
72,72,126000,6,0,B|120:120|120:120|184:88|192:80,1,144
304,176,126375,2,0,B|248:136|248:136|184:184,1,144
80,272,126750,2,2,L|128:272,2,45
48,40,127500,6,0,L|192:40,1,135.000005149842
448,40,127875,2,0,L|304:40,1,135.000005149842
232,120,128250,2,2,B|272:160|272:160|272:160|240:192|240:208|248:216|256:224|296:248,2,135.000005149842
64,256,129000,1,0,0:0:0:0:
64,256,129187,1,0,0:0:0:0:
64,256,129375,1,0,0:0:0:0:
64,256,129562,1,0,0:0:0:0:
64,256,129750,2,0,B|176:256|176:256|80:176|232:168,1,270.000010299683
256,192,130500,12,0,132000,0:0:0:0:
64,104,132375,5,0,0:0:0:0:
152,56,132562,1,0,0:0:0:0:
208,120,132750,1,0,0:0:0:0:
152,200,132937,2,0,B|192:216|192:216|248:184|280:216,1,127.500004863739
152,256,133312,2,0,B|192:272|192:272|248:240|280:272,1,127.500004863739
368,288,133687,1,0,0:0:0:0:
432,200,133875,1,8,0:0:0:0:
400,104,134062,1,10,0:0:0:0:
320,64,134250,2,0,B|248:64|248:64|144:112|144:112,2,127.500004863739
136,56,135000,6,0,P|80:136|80:168,1,127.500004863739
128,224,135375,1,0,0:0:0:0:
128,224,135468,1,0,0:0:0:0:
128,224,135562,1,0,0:0:0:0:
128,224,135750,1,2,0:0:0:0:
128,232,135937,2,0,P|160:312|224:336,1,127.500004863739
256,192,136500,12,0,137625,0:0:0:0:
168,72,138000,6,0,L|32:72,2,127.500004863739
240,88,138562,1,0,0:0:0:0:
240,168,138750,2,2,P|304:248|400:152,2,255.000009727478
240,88,139687,1,0,0:0:0:0:
304,168,139875,1,0,0:0:0:0:
224,224,140062,1,0,0:0:0:0:
224,224,140250,2,2,P|88:256|112:352,2,255.000009727478
320,208,141187,5,0,0:0:0:0:
240,112,141374,1,0,0:0:0:0:
216,224,141562,1,0,0:0:0:0:
216,224,141750,2,0,B|208:296|208:296|120:312|64:248|56:200,1,255.000009727478
