osu file format v12

[General]
AudioFilename: Sha Ma Te.mp3
AudioLeadIn: 1500
PreviewTime: 16014
Countdown: 1
SampleSet: Soft
StackLeniency: 0.7
Mode: 0
LetterboxInBreaks: 1
WidescreenStoryboard: 0

[Editor]
Bookmarks: 16134,31494,46854,62214,77574,92934,108294,123654,139014,154374,169734,185094,200454,215814,231174
DistanceSpacing: 0.8
BeatDivisor: 4
GridSize: 4

[Metadata]
Title:Sha Ma Te Yu Jian Xi Jian Chui
TitleUnicode:杀马特遇见洗剪吹
Artist:Wu Se Shi Nan Ye
ArtistUnicode:五色石南叶
Creator:popner
Version:Insane
Source:
Tags:杀马特 洗剪吹 shamate xijianchui Amamiya Yuko skystar Megurine Luka SHINEE Ring Ding Dong bilibili
BeatmapID:306442
BeatmapSetID:119335

[Difficulty]
HPDrainRate:7
CircleSize:4
OverallDifficulty:7
ApproachRate:8
SliderMultiplier:1.76
SliderTickRate:1

[Events]
//Background and Video events
0,0,"BG.jpg",0,0
//Break Periods
2,93134,106824
2,154454,167064
//Storyboard Layer 0 (Background)
//Storyboard Layer 1 (Fail)
//Storyboard Layer 2 (Pass)
//Storyboard Layer 3 (Foreground)
//Storyboard Sound Samples
//Background Colour Transformations
3,100,163,162,255

[TimingPoints]
774,480,4,2,2,50,1,0
14814,-100,4,2,2,20,0,0
16134,-100,4,2,1,60,0,1
31494,-100,4,2,1,60,0,0
62214,-100,4,2,1,70,0,1
77574,-100,4,2,1,60,0,0
91014,-100,4,2,1,40,0,0
92934,-100,4,2,1,60,0,0
122094,-100,4,2,1,20,0,0
123654,-100,4,2,1,70,0,1
139014,-100,4,2,1,60,0,0
141894,-66.6666666666667,4,2,1,60,0,0
142374,-100,4,2,1,60,0,0
145734,-66.6666666666667,4,2,1,60,0,0
146214,-100,4,2,1,60,0,0
167814,-100,4,2,1,40,0,0
169734,-100,4,2,1,60,0,0
185094,-100,4,2,1,70,0,1
200454,-100,4,2,1,60,0,0
213894,-100,4,2,1,40,0,0
215814,-100,4,2,1,60,0,1
230214,-100,4,2,1,40,0,0
230214,-100,4,2,1,60,0,0

[Colours]
Combo1 : 244,18,0
Combo2 : 225,147,0
Combo3 : 244,86,0
Combo4 : 244,202,0

[HitObjects]
280,100,774,2,0,P|344:100|404:132,1,132,2|0,0:0|0:0,0:0:0:0:
448,192,1254,2,0,L|428:280,1,88
288,264,1734,1,0,0:0:0:0:
288,264,1854,2,0,L|307:178,1,88
228,160,2214,2,0,L|208:245,1,88
88,336,2694,5,0,0:0:0:0:
40,196,2934,2,0,P|84:188|128:196,2,88
156,288,3654,1,0,0:0:0:0:
156,288,3774,2,0,P|199:295|242:287,1,88
242,288,4134,2,0,L|222:202,1,88
248,48,4614,6,0,P|308:68|382:59,1,132,2|0,0:0|0:0,0:0:0:0:
444,28,5094,2,0,L|464:116,1,88
368,232,5574,1,0,0:0:0:0:
368,232,5694,2,0,L|348:146,1,88
268,164,6054,2,0,L|287:249,1,88
448,216,6534,1,0,0:0:0:0:
287,249,6774,6,0,L|244:260,2,44
424,292,7254,1,0,0:0:0:0:
396,156,7494,2,0,L|380:68,1,88
236,180,7974,1,0,0:0:0:0:
268,32,8214,2,0,L|316:24,2,44,0|0|2,0:0|0:0|0:0,0:0:0:0:
156,204,8814,5,0,0:0:0:0:
156,204,8934,2,0,P|180:240|228:260,1,88
172,120,9414,1,0,0:0:0:0:
180,284,9774,1,0,0:0:0:0:
180,284,9894,2,0,P|144:316|104:328,1,88
156,204,10374,1,0,0:0:0:0:
264,284,10614,6,0,L|280:332,2,44
296,152,11094,1,0,0:0:0:0:
180,284,11334,2,0,L|120:348,1,88
232,212,11814,2,0,L|208:124,1,88
264,284,12294,6,0,L|396:304,1,132
444,236,12774,2,0,L|352:220,1,88
308,96,13254,1,0,0:0:0:0:
308,96,13374,2,0,L|396:80,1,88
444,148,13734,2,0,L|352:164,1,88
224,80,14214,6,0,P|236:144|216:212,1,132
148,180,14694,1,0,0:0:0:0:
256,192,14814,12,0,15894,0:0:0:0:
88,104,16134,6,0,P|80:148|96:188,1,88,2|0,0:0|0:0,0:0:0:0:
120,208,16494,1,0,0:0:0:0:
152,232,16614,2,0,P|167:272|159:315,1,88,8|2,0:0|0:0,0:0:0:0:
312,356,17094,2,0,P|338:321|377:302,1,88,0|0,0:0|0:0,0:0:0:0:
412,308,17454,1,0,0:0:0:0:
444,316,17574,2,0,P|483:296|509:262,1,88,8|0,0:0|0:0,0:0:0:0:
448,124,18054,1,2,0:0:0:0:
300,164,18294,5,0,0:0:0:0:
264,160,18414,1,0,0:0:0:0:
240,132,18534,1,8,0:0:0:0:
376,192,18774,1,2,0:0:0:0:
412,196,18894,1,0,0:0:0:0:
436,224,19014,1,0,0:0:0:0:
308,84,19374,1,0,0:0:0:0:
372,272,19734,1,0,0:0:0:0:
232,324,19974,6,0,P|184:320|152:296,1,88,2|0,0:0|0:0,0:0:0:0:
140,264,20334,1,0,0:0:0:0:
128,228,20454,2,0,P|92:203|48:201,1,88,8|2,0:0|0:0,0:0:0:0:
176,128,20934,2,0,P|218:136|261:125,1,88,0|0,0:0|0:0,0:0:0:0:
292,108,21294,1,0,0:0:0:0:
320,92,21414,2,0,P|362:81|405:89,1,88,8|0,0:0|0:0,0:0:0:0:
504,204,21894,1,2,0:0:0:0:
376,320,22134,5,0,0:0:0:0:
344,332,22254,1,0,0:0:0:0:
308,332,22374,1,8,0:0:0:0:
164,308,22614,1,2,0:0:0:0:
196,296,22734,1,0,0:0:0:0:
232,296,22854,1,0,0:0:0:0:
48,360,23214,1,0,0:0:0:0:
80,160,23574,1,0,0:0:0:0:
228,208,23814,6,0,P|284:224|320:216,1,88,2|0,0:0|0:0,0:0:0:0:
340,200,24174,1,0,0:0:0:0:
368,184,24294,2,0,P|408:168|452:173,1,88,8|2,0:0|0:0,0:0:0:0:
416,324,24774,2,0,P|400:328|328:316,1,88,0|0,0:0|0:0,0:0:0:0:
304,296,25134,1,0,0:0:0:0:
276,276,25254,2,0,P|236:272|192:288,1,88,8|0,0:0|0:0,0:0:0:0:
52,348,25734,1,2,0:0:0:0:
76,192,25974,5,0,0:0:0:0:
84,156,26094,1,0,0:0:0:0:
76,120,26214,1,8,0:0:0:0:
128,252,26454,1,2,0:0:0:0:
120,288,26574,1,0,0:0:0:0:
128,324,26694,1,0,0:0:0:0:
4,156,27054,1,0,0:0:0:0:
204,288,27414,1,0,0:0:0:0:
164,144,27654,6,0,P|188:104|224:80,1,88,2|0,0:0|0:0,0:0:0:0:
256,80,28014,1,0,0:0:0:0:
288,96,28134,2,0,P|332:112|380:108,1,88,8|2,0:0|0:0,0:0:0:0:
488,208,28614,2,0,P|496:256|488:300,1,88,0|0,0:0|0:0,0:0:0:0:
464,320,28974,1,0,0:0:0:0:
432,336,29094,2,0,P|404:328|344:328,1,88,8|0,0:0|0:0,0:0:0:0:
204,288,29574,1,2,0:0:0:0:
300,172,29814,5,0,0:0:0:0:
316,204,29934,1,0,0:0:0:0:
316,240,30054,1,8,0:0:0:0:
288,376,30294,1,2,0:0:0:0:
272,344,30414,1,0,0:0:0:0:
272,308,30534,1,0,0:0:0:0:
392,156,30894,1,0,0:0:0:0:
196,128,31254,1,0,0:0:0:0:
332,216,31494,6,0,P|368:236|416:236,2,88,2|0|8,0:0|0:0|0:0,0:0:0:0:
292,144,32214,1,2,0:0:0:0:
300,112,32334,1,0,0:0:0:0:
308,76,32454,1,0,0:0:0:0:
240,24,32694,2,0,P|192:24|148:40,2,88,0|8|0,0:0|0:0|0:0,0:0:0:0:
380,120,33414,6,0,P|428:120|472:104,1,88,2|0,0:0|0:0,0:0:0:0:
412,44,33894,1,8,0:0:0:0:
380,120,34134,1,2,0:0:0:0:
384,156,34254,1,0,0:0:0:0:
388,192,34374,1,0,0:0:0:0:
328,252,34614,1,2,0:0:0:0:
296,264,34734,1,0,0:0:0:0:
260,264,34854,2,0,L|252:176,1,88,8|0,0:0|0:0,0:0:0:0:
120,60,35334,6,0,P|76:56|34:68,1,88,2|0,0:0|0:0,0:0:0:0:
92,136,35814,2,0,P|136:140|178:128,1,88,8|2,0:0|0:0,0:0:0:0:
208,112,36174,1,0,0:0:0:0:
236,92,36294,2,0,L|244:184,1,88
248,212,36654,1,0,0:0:0:0:
252,244,36774,2,0,P|296:260|340:256,1,88,8|0,0:0|0:0,0:0:0:0:
496,232,37254,6,0,P|452:216|408:220,1,88,2|0,0:0|0:0,0:0:0:0:
404,384,37734,2,0,P|416:344|408:296,1,88,8|2,0:0|0:0,0:0:0:0:
392,264,38094,1,0,0:0:0:0:
376,232,38214,2,0,P|368:188|380:145,1,88,0|2,0:0|0:0,0:0:0:0:
436,80,38694,2,0,L|348:68,1,88,8|0,0:0|0:0,0:0:0:0:
172,64,39174,6,0,P|157:106|160:156,1,88,2|0,0:0|0:0,0:0:0:0:
244,124,39654,2,0,P|245:167|230:208,1,88,8|2,0:0|0:0,0:0:0:0:
196,216,40014,1,0,0:0:0:0:
160,224,40134,2,0,P|145:266|148:316,1,88
232,284,40614,2,0,P|233:327|218:368,1,88,8|0,0:0|0:0,0:0:0:0:
384,356,41094,5,2,0:0:0:0:
384,356,41214,2,0,L|472:348,1,88
464,272,41574,2,0,L|376:280,1,88,8|2,0:0|0:0,0:0:0:0:
368,204,42054,2,0,L|456:196,2,88,0|2|8,0:0|0:0|0:0,0:0:0:0:
228,220,42774,1,0,0:0:0:0:
104,152,43014,6,0,L|16:160,2,88,2|0|8,0:0|0:0|0:0,0:0:0:0:
148,224,43734,1,2,0:0:0:0:
144,260,43854,1,0,0:0:0:0:
140,296,43974,1,0,0:0:0:0:
208,348,44214,2,0,P|248:360|296:356,1,88,0|8,0:0|0:0,0:0:0:0:
380,240,44694,6,0,L|372:328,1,88,0|2,0:0|0:0,0:0:0:0:
292,268,45174,2,0,B|300:212|300:212|316:176|344:164|344:164|352:108,1,176,0|2,0:0|0:0,0:0:0:0:
256,20,45894,1,0,0:0:0:0:
160,112,46134,2,0,B|168:164|168:164|184:172|196:188,1,88,2|8,0:0|0:0,0:0:0:0:
220,268,46614,1,0,0:0:0:0:
64,292,46854,6,0,P|92:264|140:244,1,88,2|0,0:0|0:0,0:0:0:0:
220,268,47334,1,8,0:0:0:0:
252,280,47454,1,0,0:0:0:0:
288,284,47574,1,2,0:0:0:0:
324,276,47694,1,0,0:0:0:0:
352,256,47814,1,0,0:0:0:0:
420,196,48054,2,0,L|436:288,1,88,0|8,0:0|0:0,0:0:0:0:
504,224,48534,1,0,0:0:0:0:
348,156,48774,6,0,L|332:69,2,88,2|0|8,0:0|0:0|0:0,0:0:0:0:
320,176,49374,1,0,0:0:0:0:
284,184,49494,1,2,0:0:0:0:
248,180,49614,1,0,0:0:0:0:
216,168,49734,1,0,0:0:0:0:
140,120,49974,1,2,0:0:0:0:
104,128,50094,1,0,0:0:0:0:
76,148,50214,2,0,L|68:236,1,88,8|0,0:0|0:0,0:0:0:0:
200,352,50694,6,0,L|208:264,1,88,2|0,0:0|0:0,0:0:0:0:
296,240,51174,1,8,0:0:0:0:
292,276,51294,1,0,0:0:0:0:
288,312,51414,1,2,0:0:0:0:
284,348,51534,1,0,0:0:0:0:
280,384,51654,1,0,0:0:0:0:
368,364,51894,2,0,L|376:276,2,88,0|8|0,0:0|0:0|0:0,0:0:0:0:
424,212,52614,6,0,P|472:208|512:216,2,88,2|0|8,0:0|0:0|0:0,0:0:0:0:
340,204,53334,1,2,0:0:0:0:
332,168,53454,1,0,0:0:0:0:
336,132,53574,1,0,0:0:0:0:
352,100,53694,1,0,0:0:0:0:
380,80,53814,2,0,L|424:60,4,44,2|0|8|0|0,0:0|0:0|0:0|0:0|0:0,0:0:0:0:
204,80,54534,6,0,L|116:72,2,88,2|0|8,0:0|0:0|0:0,0:0:0:0:
272,132,55254,1,2,0:0:0:0:
196,160,55494,2,0,L|108:152,2,88,0|0|8,0:0|0:0|0:0,0:0:0:0:
264,212,56214,1,0,0:0:0:0:
188,240,56454,6,0,L|140:236,3,44,2|0|0|0,0:0|0:0|0:0|0:0,0:0:0:0:
188,240,56934,2,0,L|204:328,1,88,8|2,0:0|0:0,0:0:0:0:
280,292,57414,2,0,L|368:276,1,88,0|2,0:0|0:0,0:0:0:0:
400,268,57774,1,0,0:0:0:0:
432,260,57894,2,0,L|492:248,2,44,8|0|0,0:0|0:0|0:0,0:0:0:0:
320,124,58374,6,0,P|312:76|320:36,2,88,2|0|8,0:0|0:0|0:0,0:0:0:0:
400,80,59094,1,2,0:0:0:0:
408,116,59214,1,0,0:0:0:0:
408,152,59334,1,0,0:0:0:0:
388,184,59454,1,0,0:0:0:0:
360,204,59574,1,0,0:0:0:0:
272,196,59814,1,8,0:0:0:0:
196,152,60054,2,0,P|128:192|120:284,1,176
300,336,60774,5,8,0:0:0:0:
200,240,61014,2,0,L|124:196,1,88,2|0,0:0|0:0,0:0:0:0:
328,184,61494,2,0,L|416:152,1,88,2|8,0:0|0:0,0:0:0:0:
160,100,61974,1,0,0:0:0:0:
384,48,62214,6,0,B|448:116|376:132|440:208,1,176,2|8,0:0|0:0,0:0:0:0:
408,288,62934,1,2,0:0:0:0:
376,296,63054,1,0,0:0:0:0:
344,304,63174,1,0,0:0:0:0:
344,216,63414,1,0,0:0:0:0:
308,216,63534,1,0,0:0:0:0:
272,216,63654,2,0,L|184:216,1,88,8|0,0:0|0:0,0:0:0:0:
28,140,64134,5,2,0:0:0:0:
92,267,64374,2,0,P|107:227|108:184,1,88,0|8,0:0|0:0,0:0:0:0:
104,96,64854,1,2,0:0:0:0:
136,88,64974,1,0,0:0:0:0:
168,80,65094,1,0,0:0:0:0:
184,156,65334,1,2,0:0:0:0:
220,156,65454,1,0,0:0:0:0:
256,156,65574,2,0,L|344:156,1,88,8|0,0:0|0:0,0:0:0:0:
388,312,66054,6,0,B|304:336|304:284|216:312,1,176,2|8,0:0|0:0,0:0:0:0:
136,344,66774,1,2,0:0:0:0:
112,320,66894,1,0,0:0:0:0:
88,296,67014,1,0,0:0:0:0:
160,252,67254,2,0,L|152:208,2,44,0|0|8,0:0|0:0|0:0,0:0:0:0:
244,256,67734,2,0,L|264:164,1,88,0|2,0:0|0:0,0:0:0:0:
388,256,68214,6,0,L|436:256,2,44,0|0|8,0:0|0:0|0:0,0:0:0:0:
244,256,68694,1,2,0:0:0:0:
388,256,68934,1,0,0:0:0:0:
316,208,69174,1,2,0:0:0:0:
324,172,69294,1,0,0:0:0:0:
332,136,69414,1,8,0:0:0:0:
420,120,69654,2,0,L|408:172,2,44,0|0|2,0:0|0:0|0:0,0:0:0:0:
360,56,70134,5,0,0:0:0:0:
276,72,70374,2,0,P|232:80|188:72,1,88,8|2,0:0|0:0,0:0:0:0:
160,56,70734,1,0,0:0:0:0:
136,32,70854,2,0,P|88:36|48:56,1,88
28,136,71334,2,0,P|76:132|116:112,1,88,8|0,0:0|0:0,0:0:0:0:
220,208,71814,6,0,P|176:192|132:192,1,88,2|0,0:0|0:0,0:0:0:0:
104,204,72174,1,0,0:0:0:0:
80,228,72294,2,0,L|68:320,1,88,8|2,0:0|0:0,0:0:0:0:
124,376,72774,1,0,0:0:0:0:
196,336,73014,2,0,L|204:284,2,44,2|0|8,0:0|0:0|0:0,0:0:0:0:
308,384,73494,1,0,0:0:0:0:
416,320,73734,6,0,L|400:232,2,88,2|0|8,0:0|0:0|0:0,0:0:0:0:
496,280,74454,1,2,0:0:0:0:
488,244,74574,1,0,0:0:0:0:
480,208,74694,1,0,0:0:0:0:
472,172,74814,1,0,0:0:0:0:
464,136,74934,1,0,0:0:0:0:
384,104,75174,2,0,P|340:100|296:116,1,88,8|0,0:0|0:0,0:0:0:0:
200,236,75654,6,0,P|244:240|288:224,1,88,2|0,0:0|0:0,0:0:0:0:
352,180,76134,1,8,0:0:0:0:
299,114,76374,1,2,0:0:0:0:
266,107,76494,1,0,0:0:0:0:
233,107,76614,1,0,0:0:0:0:
201,114,76734,1,0,0:0:0:0:
171,126,76854,2,0,P|136:152|112:192,2,88,2|8|0,0:0|0:0|0:0,0:0:0:0:
352,180,77574,5,2,0:0:0:0:
352,180,77814,2,0,L|348:268,1,88,0|8,0:0|0:0,0:0:0:0:
264,264,78294,2,0,L|268:176,1,88,2|0,0:0|0:0,0:0:0:0:
352,180,78774,38,0,L|348:268,1,88,0|8,0:0|0:0,0:0:0:0:
264,264,79254,2,0,L|268:176,1,88,0|2,0:0|0:0,0:0:0:0:
352,180,79734,6,0,L|348:268,1,88,0|8,0:0|0:0,0:0:0:0:
264,264,80214,5,2,0:0:0:0:
232,252,80334,1,0,0:0:0:0:
208,224,80454,2,0,L|216:92,1,132
215,92,80934,1,8,0:0:0:0:
300,108,81174,6,0,L|388:100,1,88,0|2,0:0|0:0,0:0:0:0:
376,20,81654,2,0,L|288:28,1,88,0|8,0:0|0:0,0:0:0:0:
300,108,82134,6,0,L|388:100,1,88,2|0,0:0|0:0,0:0:0:0:
376,20,82614,2,0,L|288:28,1,88,0|8,0:0|0:0,0:0:0:0:
300,108,83094,6,0,L|388:100,1,88,0|2,0:0|0:0,0:0:0:0:
376,20,83574,2,0,L|288:28,1,88,0|8,0:0|0:0,0:0:0:0:
300,108,84054,5,2,0:0:0:0:
312,140,84174,1,0,0:0:0:0:
336,164,84294,2,0,L|484:148,1,132
467,149,84774,2,0,P|480:196|476:240,1,88,8|0,0:0|0:0,0:0:0:0:
384,316,85254,6,0,P|320:332|256:308,1,132,2|0,0:0|0:0,0:0:0:0:
259,310,85734,1,8,0:0:0:0:
324,248,85974,1,2,0:0:0:0:
340,332,86214,6,0,P|276:348|212:324,1,132
215,326,86694,1,8,0:0:0:0:
280,264,86934,1,0,0:0:0:0:
296,348,87174,6,0,P|232:364|168:340,1,132,2|0,0:0|0:0,0:0:0:0:
171,342,87654,1,8,0:0:0:0:
236,280,87894,1,2,0:0:0:0:
252,364,88134,6,0,P|188:380|124:356,1,132
127,358,88614,1,8,0:0:0:0:
192,296,88854,1,0,0:0:0:0:
112,268,89094,6,0,P|100:200|136:144,1,132,2|0,0:0|0:0,0:0:0:0:
130,148,89574,1,8,0:0:0:0:
180,216,89814,1,2,0:0:0:0:
95,227,90054,6,0,P|118:162|177:131,1,132
171,132,90534,1,8,0:0:0:0:
180,216,90774,1,0,0:0:0:0:
100,183,91014,6,0,P|152:138|219:141,1,132
212,138,91494,1,0,0:0:0:0:
180,216,91734,1,0,0:0:0:0:
127,147,91974,6,0,P|195:135|250:171,1,132
246,166,92454,1,0,0:0:0:0:
180,216,92694,1,0,0:0:0:0:
168,132,92934,5,2,0:0:0:0:
180,232,107574,6,0,P|188:192|216:156,1,88
292,116,108054,1,0,0:0:0:0:
380,112,108294,6,0,P|372:152|344:188,1,88,2|0,0:0|0:0,0:0:0:0:
292,116,108774,1,8,0:0:0:0:
260,104,108894,1,0,0:0:0:0:
224,100,109014,1,2,0:0:0:0:
188,108,109134,1,0,0:0:0:0:
160,128,109254,1,0,0:0:0:0:
88,184,109494,2,0,L|84:228,2,44,0|0|8,0:0|0:0|0:0,0:0:0:0:
16,132,109974,1,0,0:0:0:0:
36,304,110214,6,0,P|76:312|128:304,1,88,2|0,0:0|0:0,0:0:0:0:
164,228,110694,1,8,0:0:0:0:
192,208,110814,1,0,0:0:0:0:
228,200,110934,1,2,0:0:0:0:
264,204,111054,1,0,0:0:0:0:
296,216,111174,1,0,0:0:0:0:
372,264,111414,1,2,0:0:0:0:
368,300,111534,1,0,0:0:0:0:
380,88,112134,6,0,L|372:176,1,88,2|0,0:0|0:0,0:0:0:0:
296,216,112614,1,8,0:0:0:0:
264,204,112734,1,0,0:0:0:0:
244,176,112854,1,2,0:0:0:0:
244,140,112974,1,0,0:0:0:0:
260,108,113094,1,0,0:0:0:0:
208,40,113334,1,0,0:0:0:0:
132,80,113574,2,0,P|88:92|44:88,1,88,8|0,0:0|0:0,0:0:0:0:
0,256,114054,6,0,L|12:344,2,88,2|0|8,0:0|0:0|0:0,0:0:0:0:
52,184,114774,1,2,0:0:0:0:
84,172,114894,1,0,0:0:0:0:
120,176,115014,1,0,0:0:0:0:
152,196,115134,1,0,0:0:0:0:
184,216,115254,1,2,0:0:0:0:
220,220,115374,1,0,0:0:0:0:
252,208,115494,2,0,L|292:188,2,44,8|0|0,0:0|0:0|0:0,0:0:0:0:
308,304,115974,6,0,L|396:312,2,88,2|0|8,0:0|0:0|0:0,0:0:0:0:
332,224,116694,1,2,0:0:0:0:
351,226,116814,1,0,0:0:0:0:
370,228,116934,1,0,0:0:0:0:
390,230,117054,1,0,0:0:0:0:
344,146,117294,1,0,0:0:0:0:
324,144,117414,2,0,L|412:152,1,88,8|0,0:0|0:0,0:0:0:0:
244,172,117894,6,0,L|232:264,2,88,2|0|8,0:0|0:0|0:0,0:0:0:0:
160,184,118614,1,2,0:0:0:0:
144,172,118734,1,0,0:0:0:0:
128,160,118854,1,0,0:0:0:0:
113,148,118974,1,0,0:0:0:0:
211,100,119214,1,0,0:0:0:0:
192,108,119334,2,0,L|277:72,1,88,8|0,0:0|0:0,0:0:0:0:
308,76,119694,1,0,0:0:0:0:
340,92,119814,6,0,P|368:128|380:176,1,88,2|0,0:0|0:0,0:0:0:0:
364,248,120294,1,8,0:0:0:0:
300,304,120534,1,2,0:0:0:0:
267,298,120654,1,0,0:0:0:0:
234,296,120774,1,0,0:0:0:0:
201,297,120894,1,0,0:0:0:0:
169,303,121014,1,0,0:0:0:0:
96,352,121254,1,8,0:0:0:0:
36,288,121494,2,0,B|44:200|44:200|64:160|116:144,1,176
256,192,122094,12,0,123414,0:0:0:0:
168,192,123654,6,0,B|256:168|256:216|344:192,1,176,2|8,0:0|0:0,0:0:0:0:
416,152,124374,1,2,0:0:0:0:
420,116,124494,1,0,0:0:0:0:
424,80,124614,1,0,0:0:0:0:
356,28,124854,1,0,0:0:0:0:
328,52,124974,1,0,0:0:0:0:
296,64,125094,2,0,L|208:64,1,88,8|0,0:0|0:0,0:0:0:0:
112,152,125574,5,2,0:0:0:0:
208,240,125814,2,0,L|296:240,1,88,0|8,0:0|0:0,0:0:0:0:
376,272,126294,1,2,0:0:0:0:
380,308,126414,1,0,0:0:0:0:
364,340,126534,1,0,0:0:0:0:
292,292,126774,1,2,0:0:0:0:
288,256,126894,1,0,0:0:0:0:
304,224,127014,2,0,P|336:196|384:184,1,88,8|0,0:0|0:0,0:0:0:0:
364,340,127494,6,0,B|304:376|304:376|240:372|216:324,1,176,2|8,0:0|0:0,0:0:0:0:
200,240,128214,1,2,0:0:0:0:
208,204,128334,1,0,0:0:0:0:
216,168,128454,1,0,0:0:0:0:
180,88,128694,1,0,0:0:0:0:
148,72,128814,1,0,0:0:0:0:
112,76,128934,2,0,P|72:80|28:64,1,88,8|0,0:0|0:0,0:0:0:0:
128,160,129414,6,0,L|108:248,1,88,2|0,0:0|0:0,0:0:0:0:
80,276,129774,1,0,0:0:0:0:
52,304,129894,2,0,P|92:324|140:324,1,88,8|2,0:0|0:0,0:0:0:0:
212,296,130374,1,0,0:0:0:0:
276,236,130614,1,2,0:0:0:0:
308,224,130734,1,0,0:0:0:0:
344,224,130854,1,8,0:0:0:0:
391,298,131094,5,0,0:0:0:0:
359,310,131214,1,0,0:0:0:0:
323,310,131334,2,0,L|275:234,1,88,2|0,0:0|0:0,0:0:0:0:
316,144,131814,2,0,L|362:218,1,88,8|2,0:0|0:0,0:0:0:0:
400,220,132174,1,0,0:0:0:0:
432,208,132294,1,0,0:0:0:0:
408,136,132534,2,0,L|361:61,1,88,0|8,0:0|0:0,0:0:0:0:
228,144,133014,1,0,0:0:0:0:
320,268,133254,6,0,P|364:284|408:284,1,88,2|0,0:0|0:0,0:0:0:0:
436,272,133614,1,0,0:0:0:0:
460,248,133734,2,0,L|472:156,1,88,8|2,0:0|0:0,0:0:0:0:
412,104,134214,1,0,0:0:0:0:
348,56,134454,2,0,L|354:12,2,44,2|0|8,0:0|0:0|0:0,0:0:0:0:
236,124,134934,1,0,0:0:0:0:
124,192,135174,6,0,L|112:280,2,88,2|0|8,0:0|0:0|0:0,0:0:0:0:
208,220,135894,1,2,0:0:0:0:
204,256,136014,1,0,0:0:0:0:
200,292,136134,1,0,0:0:0:0:
220,320,136254,1,0,0:0:0:0:
256,328,136374,1,0,0:0:0:0:
336,296,136614,2,0,P|376:284|424:288,1,88,8|0,0:0|0:0,0:0:0:0:
512,152,137094,6,0,P|472:164|424:160,1,88,2|0,0:0|0:0,0:0:0:0:
356,108,137574,1,8,0:0:0:0:
268,104,137814,1,2,0:0:0:0:
232,112,137934,1,0,0:0:0:0:
204,132,138054,1,0,0:0:0:0:
180,160,138174,1,0,0:0:0:0:
172,196,138294,1,2,0:0:0:0:
176,232,138414,1,0,0:0:0:0:
180,268,138534,2,0,L|185:319,2,44,8|0|0,0:0|0:0|0:0,0:0:0:0:
360,236,139014,6,0,P|400:208|416:172,1,88,2|0,0:0|0:0,0:0:0:0:
416,140,139374,1,0,0:0:0:0:
416,108,139494,2,0,P|435:69|471:45,1,88,8|2,0:0|0:0,0:0:0:0:
308,108,139974,2,0,P|264:120|220:116,1,88
192,100,140334,1,0,0:0:0:0:
160,84,140454,2,0,P|116:80|74:92,1,88,8|0,0:0|0:0,0:0:0:0:
68,264,140934,6,0,P|132:272|200:252,1,132,2|0,0:0|0:0,0:0:0:0:
196,253,141414,2,0,L|284:272,1,88,8|2,0:0|0:0,0:0:0:0:
364,292,141894,2,0,B|376:284|376:284|368:272|368:272|384:272|384:272|376:260|376:260|392:260|392:260|384:248|384:248|400:248|400:248|392:236|392:236|408:236|408:236|400:224|400:224|416:224|416:224|408:212|408:212|424:212|424:212|416:200|416:200|432:200|432:200|424:188|424:188|440:188|440:188|436:176,1,264.000010070801,0|8,0:0|0:0,0:0:0:0:
300,52,142614,5,0,0:0:0:0:
268,36,142734,1,0,0:0:0:0:
232,40,142854,2,0,L|144:60,1,88,2|0,0:0|0:0,0:0:0:0:
76,112,143334,2,0,P|76:160|92:200,1,88,8|2,0:0|0:0,0:0:0:0:
172,228,143814,2,0,P|172:180|156:140,1,88
236,84,144294,2,0,P|236:132|252:172,1,88,8|0,0:0|0:0,0:0:0:0:
280,188,144654,1,0,0:0:0:0:
316,192,144774,6,0,L|408:180,1,88,2|0,0:0|0:0,0:0:0:0:
456,256,145254,2,0,L|368:267,1,88,8|2,0:0|0:0,0:0:0:0:
352,356,145734,2,0,B|365:359|365:359|369:345|369:345|380:357|380:357|383:343|383:343|394:355|394:355|398:341|398:341|408:353|408:353|412:339|412:339|423:351|423:351|426:337|426:337|437:349|437:349|440:335|440:335|451:347|451:347|455:333|455:333|465:344|465:344|469:330|469:330|480:342|480:342|486:331,1,264,0|8,0:0|0:0,0:0:0:0:
468,172,146454,5,0,0:0:0:0:
392,124,146694,2,0,L|380:260,1,132,2|2,0:0|0:0,0:0:0:0:
380,255,147174,1,8,0:0:0:0:
388,172,147414,5,2,0:0:0:0:
312,124,147654,2,0,L|300:260,1,132,0|2,0:0|0:0,0:0:0:0:
300,255,148134,1,8,0:0:0:0:
308,172,148374,5,0,0:0:0:0:
232,124,148614,2,0,L|220:260,1,132,2|2,0:0|0:0,0:0:0:0:
220,255,149094,1,8,0:0:0:0:
228,172,149334,5,2,0:0:0:0:
152,124,149574,2,0,L|140:260,1,132,0|2,0:0|0:0,0:0:0:0:
140,255,150054,1,8,0:0:0:0:
148,172,150294,5,0,0:0:0:0:
64,208,150534,6,0,L|56:304,1,88,2|0,0:0|0:0,0:0:0:0:
140,256,151014,2,0,L|236:264,1,88,8|2,0:0|0:0,0:0:0:0:
188,180,151494,6,0,L|192:128,1,44
112,132,151734,2,0,L|60:128,1,44
64,208,151974,2,0,L|60:260,1,44,8|0,0:0|0:0,0:0:0:0:
140,256,152214,2,0,L|192:260,1,44
260,220,152454,6,0,L|354:202,1,88,2|0,0:0|0:0,0:0:0:0:
315,290,152934,2,0,L|332:384,1,88,8|2,0:0|0:0,0:0:0:0:
245,346,153414,6,0,L|193:355,1,44
189,275,153654,2,0,L|179:223,1,44,2|0,0:0|0:0,0:0:0:0:
260,220,153894,2,0,L|311:210,1,44,8|0,0:0|0:0,0:0:0:0:
315,290,154134,2,0,L|324:341,1,44
200,116,167814,5,4,0:0:0:0:
200,116,168054,2,0,L|156:116,2,44,0|0|0,3:0|3:0|3:0,0:0:0:0:
312,172,168534,2,0,L|356:172,2,44,0|0|0,3:0|3:0|3:0,0:0:0:0:
200,228,169014,2,0,L|156:228,2,44,0|0|0,3:0|3:0|3:0,0:0:0:0:
312,284,169494,1,0,3:0:0:0:
304,320,169614,1,0,3:0:0:0:
276,340,169734,6,0,L|188:340,1,88,2|0,0:0|0:0,0:0:0:0:
152,340,170094,1,0,0:0:0:0:
116,340,170214,2,0,P|72:332|40:300,1,88,8|2,0:0|0:0,0:0:0:0:
112,172,170694,2,0,L|112:268,1,88
44,128,171174,2,0,P|75:98|118:90,1,88,8|0,0:0|0:0,0:0:0:0:
274,141,171654,6,0,P|231:147|188:140,1,88,2|0,0:0|0:0,0:0:0:0:
344,92,172134,2,0,P|386:99|418:129,1,88,8|2,0:0|0:0,0:0:0:0:
420,164,172494,1,0,0:0:0:0:
420,200,172614,1,0,0:0:0:0:
420,236,172734,1,0,0:0:0:0:
420,272,172854,1,2,0:0:0:0:
424,276,173094,6,0,P|392:305|349:313,1,88,8|0,0:0|0:0,0:0:0:0:
316,304,173454,1,0,0:0:0:0:
284,292,173574,2,0,P|241:299|209:329,1,88,2|0,0:0|0:0,0:0:0:0:
232,212,174054,2,0,P|274:204|306:174,1,88,8|2,0:0|0:0,0:0:0:0:
236,132,174534,1,0,0:0:0:0:
200,132,174654,1,0,0:0:0:0:
164,132,174774,1,0,0:0:0:0:
84,168,175014,1,8,0:0:0:0:
72,200,175134,1,0,0:0:0:0:
84,232,175254,1,0,0:0:0:0:
160,276,175494,6,0,P|168:320|160:364,1,88,2|0,0:0|0:0,0:0:0:0:
88,320,175974,2,0,L|0:320,2,88,8|2|0,0:0|0:0|0:0,0:0:0:0:
124,320,176574,1,0,0:0:0:0:
160,320,176694,1,2,0:0:0:0:
196,320,176814,1,0,0:0:0:0:
232,320,176934,2,0,L|320:320,1,88,8|0,0:0|0:0,0:0:0:0:
404,184,177414,6,0,L|392:272,1,88,2|0,0:0|0:0,0:0:0:0:
404,184,177894,1,8,0:0:0:0:
324,216,178134,1,2,0:0:0:0:
293,227,178254,1,0,0:0:0:0:
260,232,178374,1,0,0:0:0:0:
227,228,178494,1,0,0:0:0:0:
196,218,178614,1,0,0:0:0:0:
160,136,178854,2,0,L|148:48,1,88,8|0,0:0|0:0,0:0:0:0:
112,208,179334,6,0,L|124:296,1,88,2|0,0:0|0:0,0:0:0:0:
112,208,179814,1,8,0:0:0:0:
160,136,180054,1,2,0:0:0:0:
190,124,180174,1,0,0:0:0:0:
223,119,180294,1,0,0:0:0:0:
256,123,180414,1,0,0:0:0:0:
287,133,180534,1,2,0:0:0:0:
360,284,180774,6,0,L|272:296,1,88,8|0,0:0|0:0,0:0:0:0:
260,216,181254,2,0,L|348:204,1,88,2|0,0:0|0:0,0:0:0:0:
380,200,181614,1,0,0:0:0:0:
414,194,181734,2,0,P|454:166|470:130,1,88,8|2,0:0|0:0,0:0:0:0:
440,48,182214,1,0,0:0:0:0:
384,116,182454,1,0,0:0:0:0:
308,72,182694,1,8,0:0:0:0:
236,124,182934,6,0,P|144:132|88:72,1,176
168,224,183654,2,0,P|212:228|252:252,1,88,8|2,0:0|0:0,0:0:0:0:
104,288,184134,2,0,P|60:300|12:296,1,88
184,304,184614,1,8,0:0:0:0:
216,288,184734,1,0,0:0:0:0:
248,280,184854,1,0,0:0:0:0:
284,284,184974,1,0,0:0:0:0:
316,296,185094,6,0,B|380:228|308:212|372:136,1,176,2|8,0:0|0:0,0:0:0:0:
448,104,185814,1,2,0:0:0:0:
472,132,185934,1,0,0:0:0:0:
496,156,186054,1,0,0:0:0:0:
428,200,186294,1,0,0:0:0:0:
452,224,186414,1,0,0:0:0:0:
476,248,186534,2,0,L|388:248,1,88,8|0,0:0|0:0,0:0:0:0:
304,248,187014,5,2,0:0:0:0:
220,248,187254,2,0,P|205:208|204:165,1,88,0|8,0:0|0:0,0:0:0:0:
124,136,187734,1,2,0:0:0:0:
100,164,187854,1,0,0:0:0:0:
76,188,187974,1,0,0:0:0:0:
132,244,188214,1,2,0:0:0:0:
108,268,188334,1,0,0:0:0:0:
84,292,188454,2,0,L|172:292,1,88,8|0,0:0|0:0,0:0:0:0:
256,164,188934,6,0,B|284:252|232:252|256:336,1,176,2|8,0:0|0:0,0:0:0:0:
336,368,189654,1,2,0:0:0:0:
372,376,189774,1,0,0:0:0:0:
408,368,189894,1,0,0:0:0:0:
464,304,190134,2,0,L|512:292,2,44,0|0|8,0:0|0:0|0:0,0:0:0:0:
392,256,190614,2,0,P|380:212|384:164,1,88,0|2,0:0|0:0,0:0:0:0:
456,40,191094,6,0,L|500:48,2,44,0|0|8,0:0|0:0|0:0,0:0:0:0:
384,88,191574,1,2,0:0:0:0:
308,52,191814,2,0,P|264:48|220:64,1,88,0|2,0:0|0:0,0:0:0:0:
196,84,192174,1,0,0:0:0:0:
168,108,192294,2,0,P|126:122|83:118,1,88,8|0,0:0|0:0,0:0:0:0:
12,264,192774,6,0,P|56:268|96:292,1,88,2|0,0:0|0:0,0:0:0:0:
152,352,193254,2,0,P|184:320|224:308,1,88,8|2,0:0|0:0,0:0:0:0:
260,308,193614,1,0,0:0:0:0:
296,308,193734,2,0,P|337:295|368:263,1,88
364,180,194214,2,0,P|322:192|291:224,1,88,8|0,0:0|0:0,0:0:0:0:
368,263,194694,6,0,P|412:268|456:256,1,88,2|0,0:0|0:0,0:0:0:0:
484,236,195054,1,0,0:0:0:0:
500,204,195174,2,0,L|511:116,1,88,8|2,0:0|0:0,0:0:0:0:
456,52,195654,1,0,0:0:0:0:
380,96,195894,1,0,0:0:0:0:
376,132,196014,1,0,0:0:0:0:
372,168,196134,2,0,P|329:179|286:175,1,88,8|0,0:0|0:0,0:0:0:0:
196,44,196614,6,0,L|212:132,2,88,2|0|8,0:0|0:0|0:0,0:0:0:0:
124,104,197334,1,2,0:0:0:0:
132,140,197454,1,0,0:0:0:0:
140,176,197574,1,0,0:0:0:0:
164,200,197694,1,0,0:0:0:0:
196,212,197814,1,0,0:0:0:0:
272,184,198054,2,0,P|313:169|356:173,1,88,8|0,0:0|0:0,0:0:0:0:
476,296,198534,6,0,P|434:310|391:306,1,88,2|0,0:0|0:0,0:0:0:0:
324,252,199014,1,8,0:0:0:0:
356,173,199254,1,2,0:0:0:0:
344,140,199374,1,0,0:0:0:0:
320,116,199494,1,0,0:0:0:0:
288,100,199614,1,0,0:0:0:0:
252,100,199734,2,0,L|164:100,2,88,2|8|0,0:0|0:0|0:0,0:0:0:0:
180,260,200454,5,2,0:0:0:0:
180,260,200694,2,0,L|92:260,1,88,0|8,0:0|0:0,0:0:0:0:
128,180,201174,2,0,L|216:180,1,88,2|0,0:0|0:0,0:0:0:0:
180,260,201654,6,0,L|92:260,1,88,0|8,0:0|0:0,0:0:0:0:
128,180,202134,2,0,L|216:180,1,88,0|2,0:0|0:0,0:0:0:0:
180,260,202614,6,0,L|92:260,1,88,0|8,0:0|0:0,0:0:0:0:
128,180,203094,5,2,0:0:0:0:
164,180,203214,1,0,0:0:0:0:
200,180,203334,2,0,P|252:224|256:288,1,132
257,284,203814,1,8,0:0:0:0:
320,344,204054,6,0,L|412:344,1,88,0|2,0:0|0:0,0:0:0:0:
428,264,204534,2,0,L|340:264,1,88,0|8,0:0|0:0,0:0:0:0:
320,344,205014,6,0,L|412:344,1,88,2|0,0:0|0:0,0:0:0:0:
428,264,205494,2,0,L|340:264,1,88,0|8,0:0|0:0,0:0:0:0:
320,344,205974,6,0,L|412:344,1,88,0|2,0:0|0:0,0:0:0:0:
428,264,206454,2,0,L|340:264,1,88,0|8,0:0|0:0,0:0:0:0:
320,344,206934,5,2,0:0:0:0:
284,344,207054,1,0,0:0:0:0:
248,344,207174,2,0,P|192:316|172:252,1,132
172,252,207654,2,0,L|201:169,1,88,8|0,0:0|0:0,0:0:0:0:
284,168,208134,6,0,P|340:200|404:184,1,132,2|0,0:0|0:0,0:0:0:0:
402,184,208614,1,8,0:0:0:0:
352,120,208854,1,2,0:0:0:0:
284,168,209094,6,0,P|252:224|268:288,1,132
267,286,209574,1,8,0:0:0:0:
332,236,209814,1,0,0:0:0:0:
284,168,210054,6,0,P|228:136|164:152,1,132,2|0,0:0|0:0,0:0:0:0:
165,151,210534,1,8,0:0:0:0:
216,216,210774,1,2,0:0:0:0:
284,168,211014,6,0,P|316:112|300:48,1,132
301,50,211494,1,8,0:0:0:0:
236,100,211734,1,0,0:0:0:0:
284,168,211974,6,0,L|416:184,1,132,2|0,0:0|0:0,0:0:0:0:
415,183,212454,1,8,0:0:0:0:
376,104,212694,1,2,0:0:0:0:
332,180,212934,6,0,L|200:164,1,132
200,164,213414,1,8,0:0:0:0:
256,96,213654,1,0,0:0:0:0:
284,180,213894,6,0,L|416:196,1,132
415,195,214374,1,0,0:0:0:0:
376,116,214614,1,0,0:0:0:0:
332,192,214854,6,0,L|200:176,1,132
200,176,215334,1,0,0:0:0:0:
256,104,215574,1,0,0:0:0:0:
284,192,215814,6,0,P|260:236|228:256,1,88,2|0,0:0|0:0,0:0:0:0:
192,260,216174,1,0,0:0:0:0:
156,260,216294,2,0,P|120:284|100:323,1,88,8|2,0:0|0:0,0:0:0:0:
28,168,216774,2,0,P|71:166|109:145,1,88
132,120,217134,1,0,0:0:0:0:
156,96,217254,2,0,P|194:75|237:73,1,88,8|0,0:0|0:0,0:0:0:0:
384,176,217734,1,2,0:0:0:0:
228,260,217974,5,0,0:0:0:0:
208,292,218094,1,0,0:0:0:0:
188,324,218214,1,8,0:0:0:0:
272,192,218454,1,2,0:0:0:0:
292,160,218574,1,0,0:0:0:0:
312,128,218694,1,0,0:0:0:0:
188,324,219054,1,0,0:0:0:0:
312,128,219414,1,0,0:0:0:0:
192,28,219654,6,0,P|144:32|112:56,1,88,2|0,0:0|0:0,0:0:0:0:
100,88,220014,1,0,0:0:0:0:
88,124,220134,2,0,P|52:149|8:151,1,88,8|2,0:0|0:0,0:0:0:0:
84,300,220614,2,0,P|126:292|169:303,1,88
200,320,220974,1,0,0:0:0:0:
228,336,221094,2,0,P|270:347|313:339,1,88,8|0,0:0|0:0,0:0:0:0:
476,272,221574,1,2,0:0:0:0:
332,168,221814,5,0,0:0:0:0:
300,156,221934,1,0,0:0:0:0:
264,156,222054,1,8,0:0:0:0:
120,180,222294,1,2,0:0:0:0:
152,192,222414,1,0,0:0:0:0:
188,192,222534,1,0,0:0:0:0:
44,60,222894,1,0,0:0:0:0:
0,260,223254,1,0,0:0:0:0:
132,116,223494,6,0,P|188:100|224:108,1,88,2|0,0:0|0:0,0:0:0:0:
244,124,223854,1,0,0:0:0:0:
272,140,223974,2,0,P|312:156|356:151,1,88,8|2,0:0|0:0,0:0:0:0:
500,256,224454,2,0,P|470:287|429:303,1,88
394,298,224813,1,0,0:0:0:0:
361,289,224934,2,0,P|317:296|281:320,1,88,8|0,0:0|0:0,0:0:0:0:
112,280,225414,1,2,0:0:0:0:
236,156,225654,5,0,0:0:0:0:
244,124,225774,1,0,0:0:0:0:
252,92,225894,1,8,0:0:0:0:
216,236,226134,1,2,0:0:0:0:
208,268,226254,1,0,0:0:0:0:
200,300,226374,1,0,0:0:0:0:
252,92,226734,1,0,0:0:0:0:
200,300,227094,1,0,0:0:0:0:
348,208,227334,6,0,P|392:200|440:208,1,88,2|0,0:0|0:0,0:0:0:0:
468,220,227694,1,0,0:0:0:0:
492,248,227814,2,0,L|480:336,1,88,8|2,0:0|0:0,0:0:0:0:
348,208,228294,2,0,L|360:120,1,88
336,92,228654,1,0,0:0:0:0:
302,78,228774,2,0,P|259:72|216:80,1,88,8|0,0:0|0:0,0:0:0:0:
64,180,229254,1,2,0:0:0:0:
240,164,229494,5,0,0:0:0:0:
256,196,229614,1,0,0:0:0:0:
256,232,229734,1,8,0:0:0:0:
232,372,229974,1,2,0:0:0:0:
216,340,230094,1,0,0:0:0:0:
216,304,230214,5,0,0:0:0:0:
236,268,230574,1,0,0:0:0:0:
256,232,230934,1,0,0:0:0:0:
