osu file format v12

[General]
AudioFilename: Sha Ma Te.mp3
AudioLeadIn: 1500
PreviewTime: 16014
Countdown: 1
SampleSet: Soft
StackLeniency: 0.7
Mode: 0
LetterboxInBreaks: 1
WidescreenStoryboard: 1

[Editor]
Bookmarks: 16134,31494,46854,62214,77574,92934,108294,123654,139014,154374,169734,185094,200454,215814,231174
DistanceSpacing: 1
BeatDivisor: 2
GridSize: 4

[Metadata]
Title:Sha Ma Te Yu Jian Xi Jian Chui
TitleUnicode:杀马特遇见洗剪吹
Artist:Wu Se Shi Nan Ye
ArtistUnicode:五色石南叶
Creator:popner
Version:Easy
Source:
Tags:杀马特 洗剪吹 shamate xijianchui Amamiya Yuko skystar Megurine Luka SHINEE Ring Ding Dong bilibili
BeatmapID:307200
BeatmapSetID:119335

[Difficulty]
HPDrainRate:2
CircleSize:3
OverallDifficulty:2
ApproachRate:4
SliderMultiplier:1
SliderTickRate:1

[Events]
//Background and Video events
0,0,"BG.jpg",0,0
//Break Periods
2,93134,106974
2,154094,166494
//Storyboard Layer 0 (Background)
//Storyboard Layer 1 (Fail)
//Storyboard Layer 2 (Pass)
//Storyboard Layer 3 (Foreground)
//Storyboard Sound Samples
//Background Colour Transformations
3,100,163,162,255

[TimingPoints]
774,480,4,2,2,50,1,0
16134,-100,4,2,1,60,0,1
31494,-100,4,2,1,60,0,0
62214,-100,4,2,1,70,0,1
77574,-100,4,2,1,60,0,0
91014,-100,4,2,1,40,0,0
92934,-100,4,2,1,60,0,0
123174,-100,4,2,1,20,0,0
123654,-100,4,2,1,70,0,1
139014,-100,4,2,1,60,0,0
167814,-100,4,2,1,40,0,0
169734,-100,4,2,1,60,0,0
185094,-100,4,2,1,70,0,1
200454,-100,4,2,1,60,0,0
213894,-100,4,2,1,40,0,0
215814,-100,4,2,1,60,0,1
230214,-100,4,2,1,60,0,0
230214,-100,4,2,1,40,0,0

[Colours]
Combo1 : 244,18,0
Combo2 : 225,147,0
Combo3 : 244,86,0
Combo4 : 244,202,0

[HitObjects]
128,292,774,1,2,0:0:0:0:
120,192,1254,2,0,P|214:224|279:299,1,200,0|0,0:0|0:0,0:0:0:0:
203,362,2694,2,0,P|109:330|44:255,1,200,0|0,0:0|0:0,0:0:0:0:
25,157,4134,1,0,0:0:0:0:
100,92,4614,5,2,0:0:0:0:
120,192,5094,2,0,P|220:208|316:176,1,200,0|0,0:0|0:0,0:0:0:0:
376,100,6534,2,0,P|276:84|180:116,1,200,0|0,0:0|0:0,0:0:0:0:
132,200,7974,1,0,0:0:0:0:
236,192,8454,6,0,P|270:227|288:273,1,100,2|0,0:0|0:0,0:0:0:0:
189,285,9414,2,0,P|206:330|241:366,1,100,0|0,0:0|0:0,0:0:0:0:
340,372,10374,2,0,P|387:357|425:324,1,100,0|0,0:0|0:0,0:0:0:0:
476,240,11334,2,0,L|452:136,1,100,0|0,0:0|0:0,0:0:0:0:
364,96,12294,6,0,P|280:76|164:104,1,200,0|0,0:0|0:0,0:0:0:0:
124,188,13734,1,0,0:0:0:0:
168,280,14214,2,0,P|252:300|368:272,1,200,0|0,0:0|0:0,0:0:0:0:
452,320,15654,1,0,0:0:0:0:
478,224,16134,6,0,P|457:180|420:148,1,100,2|8,0:0|0:0,0:0:0:0:
328,104,17094,2,0,P|274:82|242:50,1,100,0|8,0:0|0:0,0:0:0:0:
241,161,18054,2,0,P|214:202|205:251,1,100,2|8,0:0|0:0,0:0:0:0:
303,245,19014,2,0,P|294:294|267:335,1,100,0|8,0:0|0:0,0:0:0:0:
168,344,19974,6,0,L|68:336,1,100,2|8,0:0|0:0,0:0:0:0:
16,240,20934,2,0,L|116:248,1,100,0|8,0:0|0:0,0:0:0:0:
172,164,21894,2,0,P|123:160|79:137,1,100,2|8,0:0|0:0,0:0:0:0:
55,41,22854,2,0,P|104:45|148:68,1,100,0|8,0:0|0:0,0:0:0:0:
172,164,23814,5,2,0:0:0:0:
244,232,24294,1,8,0:0:0:0:
344,236,24774,1,0,0:0:0:0:
428,184,25254,1,8,0:0:0:0:
344,132,25734,2,0,P|315:226|337:323,1,200,2|0,0:0|0:0,0:0:0:0:
436,296,27174,1,8,0:0:0:0:
360,228,27654,6,0,P|312:224|256:240,1,100,2|8,0:0|0:0,0:0:0:0:
184,300,28614,1,0,0:0:0:0:
88,268,29094,1,8,0:0:0:0:
64,172,29574,2,0,P|70:122|94:79,1,100,2|8,0:0|0:0,0:0:0:0:
192,56,30534,1,0,0:0:0:0:
264,128,31014,1,8,0:0:0:0:
364,112,31494,6,0,P|399:77|417:31,1,100,2|8,0:0|0:0,0:0:0:0:
504,80,32454,1,0,0:0:0:0:
452,272,33414,2,0,P|404:240|364:232,1,100,2|8,0:0|0:0,0:0:0:0:
264,252,34374,1,0,0:0:0:0:
132,104,35334,6,0,P|176:84|232:80,1,100,2|8,0:0|0:0,0:0:0:0:
320,116,36294,1,0,0:0:0:0:
180,260,37254,2,0,P|143:228|96:213,1,100,2|8,0:0|0:0,0:0:0:0:
0,248,38214,1,0,0:0:0:0:
80,308,38694,1,8,0:0:0:0:
141,235,39174,6,0,P|162:190|163:141,1,100,2|8,0:0|0:0,0:0:0:0:
67,161,40134,2,0,P|68:112|89:67,1,100,0|8,0:0|0:0,0:0:0:0:
184,32,41094,2,0,L|288:48,1,100,2|8,0:0|0:0,0:0:0:0:
336,144,42054,2,0,L|237:128,1,100,0|8,0:0|0:0,0:0:0:0:
136,124,43014,6,0,P|53:179|10:268,1,200,2|0,0:0|0:0,0:0:0:0:
80,340,44454,1,8,0:0:0:0:
180,356,44934,2,0,P|262:300|305:211,1,200,2|0,0:0|0:0,0:0:0:0:
112,168,46854,6,0,P|125:120|156:82,1,100,2|8,0:0|0:0,0:0:0:0:
244,36,47814,1,0,0:0:0:0:
320,220,48774,2,0,P|362:194|390:154,1,100,2|8,0:0|0:0,0:0:0:0:
410,58,49734,1,0,0:0:0:0:
232,148,50694,6,0,P|208:188|204:244,1,100,2|8,0:0|0:0,0:0:0:0:
252,332,51654,1,0,0:0:0:0:
452,344,52614,2,0,P|476:304|480:248,1,100,2|8,0:0|0:0,0:0:0:0:
432,160,53574,1,0,0:0:0:0:
240,112,54534,6,0,P|158:167|115:256,1,200,2|0,0:0|0:0,0:0:0:0:
164,344,55974,1,8,0:0:0:0:
264,344,56454,2,0,P|345:288|388:199,1,200,2|0,0:0|0:0,0:0:0:0:
344,108,57894,1,8,0:0:0:0:
248,128,58374,6,0,P|199:125|155:103,1,100,2|8,0:0|0:0,0:0:0:0:
72,48,59334,1,0,0:0:0:0:
0,116,59814,2,0,L|28:320,1,200,8|8,0:0|0:0,0:0:0:0:
124,336,61254,2,0,P|176:332|224:344,1,100,0|8,0:0|0:0,0:0:0:0:
320,368,62214,5,2,0:0:0:0:
320,368,62694,2,0,P|360:276|352:176,1,200,8|8,0:0|0:0,0:0:0:0:
268,124,64134,2,0,P|256:180|264:228,1,100,2|8,0:0|0:0,0:0:0:0:
348,276,65094,1,0,0:0:0:0:
260,320,65574,1,8,0:0:0:0:
176,264,66054,5,2,0:0:0:0:
176,264,66534,2,0,P|113:188|20:154,1,200,8|8,0:0|0:0,0:0:0:0:
4,252,67974,1,2,0:0:0:0:
84,308,68454,1,8,0:0:0:0:
176,264,68934,2,0,P|224:252|276:252,1,100,0|8,0:0|0:0,0:0:0:0:
364,296,69894,5,2,0:0:0:0:
364,296,70374,2,0,P|396:184|464:136,1,200,8|8,0:0|0:0,0:0:0:0:
392,64,71814,2,0,P|346:43|297:42,1,100,2|8,0:0|0:0,0:0:0:0:
212,96,72774,2,0,P|162:94|116:74,1,100,0|8,0:0|0:0,0:0:0:0:
20,104,73734,5,2,0:0:0:0:
20,104,74214,2,0,P|0:208|44:288,1,200,8|8,0:0|0:0,0:0:0:0:
132,244,75654,1,2,0:0:0:0:
132,244,76134,2,0,P|232:216|328:236,1,200,8|8,0:0|0:0,0:0:0:0:
420,260,77574,6,0,P|418:210|397:165,1,100,2|8,0:0|0:0,0:0:0:0:
300,140,78534,2,0,P|302:189|323:234,1,100,0|8,0:0|0:0,0:0:0:0:
208,208,79494,2,0,P|206:158|185:113,1,100,2|8,0:0|0:0,0:0:0:0:
88,96,80454,2,0,P|90:145|111:190,1,100,0|8,0:0|0:0,0:0:0:0:
184,260,81414,6,0,P|210:218|251:190,1,100,2|8,0:0|0:0,0:0:0:0:
352,212,82374,2,0,P|325:254|284:282,1,100,0|8,0:0|0:0,0:0:0:0:
248,192,83334,2,0,P|274:150|315:122,1,100,2|8,0:0|0:0,0:0:0:0:
419,142,84294,2,0,P|392:184|351:212,1,100,0|8,0:0|0:0,0:0:0:0:
315,121,85254,6,0,P|224:92|116:108,1,200,2|0,0:0|0:0,0:0:0:0:
60,184,86694,1,8,0:0:0:0:
108,272,87174,2,0,P|199:301|307:285,1,200,2|0,0:0|0:0,0:0:0:0:
388,240,88614,1,8,0:0:0:0:
424,148,89094,6,0,L|416:48,1,100,2|8,0:0|0:0,0:0:0:0:
320,68,90054,2,0,L|328:168,1,100,0|8,0:0|0:0,0:0:0:0:
256,192,91014,12,0,92934,0:0:0:0:
304,132,108294,6,0,L|200:136,1,100,2|8,0:0|0:0,0:0:0:0:
108,168,109254,1,0,0:0:0:0:
104,268,109734,1,8,0:0:0:0:
196,304,110214,2,0,L|296:312,1,100,2|8,0:0|0:0,0:0:0:0:
392,284,111174,1,0,0:0:0:0:
296,108,112134,6,0,P|253:133|224:173,1,100,2|8,0:0|0:0,0:0:0:0:
316,211,113094,2,0,P|287:251|244:276,1,100,0|8,0:0|0:0,0:0:0:0:
144,272,114054,1,2,0:0:0:0:
88,188,114534,1,8,0:0:0:0:
124,96,115014,2,0,L|224:64,1,100,0|8,0:0|0:0,0:0:0:0:
284,140,115974,6,0,P|328:156|384:160,1,100,2|8,0:0|0:0,0:0:0:0:
480,136,116934,1,0,0:0:0:0:
508,336,117894,2,0,P|461:351|408:348,1,100,2|8,0:0|0:0,0:0:0:0:
324,300,118854,1,0,0:0:0:0:
196,148,119814,6,0,P|164:186|149:233,1,100,2|8,0:0|0:0,0:0:0:0:
157,331,120774,1,0,0:0:0:0:
244,280,121254,1,8,0:0:0:0:
336,324,121734,2,0,B|360:244|360:244|432:220|432:220|400:156|400:156|332:176,1,300,0|0,0:0|0:0,0:0:0:0:
240,180,123654,6,0,P|188:180|140:164,1,100,2|8,0:0|0:0,0:0:0:0:
104,72,124614,2,0,L|4:88,2,100,0|8|2,0:0|0:0|0:0,0:0:0:0:
204,72,126054,2,0,L|302:56,2,100,8|0|8,0:0|0:0|0:0,0:0:0:0:
136,144,127494,6,0,P|140:196|128:244,1,100,2|8,0:0|0:0,0:0:0:0:
104,340,128454,2,0,P|52:340|4:352,2,100,0|8|2,0:0|0:0|0:0,0:0:0:0:
204,360,129894,2,0,P|256:360|304:348,2,100,8|0|8,0:0|0:0|0:0,0:0:0:0:
240,268,131334,6,0,L|284:176,1,100,2|8,0:0|0:0,0:0:0:0:
376,144,132294,2,0,P|428:156|480:148,2,100,0|8|2,0:0|0:0|0:0,0:0:0:0:
296,84,133734,2,0,P|272:40|224:8,2,100,8|0|8,0:0|0:0|0:0,0:0:0:0:
280,184,135174,6,0,P|231:187|187:210,1,100,2|8,0:0|0:0,0:0:0:0:
253,284,136134,2,0,P|209:307|160:310,1,100,0|8,0:0|0:0,0:0:0:0:
75,264,137094,1,2,0:0:0:0:
120,176,137574,1,8,0:0:0:0:
88,80,138054,1,0,0:0:0:0:
188,68,138534,1,8,0:0:0:0:
280,112,139014,6,0,P|360:176|396:272,1,200,2|0,0:0|0:0,0:0:0:0:
320,332,140454,1,8,0:0:0:0:
228,296,140934,2,0,L|128:308,2,100,2|8|0,0:0|0:0|0:0,0:0:0:0:
76,164,142854,6,0,L|276:180,1,200,2|0,0:0|0:0,0:0:0:0:
364,136,144294,1,8,0:0:0:0:
440,68,144774,2,0,P|460:113|461:162,1,100,2|8,0:0|0:0,0:0:0:0:
425,254,145734,2,0,P|426:303|446:348,1,100,0|8,0:0|0:0,0:0:0:0:
340,336,146694,6,0,L|240:348,1,100,2|8,0:0|0:0,0:0:0:0:
300,252,147654,2,0,L|200:264,1,100,0|8,0:0|0:0,0:0:0:0:
260,168,148614,2,0,L|160:180,1,100,2|8,0:0|0:0,0:0:0:0:
220,84,149574,2,0,L|120:96,1,100,0|8,0:0|0:0,0:0:0:0:
56,172,150534,5,2,0:0:0:0:
99,262,151014,1,8,0:0:0:0:
191,226,151494,1,0,0:0:0:0:
234,316,151974,1,8,0:0:0:0:
332,340,152454,1,2,0:0:0:0:
375,250,152934,1,8,0:0:0:0:
467,286,153414,1,0,0:0:0:0:
510,196,153894,1,8,0:0:0:0:
90,229,167814,6,0,P|44:211|9:177,1,100,4|0,0:0|3:0,0:0:0:0:
11,79,168774,2,0,P|57:97|92:131,1,100,0|0,3:0|3:0,0:0:0:0:
180,180,169734,6,0,L|292:172,1,100,2|8,0:0|0:0,0:0:0:0:
380,164,170694,1,0,0:0:0:0:
380,164,171174,1,8,0:0:0:0:
428,252,171654,2,0,P|432:304|416:356,1,100,2|8,0:0|0:0,0:0:0:0:
320,328,172614,2,0,P|272:320|216:328,1,100,0|8,0:0|0:0,0:0:0:0:
128,360,173574,6,0,L|96:264,1,100,2|8,0:0|0:0,0:0:0:0:
192,232,174534,2,0,P|208:184|204:132,1,100,0|8,0:0|0:0,0:0:0:0:
132,64,175494,2,0,L|236:36,1,100,2|8,0:0|0:0,0:0:0:0:
303,110,176454,2,0,L|206:135,1,100,0|8,0:0|0:0,0:0:0:0:
152,216,177414,6,0,P|169:262|203:298,1,100,2|8,0:0|0:0,0:0:0:0:
301,298,178374,2,0,P|284:252|250:216,1,100,0|8,0:0|0:0,0:0:0:0:
152,216,179334,2,0,P|106:233|70:267,1,100,2|8,0:0|0:0,0:0:0:0:
70,365,180294,2,0,P|116:348|152:314,1,100,0|8,0:0|0:0,0:0:0:0:
212,228,181254,6,0,P|261:228|307:247,1,100,2|8,0:0|0:0,0:0:0:0:
374,318,182214,2,0,P|419:337|469:336,1,100,0|8,0:0|0:0,0:0:0:0:
440,240,183174,2,0,L|456:140,1,100,0|8,0:0|0:0,0:0:0:0:
380,76,184134,2,0,P|328:80|280:68,1,100,0|8,0:0|0:0,0:0:0:0:
192,116,185094,6,0,P|227:151|273:169,1,100,2|8,0:0|0:0,0:0:0:0:
372,172,186054,1,0,0:0:0:0:
320,256,186534,1,8,0:0:0:0:
252,180,187014,2,0,P|228:223|224:273,1,100,2|8,0:0|0:0,0:0:0:0:
294,350,187974,2,0,P|317:306|321:257,1,100,0|8,0:0|0:0,0:0:0:0:
252,180,188934,6,0,P|217:145|171:126,1,100,2|8,0:0|0:0,0:0:0:0:
73,126,189894,1,0,0:0:0:0:
73,126,190374,1,8,0:0:0:0:
36,220,190854,2,0,P|71:255|117:274,1,100,2|8,0:0|0:0,0:0:0:0:
215,274,191814,1,0,0:0:0:0:
215,274,192294,1,8,0:0:0:0:
240,176,192774,6,0,P|328:124|424:116,1,200,2|0,0:0|0:0,0:0:0:0:
500,180,194214,1,8,0:0:0:0:
404,204,194694,2,0,P|352:212|312:240,1,100,2|8,0:0|0:0,0:0:0:0:
252,320,195654,2,0,P|203:328|155:317,1,100,0|8,0:0|0:0,0:0:0:0:
96,236,196614,6,0,L|0:264,2,100,2|8|0,0:0|0:0|0:0,0:0:0:0:
192,208,198054,1,8,0:0:0:0:
216,112,198534,2,0,L|312:84,2,100,2|8|0,0:0|0:0|0:0,0:0:0:0:
120,140,199974,1,8,0:0:0:0:
192,208,200454,6,0,L|236:304,1,100,2|8,0:0|0:0,0:0:0:0:
284,184,201414,2,0,L|328:280,1,100,0|8,0:0|0:0,0:0:0:0:
376,160,202374,2,0,L|420:256,1,100,2|8,0:0|0:0,0:0:0:0:
468,136,203334,2,0,L|512:232,1,100,0|8,0:0|0:0,0:0:0:0:
464,316,204294,6,0,L|364:316,1,100,2|8,0:0|0:0,0:0:0:0:
364,216,205254,2,0,L|264:216,1,100,0|8,0:0|0:0,0:0:0:0:
264,316,206214,2,0,L|164:316,1,100,2|8,0:0|0:0,0:0:0:0:
164,216,207174,2,0,L|64:216,1,100,0|8,0:0|0:0,0:0:0:0:
12,128,208134,6,0,P|104:88|204:96,1,200,2|0,0:0|0:0,0:0:0:0:
284,156,209574,1,8,0:0:0:0:
316,252,210054,2,0,P|404:188|440:104,1,200,2|0,0:0|0:0,0:0:0:0:
364,40,211494,1,8,0:0:0:0:
320,132,211974,6,0,L|480:256,1,200,2|0,0:0|0:0,0:0:0:0:
480,356,213414,1,8,0:0:0:0:
384,380,213894,2,0,L|225:257,1,200,0|0,0:0|0:0,0:0:0:0:
140,208,215334,1,0,0:0:0:0:
100,300,215814,6,0,P|199:309|290:268,1,200,2|0,0:0|0:0,0:0:0:0:
348,188,217254,1,8,0:0:0:0:
440,228,217734,2,0,L|431:327,1,100,2|8,0:0|0:0,0:0:0:0:
340,288,218694,2,0,L|349:189,1,100,0|8,0:0|0:0,0:0:0:0:
432,136,219654,6,0,P|328:144|240:112,1,200,2|0,0:0|0:0,0:0:0:0:
180,32,221094,1,8,0:0:0:0:
84,56,221574,2,0,L|72:160,1,100,2|8,0:0|0:0,0:0:0:0:
156,224,222534,2,0,L|167:124,1,100,0|8,0:0|0:0,0:0:0:0:
260,88,223494,6,0,P|292:184|280:280,1,200,2|0,0:0|0:0,0:0:0:0:
192,328,224934,1,8,0:0:0:0:
188,228,225414,2,0,P|149:198|101:186,1,100,2|8,0:0|0:0,0:0:0:0:
17,238,226374,2,0,P|56:268|104:280,1,100,0|8,0:0|0:0,0:0:0:0:
188,228,227334,6,0,P|270:172|369:165,1,200,2|0,0:0|0:0,0:0:0:0:
448,228,228774,1,8,0:0:0:0:
392,312,229254,2,0,P|344:332|288:336,1,100,2|8,0:0|0:0,0:0:0:0:
208,292,230214,2,0,L|184:136,1,150,0|0,0:0|0:0,0:0:0:0:
