osu file format v14

[General]
AudioFilename: GIGANTIC.mp3
AudioLeadIn: 0
PreviewTime: 41682
Countdown: 1
SampleSet: None
StackLeniency: 0.7
Mode: 3
LetterboxInBreaks: 1
SpecialStyle: 0
WidescreenStoryboard: 1

[Editor]
DistanceSpacing: 1.3
BeatDivisor: 4
GridSize: 4
TimelineZoom: 1.4

[Metadata]
Title:Xcaliboor pack
TitleUnicode:Xcaliboor pack
Artist:Wotamin
ArtistUnicode:Wotamin
Creator:Xcaliboor
Version:Gigantic O.T.N
Source:
Tags:
BeatmapID:817754
BeatmapSetID:373282

[Difficulty]
HPDrainRate:7
CircleSize:4
OverallDifficulty:7
ApproachRate:5
SliderMultiplier:1.4
SliderTickRate:1

[Events]
//Background and Video events
0,0,"Gigantic.OTN.full.1503484.jpg",0,0
//Break Periods
//Storyboard Layer 0 (Background)
//Storyboard Layer 1 (Fail)
//Storyboard Layer 2 (Pass)
//Storyboard Layer 3 (Foreground)
//Storyboard Sound Samples

[TimingPoints]
-159.52517870626,315.789473684211,4,1,0,100,1,0

[HitObjects]
64,192,629,128,0,1103:0:0:0:0:
448,192,629,128,0,1103:0:0:0:0:
320,192,945,128,0,1103:0:0:0:0:
192,192,945,128,0,1103:0:0:0:0:
64,192,1261,1,0,0:0:0:0:
320,192,1261,1,0,0:0:0:0:
448,192,1261,1,0,0:0:0:0:
192,192,1340,1,0,0:0:0:0:
320,192,1419,1,0,0:0:0:0:
448,192,1419,1,0,0:0:0:0:
64,192,1498,1,0,0:0:0:0:
192,192,1577,1,0,0:0:0:0:
320,192,1577,1,0,0:0:0:0:
448,192,1656,1,0,0:0:0:0:
64,192,1656,1,0,0:0:0:0:
192,192,1735,1,0,0:0:0:0:
64,192,1814,1,0,0:0:0:0:
320,192,1814,1,0,0:0:0:0:
448,192,1893,1,0,0:0:0:0:
64,192,1972,1,0,0:0:0:0:
192,192,1972,1,0,0:0:0:0:
320,192,2051,1,0,0:0:0:0:
448,192,2129,1,0,0:0:0:0:
64,192,2129,1,0,0:0:0:0:
192,192,2208,1,0,0:0:0:0:
64,192,2287,1,0,0:0:0:0:
448,192,2287,1,0,0:0:0:0:
320,192,2287,1,0,0:0:0:0:
192,192,2366,1,0,0:0:0:0:
448,192,2445,1,0,0:0:0:0:
64,192,2445,1,0,0:0:0:0:
192,192,2524,1,0,0:0:0:0:
320,192,2524,1,0,0:0:0:0:
64,192,2603,1,0,0:0:0:0:
448,192,2603,1,0,0:0:0:0:
192,192,2682,1,0,0:0:0:0:
64,192,2761,1,0,0:0:0:0:
320,192,2761,1,0,0:0:0:0:
192,192,2840,1,0,0:0:0:0:
448,192,2840,1,0,0:0:0:0:
320,192,2919,1,0,0:0:0:0:
64,192,2919,1,0,0:0:0:0:
448,192,2998,1,0,0:0:0:0:
192,192,3077,1,0,0:0:0:0:
320,192,3077,1,0,0:0:0:0:
64,192,3077,1,0,0:0:0:0:
448,192,3156,1,0,0:0:0:0:
64,192,3235,1,0,0:0:0:0:
192,192,3235,1,0,0:0:0:0:
320,192,3314,1,0,0:0:0:0:
448,192,3393,1,0,0:0:0:0:
64,192,3393,1,0,0:0:0:0:
192,192,3472,1,0,0:0:0:0:
320,192,3551,1,0,0:0:0:0:
448,192,3551,1,0,0:0:0:0:
192,192,3629,1,0,0:0:0:0:
64,192,3708,1,0,0:0:0:0:
448,192,3708,1,0,0:0:0:0:
320,192,3787,1,0,0:0:0:0:
192,192,3866,1,0,0:0:0:0:
64,192,3866,1,0,0:0:0:0:
320,192,3945,1,0,0:0:0:0:
448,192,4024,1,0,0:0:0:0:
64,192,4024,1,0,0:0:0:0:
192,192,4103,1,0,0:0:0:0:
64,192,4182,1,0,0:0:0:0:
320,192,4182,1,0,0:0:0:0:
448,192,4261,1,0,0:0:0:0:
64,192,4340,1,0,0:0:0:0:
320,192,4340,1,0,0:0:0:0:
192,192,4419,1,0,0:0:0:0:
448,192,4419,1,0,0:0:0:0:
320,192,4498,1,0,0:0:0:0:
64,192,4577,1,0,0:0:0:0:
192,192,4577,1,0,0:0:0:0:
448,192,4656,1,0,0:0:0:0:
320,192,4735,1,0,0:0:0:0:
64,192,4735,1,0,0:0:0:0:
192,192,4814,1,0,0:0:0:0:
320,192,4893,1,0,0:0:0:0:
448,192,4893,1,0,0:0:0:0:
64,192,4972,1,0,0:0:0:0:
192,192,5051,1,0,0:0:0:0:
320,192,5051,1,0,0:0:0:0:
448,192,5129,1,0,0:0:0:0:
64,192,5208,1,0,0:0:0:0:
320,192,5208,1,0,0:0:0:0:
192,192,5287,1,0,0:0:0:0:
320,192,5366,1,0,0:0:0:0:
448,192,5366,1,0,0:0:0:0:
192,192,5445,1,0,0:0:0:0:
64,192,5445,1,0,0:0:0:0:
320,192,5524,1,0,0:0:0:0:
448,192,5524,1,0,0:0:0:0:
192,192,5603,1,0,0:0:0:0:
64,192,5603,1,0,0:0:0:0:
320,192,5682,1,0,0:0:0:0:
448,192,5682,1,0,0:0:0:0:
192,192,5761,1,0,0:0:0:0:
64,192,5761,1,0,0:0:0:0:
320,192,5840,1,0,0:0:0:0:
448,192,5840,1,0,0:0:0:0:
192,192,5919,1,0,0:0:0:0:
64,192,5919,1,0,0:0:0:0:
448,192,5998,1,0,0:0:0:0:
320,192,6077,1,0,0:0:0:0:
192,192,6077,1,0,0:0:0:0:
64,192,6156,1,0,0:0:0:0:
448,192,6235,1,0,0:0:0:0:
320,192,6235,1,0,0:0:0:0:
192,192,6314,1,0,0:0:0:0:
64,192,6314,1,0,0:0:0:0:
320,192,6393,1,0,0:0:0:0:
64,192,6472,1,0,0:0:0:0:
448,192,6472,1,0,0:0:0:0:
192,192,6551,1,0,0:0:0:0:
320,192,6551,1,0,0:0:0:0:
448,192,6629,1,0,0:0:0:0:
64,192,6629,1,0,0:0:0:0:
192,192,6708,1,0,0:0:0:0:
320,192,6787,1,0,0:0:0:0:
448,192,6787,1,0,0:0:0:0:
192,192,6866,1,0,0:0:0:0:
64,192,6945,1,0,0:0:0:0:
448,192,6945,1,0,0:0:0:0:
320,192,7024,1,0,0:0:0:0:
448,192,7103,1,0,0:0:0:0:
192,192,7103,1,0,0:0:0:0:
64,192,7182,1,0,0:0:0:0:
320,192,7261,1,0,0:0:0:0:
448,192,7261,1,0,0:0:0:0:
192,192,7340,1,0,0:0:0:0:
64,192,7419,1,0,0:0:0:0:
448,192,7419,1,0,0:0:0:0:
320,192,7498,1,0,0:0:0:0:
192,192,7577,1,0,0:0:0:0:
64,192,7577,1,0,0:0:0:0:
448,192,7577,1,0,0:0:0:0:
320,192,7656,1,0,0:0:0:0:
448,192,7735,1,0,0:0:0:0:
192,192,7735,1,0,0:0:0:0:
64,192,7814,5,0,0:0:0:0:
448,192,7893,1,0,0:0:0:0:
320,192,7893,1,0,0:0:0:0:
192,192,7972,1,0,0:0:0:0:
320,192,8051,1,0,0:0:0:0:
448,192,8051,1,0,0:0:0:0:
64,192,8051,1,0,0:0:0:0:
192,192,8129,1,0,0:0:0:0:
64,192,8208,1,0,0:0:0:0:
320,192,8208,1,0,0:0:0:0:
448,192,8208,1,0,0:0:0:0:
192,192,8287,1,0,0:0:0:0:
64,192,8366,1,0,0:0:0:0:
448,192,8366,1,0,0:0:0:0:
320,192,8445,1,0,0:0:0:0:
64,192,8524,1,0,0:0:0:0:
192,192,8524,1,0,0:0:0:0:
448,192,8524,1,0,0:0:0:0:
320,192,8603,1,0,0:0:0:0:
448,192,8682,1,0,0:0:0:0:
64,192,8682,1,0,0:0:0:0:
192,192,8761,1,0,0:0:0:0:
320,192,8761,1,0,0:0:0:0:
448,192,8840,1,0,0:0:0:0:
64,192,8919,1,0,0:0:0:0:
320,192,8919,1,0,0:0:0:0:
448,192,8998,5,0,0:0:0:0:
192,192,8998,1,0,0:0:0:0:
320,192,9077,1,0,0:0:0:0:
64,192,9077,1,0,0:0:0:0:
192,192,9156,1,0,0:0:0:0:
448,192,9156,1,0,0:0:0:0:
320,192,9235,1,0,0:0:0:0:
64,192,9314,1,0,0:0:0:0:
448,192,9314,1,0,0:0:0:0:
192,192,9393,1,0,0:0:0:0:
320,192,9393,1,0,0:0:0:0:
64,192,9472,1,0,0:0:0:0:
448,192,9472,1,0,0:0:0:0:
320,192,9551,1,0,0:0:0:0:
64,192,9629,1,0,0:0:0:0:
192,192,9629,1,0,0:0:0:0:
320,192,9708,1,0,0:0:0:0:
448,192,9708,1,0,0:0:0:0:
64,192,9787,1,0,0:0:0:0:
192,192,9866,1,0,0:0:0:0:
320,192,9866,1,0,0:0:0:0:
448,192,9866,1,0,0:0:0:0:
64,192,9945,1,0,0:0:0:0:
192,192,10024,1,0,0:0:0:0:
320,192,10103,1,0,0:0:0:0:
64,192,10103,1,0,0:0:0:0:
448,192,10103,1,0,0:0:0:0:
192,192,10182,1,0,0:0:0:0:
320,192,10261,5,0,0:0:0:0:
448,192,10261,1,0,0:0:0:0:
64,192,10340,5,0,0:0:0:0:
192,192,10340,1,0,0:0:0:0:
320,192,10419,1,0,0:0:0:0:
448,192,10419,1,0,0:0:0:0:
192,192,10498,1,0,0:0:0:0:
64,192,10498,1,0,0:0:0:0:
448,192,10577,1,0,0:0:0:0:
320,192,10577,1,0,0:0:0:0:
192,192,10656,1,0,0:0:0:0:
64,192,10656,1,0,0:0:0:0:
320,192,10735,1,0,0:0:0:0:
448,192,10735,1,0,0:0:0:0:
192,192,10814,1,0,0:0:0:0:
64,192,10814,1,0,0:0:0:0:
448,192,11051,128,0,11445:0:0:0:0:
320,192,11051,1,0,0:0:0:0:
64,192,11051,1,0,0:0:0:0:
192,192,11051,1,0,0:0:0:0:
320,192,11445,128,0,11761:0:0:0:0:
192,192,11445,1,0,0:0:0:0:
64,192,11445,1,0,0:0:0:0:
64,192,11761,128,0,12077:0:0:0:0:
192,192,11761,1,0,0:0:0:0:
448,192,11761,1,0,0:0:0:0:
192,192,12077,1,0,0:0:0:0:
320,192,12077,128,0,12393:0:0:0:0:
192,192,12235,1,0,0:0:0:0:
64,192,12235,1,0,0:0:0:0:
448,192,12393,1,0,0:0:0:0:
64,192,12393,1,0,0:0:0:0:
192,192,12393,128,0,12708:0:0:0:0:
64,192,12551,1,0,0:0:0:0:
320,192,12551,1,0,0:0:0:0:
448,192,12708,128,0,12998:0:0:0:0:
320,192,12708,1,0,0:0:0:0:
64,192,12708,1,0,0:0:0:0:
64,192,12998,1,0,0:0:0:0:
320,192,12998,128,0,13314:0:0:0:0:
192,192,12998,1,0,0:0:0:0:
192,192,13314,128,0,13629:0:0:0:0:
64,192,13314,1,0,0:0:0:0:
448,192,13629,128,0,13945:0:0:0:0:
320,192,13629,1,0,0:0:0:0:
64,192,13629,1,0,0:0:0:0:
192,192,13787,1,0,0:0:0:0:
320,192,13787,1,0,0:0:0:0:
64,192,13787,1,0,0:0:0:0:
64,192,13945,128,0,14261:0:0:0:0:
192,192,13945,1,0,0:0:0:0:
192,192,14261,128,0,14577:0:0:0:0:
320,192,14261,1,0,0:0:0:0:
448,192,14261,1,0,0:0:0:0:
64,192,14577,128,0,14893:0:0:0:0:
448,192,14577,1,0,0:0:0:0:
320,192,14577,1,0,0:0:0:0:
448,192,14893,128,0,15208:0:0:0:0:
192,192,14893,1,0,0:0:0:0:
320,192,14893,1,0,0:0:0:0:
320,192,15208,1,0,0:0:0:0:
192,192,15208,128,0,15524:0:0:0:0:
64,192,15208,1,0,0:0:0:0:
64,192,15524,128,0,15840:0:0:0:0:
320,192,15524,1,0,0:0:0:0:
192,192,15682,1,0,0:0:0:0:
320,192,15682,1,0,0:0:0:0:
320,192,15840,128,0,16156:0:0:0:0:
448,192,15840,1,0,0:0:0:0:
192,192,15840,1,0,0:0:0:0:
64,192,15998,1,0,0:0:0:0:
448,192,15998,1,0,0:0:0:0:
448,192,16156,128,0,16472:0:0:0:0:
192,192,16156,1,0,0:0:0:0:
64,192,16472,128,0,16787:0:0:0:0:
320,192,16472,1,0,0:0:0:0:
192,192,16472,1,0,0:0:0:0:
320,192,16787,128,0,17103:0:0:0:0:
192,192,16787,1,0,0:0:0:0:
448,192,16787,1,0,0:0:0:0:
192,192,17103,128,0,17419:0:0:0:0:
448,192,17103,1,0,0:0:0:0:
64,192,17103,1,0,0:0:0:0:
320,192,17261,1,0,0:0:0:0:
448,192,17261,1,0,0:0:0:0:
320,192,17419,128,0,17735:0:0:0:0:
64,192,17419,1,0,0:0:0:0:
448,192,17419,1,0,0:0:0:0:
192,192,17577,1,0,0:0:0:0:
64,192,17577,1,0,0:0:0:0:
64,192,17735,128,0,18051:0:0:0:0:
192,192,17735,1,0,0:0:0:0:
448,192,17735,1,0,0:0:0:0:
192,192,18051,128,0,18366:0:0:0:0:
320,192,18051,1,0,0:0:0:0:
448,192,18051,1,0,0:0:0:0:
448,192,18366,128,0,18682:0:0:0:0:
320,192,18366,1,0,0:0:0:0:
64,192,18366,1,0,0:0:0:0:
320,192,18682,128,0,18998:0:0:0:0:
192,192,18682,1,0,0:0:0:0:
64,192,18682,1,0,0:0:0:0:
64,192,18998,128,0,19314:0:0:0:0:
192,192,18998,1,0,0:0:0:0:
192,192,19314,128,0,19629:0:0:0:0:
448,192,19314,1,0,0:0:0:0:
320,192,19314,1,0,0:0:0:0:
448,192,19629,128,0,19945:0:0:0:0:
320,192,19629,1,0,0:0:0:0:
64,192,19629,1,0,0:0:0:0:
320,192,19945,128,0,20208:0:0:0:0:
192,192,19945,1,0,0:0:0:0:
64,192,20208,1,0,0:0:0:0:
448,192,20208,1,0,0:0:0:0:
192,192,20208,128,0,20366:0:0:0:0:
448,192,20366,128,0,20524:0:0:0:0:
320,192,20366,1,0,0:0:0:0:
64,192,20366,1,0,0:0:0:0:
192,192,20524,1,0,0:0:0:0:
320,192,20524,1,0,0:0:0:0:
64,192,20524,128,0,20682:0:0:0:0:
192,192,20682,1,0,0:0:0:0:
448,192,20682,1,0,0:0:0:0:
320,192,20682,128,0,20840:0:0:0:0:
448,192,20840,1,0,0:0:0:0:
64,192,20840,1,0,0:0:0:0:
192,192,20840,128,0,20998:0:0:0:0:
448,192,20998,1,0,0:0:0:0:
64,192,20998,1,0,0:0:0:0:
320,192,20998,128,0,21156:0:0:0:0:
192,192,21156,1,0,0:0:0:0:
448,192,21156,128,0,21314:0:0:0:0:
64,192,21156,1,0,0:0:0:0:
192,192,21314,1,0,0:0:0:0:
64,192,21314,1,0,0:0:0:0:
320,192,21314,128,0,21524:0:0:0:0:
192,192,21524,128,0,21840:0:0:0:0:
64,192,21524,1,0,0:0:0:0:
448,192,21524,1,0,0:0:0:0:
320,192,21840,128,0,22156:0:0:0:0:
448,192,21840,1,0,0:0:0:0:
64,192,22156,128,0,22472:0:0:0:0:
192,192,22156,1,0,0:0:0:0:
448,192,22156,1,0,0:0:0:0:
320,192,22314,1,0,0:0:0:0:
448,192,22314,1,0,0:0:0:0:
320,192,22472,128,0,22787:0:0:0:0:
448,192,22472,1,0,0:0:0:0:
192,192,22472,1,0,0:0:0:0:
192,192,22629,1,0,0:0:0:0:
64,192,22629,1,0,0:0:0:0:
448,192,22629,1,0,0:0:0:0:
192,192,22787,128,0,23103:0:0:0:0:
64,192,22787,1,0,0:0:0:0:
448,192,22787,1,0,0:0:0:0:
448,192,23103,128,0,23419:0:0:0:0:
320,192,23103,1,0,0:0:0:0:
64,192,23419,128,0,23735:0:0:0:0:
192,192,23419,1,0,0:0:0:0:
320,192,23419,1,0,0:0:0:0:
192,192,23735,128,0,24051:0:0:0:0:
320,192,23735,1,0,0:0:0:0:
448,192,23735,1,0,0:0:0:0:
320,192,23893,1,0,0:0:0:0:
448,192,23893,1,0,0:0:0:0:
64,192,23893,1,0,0:0:0:0:
64,192,24051,128,0,24366:0:0:0:0:
320,192,24051,1,0,0:0:0:0:
448,192,24051,1,0,0:0:0:0:
320,192,24366,128,0,24682:0:0:0:0:
448,192,24366,1,0,0:0:0:0:
192,192,24366,1,0,0:0:0:0:
448,192,24682,128,0,24998:0:0:0:0:
192,192,24682,1,0,0:0:0:0:
192,192,24998,128,0,25314:0:0:0:0:
64,192,24998,1,0,0:0:0:0:
320,192,24998,1,0,0:0:0:0:
320,192,25314,1,0,0:0:0:0:
64,192,25314,128,0,25629:0:0:0:0:
448,192,25314,1,0,0:0:0:0:
320,192,25629,128,0,25945:0:0:0:0:
192,192,25629,1,0,0:0:0:0:
448,192,25629,1,0,0:0:0:0:
64,192,25787,1,0,0:0:0:0:
448,192,25787,1,0,0:0:0:0:
192,192,25945,1,0,0:0:0:0:
448,192,25945,128,0,26261:0:0:0:0:
320,192,26103,1,0,0:0:0:0:
192,192,26103,1,0,0:0:0:0:
64,192,26103,1,0,0:0:0:0:
320,192,26261,1,0,0:0:0:0:
64,192,26261,128,0,26577:0:0:0:0:
192,192,26261,1,0,0:0:0:0:
320,192,26577,128,0,26893:0:0:0:0:
448,192,26577,1,0,0:0:0:0:
192,192,26577,1,0,0:0:0:0:
192,192,26893,128,0,27208:0:0:0:0:
64,192,26893,1,0,0:0:0:0:
448,192,26893,1,0,0:0:0:0:
64,192,27208,1,0,0:0:0:0:
320,192,27208,128,0,27524:0:0:0:0:
448,192,27208,1,0,0:0:0:0:
192,192,27366,1,0,0:0:0:0:
64,192,27366,1,0,0:0:0:0:
448,192,27524,1,0,0:0:0:0:
64,192,27524,128,0,27840:0:0:0:0:
192,192,27524,1,0,0:0:0:0:
320,192,27682,1,0,0:0:0:0:
192,192,27682,1,0,0:0:0:0:
320,192,27840,1,0,0:0:0:0:
192,192,27840,128,0,28156:0:0:0:0:
448,192,27840,1,0,0:0:0:0:
320,192,28156,1,0,0:0:0:0:
64,192,28156,1,0,0:0:0:0:
448,192,28156,128,0,28472:0:0:0:0:
192,192,28314,1,0,0:0:0:0:
64,192,28314,1,0,0:0:0:0:
320,192,28314,1,0,0:0:0:0:
320,192,28472,128,0,28787:0:0:0:0:
192,192,28472,1,0,0:0:0:0:
64,192,28472,1,0,0:0:0:0:
64,192,28787,128,0,29103:0:0:0:0:
192,192,28787,1,0,0:0:0:0:
320,192,28945,1,0,0:0:0:0:
192,192,28945,1,0,0:0:0:0:
320,192,29103,1,0,0:0:0:0:
448,192,29103,1,0,0:0:0:0:
192,192,29103,128,0,29419:0:0:0:0:
64,192,29261,1,0,0:0:0:0:
448,192,29261,1,0,0:0:0:0:
64,192,29419,1,0,0:0:0:0:
320,192,29419,1,0,0:0:0:0:
448,192,29419,128,0,29735:0:0:0:0:
320,192,29577,1,0,0:0:0:0:
64,192,29577,1,0,0:0:0:0:
320,192,29735,128,0,30051:0:0:0:0:
192,192,29735,1,0,0:0:0:0:
192,192,30051,128,0,30366:0:0:0:0:
64,192,30051,1,0,0:0:0:0:
448,192,30051,1,0,0:0:0:0:
64,192,30366,128,0,30682:0:0:0:0:
320,192,30366,1,0,0:0:0:0:
448,192,30682,128,0,30998:0:0:0:0:
192,192,30682,1,0,0:0:0:0:
320,192,30682,1,0,0:0:0:0:
192,192,30998,128,0,31314:0:0:0:0:
320,192,30998,1,0,0:0:0:0:
64,192,30998,1,0,0:0:0:0:
320,192,31314,128,0,31577:0:0:0:0:
64,192,31314,1,0,0:0:0:0:
448,192,31314,1,0,0:0:0:0:
192,192,31577,1,0,0:0:0:0:
448,192,31577,1,0,0:0:0:0:
64,192,31577,128,0,31945:0:0:0:0:
192,192,31945,1,0,0:0:0:0:
448,192,31945,128,0,32261:0:0:0:0:
320,192,31945,1,0,0:0:0:0:
64,192,32261,1,0,0:0:0:0:
320,192,32261,1,0,0:0:0:0:
192,192,32261,128,0,32577:0:0:0:0:
320,192,32577,1,0,0:0:0:0:
64,192,32577,1,0,0:0:0:0:
448,192,32577,128,0,32893:0:0:0:0:
192,192,32893,1,0,0:0:0:0:
64,192,32893,1,0,0:0:0:0:
320,192,32893,128,0,33208:0:0:0:0:
64,192,33208,1,0,0:0:0:0:
448,192,33208,1,0,0:0:0:0:
192,192,33208,128,0,33524:0:0:0:0:
64,192,33524,1,0,0:0:0:0:
320,192,33524,128,0,33682:0:0:0:0:
448,192,33524,1,0,0:0:0:0:
64,192,33682,1,0,0:0:0:0:
192,192,33682,1,0,0:0:0:0:
448,192,33682,128,0,33840:0:0:0:0:
320,192,33840,1,0,0:0:0:0:
64,192,33840,1,0,0:0:0:0:
192,192,33840,128,0,34156:0:0:0:0:
320,192,34156,1,0,0:0:0:0:
64,192,34156,1,0,0:0:0:0:
448,192,34156,128,0,34472:0:0:0:0:
192,192,34472,1,0,0:0:0:0:
320,192,34472,1,0,0:0:0:0:
64,192,34472,128,0,34787:0:0:0:0:
448,192,34787,1,0,0:0:0:0:
192,192,34787,1,0,0:0:0:0:
320,192,34787,128,0,35103:0:0:0:0:
64,192,35103,1,0,0:0:0:0:
448,192,35103,1,0,0:0:0:0:
192,192,35103,128,0,35419:0:0:0:0:
64,192,35419,1,0,0:0:0:0:
320,192,35419,1,0,0:0:0:0:
448,192,35419,128,0,35735:0:0:0:0:
64,192,35735,1,0,0:0:0:0:
320,192,35735,1,0,0:0:0:0:
192,192,35735,128,0,36051:0:0:0:0:
448,192,36051,1,0,0:0:0:0:
320,192,36051,1,0,0:0:0:0:
64,192,36051,128,0,36208:0:0:0:0:
448,192,36208,1,0,0:0:0:0:
192,192,36208,1,0,0:0:0:0:
320,192,36208,128,0,36366:0:0:0:0:
448,192,36366,1,0,0:0:0:0:
192,192,36366,1,0,0:0:0:0:
64,192,36366,128,0,36682:0:0:0:0:
448,192,36682,1,0,0:0:0:0:
192,192,36682,1,0,0:0:0:0:
320,192,36682,128,0,36998:0:0:0:0:
448,192,36998,1,0,0:0:0:0:
64,192,36998,1,0,0:0:0:0:
192,192,36998,128,0,37314:0:0:0:0:
64,192,37314,1,0,0:0:0:0:
320,192,37314,1,0,0:0:0:0:
448,192,37314,128,0,37629:0:0:0:0:
64,192,37629,1,0,0:0:0:0:
192,192,37629,1,0,0:0:0:0:
320,192,37629,128,0,37945:0:0:0:0:
64,192,37945,1,0,0:0:0:0:
448,192,37945,1,0,0:0:0:0:
192,192,37945,128,0,38261:0:0:0:0:
320,192,38261,5,0,0:0:0:0:
448,192,38261,1,0,0:0:0:0:
64,192,38261,128,0,38577:0:0:0:0:
192,192,38577,1,0,0:0:0:0:
320,192,38577,1,0,0:0:0:0:
448,192,38577,128,0,38893:0:0:0:0:
320,192,38893,128,0,39182:0:0:0:0:
64,192,38893,1,0,0:0:0:0:
192,192,38893,1,0,0:0:0:0:
64,192,39182,5,0,0:0:0:0:
192,192,39182,1,0,0:0:0:0:
448,192,39182,1,0,0:0:0:0:
448,192,39340,1,0,0:0:0:0:
192,192,39340,1,0,0:0:0:0:
64,192,39340,1,0,0:0:0:0:
192,192,39498,1,0,0:0:0:0:
64,192,39498,1,0,0:0:0:0:
320,192,39498,1,0,0:0:0:0:
64,192,39656,1,0,0:0:0:0:
320,192,39656,1,0,0:0:0:0:
448,192,39656,1,0,0:0:0:0:
64,192,39840,5,0,0:0:0:0:
192,192,39840,1,0,0:0:0:0:
320,192,39919,1,0,0:0:0:0:
448,192,39919,1,0,0:0:0:0:
192,192,39998,1,0,0:0:0:0:
64,192,39998,1,0,0:0:0:0:
320,192,40103,1,0,0:0:0:0:
448,192,40103,1,0,0:0:0:0:
192,192,40182,1,0,0:0:0:0:
64,192,40182,1,0,0:0:0:0:
320,192,40261,1,0,0:0:0:0:
448,192,40261,1,0,0:0:0:0:
192,192,40340,1,0,0:0:0:0:
64,192,40340,1,0,0:0:0:0:
320,192,40419,1,0,0:0:0:0:
448,192,40419,1,0,0:0:0:0:
64,192,40498,128,0,41603:0:0:0:0:
192,192,40498,128,0,41603:0:0:0:0:
320,192,40761,1,0,0:0:0:0:
448,192,40761,1,0,0:0:0:0:
448,192,41077,1,0,0:0:0:0:
320,192,41077,1,0,0:0:0:0:
448,192,41393,128,0,41603:0:0:0:0:
320,192,41393,128,0,41603:0:0:0:0:
448,192,41761,1,0,0:0:0:0:
64,192,41761,1,0,0:0:0:0:
192,192,41761,1,0,0:0:0:0:
320,192,41840,1,0,0:0:0:0:
192,192,41919,1,0,0:0:0:0:
64,192,41919,1,0,0:0:0:0:
448,192,41998,1,0,0:0:0:0:
320,192,42077,1,0,0:0:0:0:
64,192,42077,1,0,0:0:0:0:
192,192,42156,1,0,0:0:0:0:
320,192,42235,1,0,0:0:0:0:
448,192,42235,1,0,0:0:0:0:
64,192,42235,1,0,0:0:0:0:
192,192,42314,1,0,0:0:0:0:
64,192,42393,1,0,0:0:0:0:
320,192,42393,1,0,0:0:0:0:
448,192,42472,1,0,0:0:0:0:
64,192,42551,1,0,0:0:0:0:
192,192,42551,1,0,0:0:0:0:
320,192,42629,1,0,0:0:0:0:
448,192,42708,1,0,0:0:0:0:
64,192,42708,1,0,0:0:0:0:
192,192,42787,1,0,0:0:0:0:
320,192,42866,1,0,0:0:0:0:
448,192,42866,1,0,0:0:0:0:
64,192,42866,1,0,0:0:0:0:
192,192,42945,1,0,0:0:0:0:
64,192,43024,1,0,0:0:0:0:
320,192,43024,1,0,0:0:0:0:
448,192,43103,1,0,0:0:0:0:
320,192,43182,1,0,0:0:0:0:
64,192,43182,1,0,0:0:0:0:
192,192,43182,1,0,0:0:0:0:
448,192,43261,1,0,0:0:0:0:
320,192,43340,1,0,0:0:0:0:
192,192,43340,1,0,0:0:0:0:
64,192,43419,1,0,0:0:0:0:
448,192,43498,1,0,0:0:0:0:
320,192,43498,1,0,0:0:0:0:
192,192,43577,1,0,0:0:0:0:
64,192,43656,1,0,0:0:0:0:
320,192,43656,1,0,0:0:0:0:
448,192,43656,1,0,0:0:0:0:
192,192,43735,1,0,0:0:0:0:
64,192,43814,1,0,0:0:0:0:
192,192,43893,1,0,0:0:0:0:
320,192,43893,1,0,0:0:0:0:
448,192,43893,1,0,0:0:0:0:
64,192,43972,1,0,0:0:0:0:
192,192,44051,1,0,0:0:0:0:
64,192,44129,1,0,0:0:0:0:
320,192,44129,1,0,0:0:0:0:
448,192,44129,1,0,0:0:0:0:
192,192,44208,1,0,0:0:0:0:
320,192,44287,1,0,0:0:0:0:
448,192,44287,1,0,0:0:0:0:
64,192,44366,1,0,0:0:0:0:
192,192,44445,1,0,0:0:0:0:
320,192,44445,1,0,0:0:0:0:
448,192,44524,1,0,0:0:0:0:
64,192,44603,1,0,0:0:0:0:
192,192,44603,1,0,0:0:0:0:
320,192,44682,1,0,0:0:0:0:
448,192,44761,1,0,0:0:0:0:
64,192,44761,1,0,0:0:0:0:
192,192,44840,1,0,0:0:0:0:
320,192,44919,1,0,0:0:0:0:
448,192,44919,1,0,0:0:0:0:
64,192,44919,1,0,0:0:0:0:
192,192,44998,1,0,0:0:0:0:
320,192,45077,1,0,0:0:0:0:
448,192,45077,1,0,0:0:0:0:
192,192,45156,1,0,0:0:0:0:
64,192,45235,1,0,0:0:0:0:
320,192,45235,1,0,0:0:0:0:
448,192,45235,1,0,0:0:0:0:
192,192,45314,1,0,0:0:0:0:
64,192,45393,1,0,0:0:0:0:
320,192,45393,1,0,0:0:0:0:
448,192,45472,1,0,0:0:0:0:
320,192,45551,1,0,0:0:0:0:
192,192,45551,1,0,0:0:0:0:
64,192,45551,1,0,0:0:0:0:
448,192,45629,1,0,0:0:0:0:
320,192,45708,1,0,0:0:0:0:
192,192,45708,1,0,0:0:0:0:
64,192,45787,1,0,0:0:0:0:
448,192,45866,1,0,0:0:0:0:
320,192,45866,1,0,0:0:0:0:
192,192,45945,1,0,0:0:0:0:
320,192,46024,1,0,0:0:0:0:
448,192,46024,1,0,0:0:0:0:
64,192,46024,1,0,0:0:0:0:
192,192,46103,1,0,0:0:0:0:
320,192,46182,1,0,0:0:0:0:
64,192,46182,1,0,0:0:0:0:
448,192,46261,1,0,0:0:0:0:
192,192,46340,1,0,0:0:0:0:
64,192,46340,1,0,0:0:0:0:
320,192,46419,1,0,0:0:0:0:
448,192,46498,1,0,0:0:0:0:
192,192,46498,1,0,0:0:0:0:
64,192,46498,1,0,0:0:0:0:
320,192,46577,1,0,0:0:0:0:
448,192,46656,1,0,0:0:0:0:
192,192,46656,1,0,0:0:0:0:
64,192,46735,1,0,0:0:0:0:
192,192,46814,1,0,0:0:0:0:
320,192,46814,1,0,0:0:0:0:
448,192,46814,1,0,0:0:0:0:
64,192,46893,1,0,0:0:0:0:
192,192,46972,1,0,0:0:0:0:
320,192,46972,1,0,0:0:0:0:
448,192,47051,1,0,0:0:0:0:
320,192,47129,1,0,0:0:0:0:
192,192,47129,1,0,0:0:0:0:
64,192,47129,1,0,0:0:0:0:
448,192,47208,1,0,0:0:0:0:
64,192,47287,1,0,0:0:0:0:
192,192,47287,1,0,0:0:0:0:
320,192,47287,1,0,0:0:0:0:
448,192,47366,1,0,0:0:0:0:
320,192,47445,1,0,0:0:0:0:
64,192,47445,1,0,0:0:0:0:
192,192,47524,1,0,0:0:0:0:
320,192,47603,1,0,0:0:0:0:
448,192,47603,1,0,0:0:0:0:
64,192,47603,1,0,0:0:0:0:
192,192,47682,1,0,0:0:0:0:
320,192,47761,1,0,0:0:0:0:
64,192,47761,1,0,0:0:0:0:
448,192,47840,1,0,0:0:0:0:
192,192,47919,1,0,0:0:0:0:
320,192,47919,1,0,0:0:0:0:
64,192,47919,1,0,0:0:0:0:
448,192,47998,1,0,0:0:0:0:
64,192,48077,1,0,0:0:0:0:
192,192,48077,1,0,0:0:0:0:
320,192,48156,1,0,0:0:0:0:
448,192,48235,1,0,0:0:0:0:
64,192,48235,1,0,0:0:0:0:
192,192,48314,1,0,0:0:0:0:
320,192,48393,1,0,0:0:0:0:
448,192,48393,1,0,0:0:0:0:
64,192,48393,1,0,0:0:0:0:
192,192,48472,1,0,0:0:0:0:
64,192,48551,1,0,0:0:0:0:
448,192,48551,1,0,0:0:0:0:
320,192,48629,1,0,0:0:0:0:
64,192,48708,1,0,0:0:0:0:
192,192,48708,1,0,0:0:0:0:
448,192,48708,1,0,0:0:0:0:
320,192,48787,1,0,0:0:0:0:
448,192,48866,1,0,0:0:0:0:
192,192,48866,1,0,0:0:0:0:
64,192,48945,1,0,0:0:0:0:
448,192,49024,1,0,0:0:0:0:
320,192,49024,1,0,0:0:0:0:
192,192,49103,1,0,0:0:0:0:
64,192,49182,1,0,0:0:0:0:
448,192,49182,1,0,0:0:0:0:
320,192,49261,1,0,0:0:0:0:
192,192,49340,1,0,0:0:0:0:
64,192,49340,1,0,0:0:0:0:
448,192,49340,1,0,0:0:0:0:
320,192,49419,1,0,0:0:0:0:
448,192,49498,1,0,0:0:0:0:
64,192,49498,1,0,0:0:0:0:
192,192,49498,1,0,0:0:0:0:
320,192,49577,1,0,0:0:0:0:
64,192,49656,1,0,0:0:0:0:
448,192,49656,1,0,0:0:0:0:
192,192,49735,1,0,0:0:0:0:
320,192,49735,1,0,0:0:0:0:
64,192,49814,1,0,0:0:0:0:
448,192,49814,1,0,0:0:0:0:
320,192,49893,1,0,0:0:0:0:
192,192,49893,1,0,0:0:0:0:
448,192,49972,1,0,0:0:0:0:
320,192,50051,1,0,0:0:0:0:
64,192,50051,1,0,0:0:0:0:
192,192,50129,1,0,0:0:0:0:
448,192,50129,1,0,0:0:0:0:
320,192,50208,1,0,0:0:0:0:
64,192,50208,1,0,0:0:0:0:
192,192,50287,1,0,0:0:0:0:
448,192,50287,1,0,0:0:0:0:
320,192,50366,1,0,0:0:0:0:
64,192,50445,1,0,0:0:0:0:
448,192,50445,1,0,0:0:0:0:
192,192,50524,1,0,0:0:0:0:
320,192,50524,1,0,0:0:0:0:
448,192,50603,1,0,0:0:0:0:
64,192,50682,1,0,0:0:0:0:
192,192,50682,1,0,0:0:0:0:
320,192,50682,1,0,0:0:0:0:
448,192,50761,1,0,0:0:0:0:
320,192,50840,1,0,0:0:0:0:
192,192,50840,1,0,0:0:0:0:
64,192,50919,1,0,0:0:0:0:
320,192,50998,5,0,0:0:0:0:
448,192,50998,1,0,0:0:0:0:
192,192,51077,1,0,0:0:0:0:
64,192,51077,1,0,0:0:0:0:
320,192,51156,1,0,0:0:0:0:
448,192,51156,1,0,0:0:0:0:
192,192,51235,1,0,0:0:0:0:
64,192,51235,1,0,0:0:0:0:
320,192,51314,1,0,0:0:0:0:
448,192,51314,1,0,0:0:0:0:
192,192,51393,1,0,0:0:0:0:
64,192,51393,1,0,0:0:0:0:
320,192,51472,1,0,0:0:0:0:
448,192,51472,1,0,0:0:0:0:
192,192,51551,1,0,0:0:0:0:
64,192,51551,1,0,0:0:0:0:
320,192,51629,1,0,0:0:0:0:
448,192,51629,1,0,0:0:0:0:
192,192,51708,1,0,0:0:0:0:
64,192,51708,1,0,0:0:0:0:
448,192,51787,1,0,0:0:0:0:
320,192,51866,1,0,0:0:0:0:
192,192,51866,1,0,0:0:0:0:
64,192,51945,1,0,0:0:0:0:
448,192,52024,1,0,0:0:0:0:
320,192,52024,1,0,0:0:0:0:
192,192,52103,1,0,0:0:0:0:
64,192,52182,1,0,0:0:0:0:
448,192,52182,1,0,0:0:0:0:
320,192,52261,1,0,0:0:0:0:
192,192,52340,1,0,0:0:0:0:
64,192,52340,1,0,0:0:0:0:
448,192,52340,1,0,0:0:0:0:
320,192,52419,1,0,0:0:0:0:
448,192,52498,1,0,0:0:0:0:
64,192,52498,1,0,0:0:0:0:
192,192,52577,1,0,0:0:0:0:
320,192,52656,1,0,0:0:0:0:
448,192,52656,1,0,0:0:0:0:
64,192,52735,1,0,0:0:0:0:
192,192,52814,1,0,0:0:0:0:
448,192,52814,1,0,0:0:0:0:
320,192,52893,1,0,0:0:0:0:
192,192,52972,1,0,0:0:0:0:
64,192,52972,1,0,0:0:0:0:
448,192,52972,1,0,0:0:0:0:
320,192,53051,1,0,0:0:0:0:
192,192,53129,1,0,0:0:0:0:
448,192,53129,1,0,0:0:0:0:
64,192,53208,1,0,0:0:0:0:
192,192,53287,1,0,0:0:0:0:
320,192,53287,1,0,0:0:0:0:
448,192,53287,1,0,0:0:0:0:
64,192,53366,1,0,0:0:0:0:
192,192,53445,1,0,0:0:0:0:
448,192,53445,1,0,0:0:0:0:
320,192,53524,1,0,0:0:0:0:
64,192,53524,1,0,0:0:0:0:
448,192,53603,1,0,0:0:0:0:
320,192,53682,1,0,0:0:0:0:
192,192,53682,1,0,0:0:0:0:
64,192,53682,1,0,0:0:0:0:
448,192,53761,1,0,0:0:0:0:
320,192,53840,1,0,0:0:0:0:
192,192,53840,1,0,0:0:0:0:
448,192,53919,1,0,0:0:0:0:
64,192,53919,1,0,0:0:0:0:
192,192,53998,1,0,0:0:0:0:
64,192,54077,1,0,0:0:0:0:
320,192,54077,1,0,0:0:0:0:
448,192,54077,1,0,0:0:0:0:
192,192,54156,1,0,0:0:0:0:
320,192,54235,1,0,0:0:0:0:
448,192,54235,1,0,0:0:0:0:
192,192,54314,1,0,0:0:0:0:
64,192,54393,1,0,0:0:0:0:
320,192,54393,1,0,0:0:0:0:
448,192,54393,1,0,0:0:0:0:
192,192,54472,1,0,0:0:0:0:
64,192,54551,1,0,0:0:0:0:
448,192,54551,1,0,0:0:0:0:
192,192,54629,1,0,0:0:0:0:
320,192,54629,1,0,0:0:0:0:
448,192,54708,1,0,0:0:0:0:
64,192,54787,1,0,0:0:0:0:
320,192,54787,1,0,0:0:0:0:
192,192,54787,1,0,0:0:0:0:
448,192,54866,1,0,0:0:0:0:
320,192,54945,1,0,0:0:0:0:
64,192,54945,1,0,0:0:0:0:
192,192,55024,1,0,0:0:0:0:
64,192,55103,1,0,0:0:0:0:
320,192,55103,1,0,0:0:0:0:
448,192,55103,1,0,0:0:0:0:
192,192,55182,1,0,0:0:0:0:
320,192,55261,1,0,0:0:0:0:
64,192,55261,1,0,0:0:0:0:
448,192,55340,1,0,0:0:0:0:
64,192,55419,1,0,0:0:0:0:
192,192,55419,1,0,0:0:0:0:
320,192,55419,1,0,0:0:0:0:
448,192,55498,1,0,0:0:0:0:
320,192,55577,1,0,0:0:0:0:
64,192,55577,1,0,0:0:0:0:
192,192,55656,1,0,0:0:0:0:
320,192,55735,1,0,0:0:0:0:
448,192,55735,1,0,0:0:0:0:
64,192,55735,1,0,0:0:0:0:
192,192,55814,1,0,0:0:0:0:
320,192,55893,1,0,0:0:0:0:
64,192,55972,1,0,0:0:0:0:
448,192,55972,1,0,0:0:0:0:
192,192,56051,1,0,0:0:0:0:
320,192,56051,1,0,0:0:0:0:
64,192,56129,1,0,0:0:0:0:
448,192,56129,1,0,0:0:0:0:
192,192,56208,1,0,0:0:0:0:
320,192,56208,1,0,0:0:0:0:
448,192,56287,1,0,0:0:0:0:
64,192,56366,1,0,0:0:0:0:
192,192,56366,1,0,0:0:0:0:
320,192,56366,1,0,0:0:0:0:
448,192,56445,1,0,0:0:0:0:
64,192,56524,1,0,0:0:0:0:
192,192,56524,1,0,0:0:0:0:
320,192,56603,1,0,0:0:0:0:
448,192,56682,1,0,0:0:0:0:
64,192,56682,1,0,0:0:0:0:
192,192,56761,1,0,0:0:0:0:
320,192,56761,1,0,0:0:0:0:
64,192,56840,1,0,0:0:0:0:
192,192,56919,1,0,0:0:0:0:
320,192,56919,1,0,0:0:0:0:
448,192,56919,1,0,0:0:0:0:
64,192,56998,1,0,0:0:0:0:
448,192,57077,1,0,0:0:0:0:
192,192,57077,1,0,0:0:0:0:
64,192,57156,1,0,0:0:0:0:
320,192,57156,1,0,0:0:0:0:
448,192,57235,1,0,0:0:0:0:
320,192,57314,1,0,0:0:0:0:
192,192,57314,1,0,0:0:0:0:
64,192,57314,1,0,0:0:0:0:
448,192,57393,1,0,0:0:0:0:
320,192,57472,1,0,0:0:0:0:
64,192,57472,1,0,0:0:0:0:
192,192,57551,1,0,0:0:0:0:
64,192,57629,1,0,0:0:0:0:
320,192,57629,1,0,0:0:0:0:
448,192,57629,1,0,0:0:0:0:
192,192,57708,1,0,0:0:0:0:
320,192,57787,1,0,0:0:0:0:
448,192,57787,1,0,0:0:0:0:
64,192,57787,1,0,0:0:0:0:
192,192,57866,1,0,0:0:0:0:
320,192,57945,1,0,0:0:0:0:
448,192,57945,1,0,0:0:0:0:
64,192,58024,1,0,0:0:0:0:
192,192,58103,1,0,0:0:0:0:
320,192,58103,1,0,0:0:0:0:
448,192,58103,1,0,0:0:0:0:
64,192,58182,1,0,0:0:0:0:
448,192,58261,1,0,0:0:0:0:
192,192,58261,1,0,0:0:0:0:
320,192,58340,1,0,0:0:0:0:
64,192,58340,1,0,0:0:0:0:
448,192,58419,1,0,0:0:0:0:
320,192,58498,1,0,0:0:0:0:
192,192,58498,1,0,0:0:0:0:
64,192,58577,1,0,0:0:0:0:
448,192,58577,1,0,0:0:0:0:
192,192,58656,1,0,0:0:0:0:
320,192,58656,1,0,0:0:0:0:
64,192,58735,1,0,0:0:0:0:
448,192,58735,1,0,0:0:0:0:
320,192,58814,1,0,0:0:0:0:
192,192,58893,1,0,0:0:0:0:
448,192,58893,1,0,0:0:0:0:
64,192,58893,1,0,0:0:0:0:
320,192,58972,1,0,0:0:0:0:
448,192,59051,1,0,0:0:0:0:
192,192,59051,1,0,0:0:0:0:
64,192,59129,1,0,0:0:0:0:
192,192,59208,1,0,0:0:0:0:
320,192,59208,1,0,0:0:0:0:
448,192,59208,1,0,0:0:0:0:
64,192,59287,1,0,0:0:0:0:
192,192,59366,1,0,0:0:0:0:
320,192,59366,1,0,0:0:0:0:
448,192,59366,1,0,0:0:0:0:
64,192,59445,1,0,0:0:0:0:
448,192,59524,1,0,0:0:0:0:
320,192,59524,1,0,0:0:0:0:
192,192,59603,1,0,0:0:0:0:
64,192,59682,1,0,0:0:0:0:
448,192,59682,1,0,0:0:0:0:
320,192,59761,1,0,0:0:0:0:
192,192,59761,1,0,0:0:0:0:
64,192,59840,1,0,0:0:0:0:
192,192,59919,1,0,0:0:0:0:
448,192,59919,1,0,0:0:0:0:
320,192,59998,1,0,0:0:0:0:
64,192,59998,1,0,0:0:0:0:
448,192,60077,5,0,0:0:0:0:
320,192,60156,1,0,0:0:0:0:
192,192,60156,1,0,0:0:0:0:
64,192,60156,1,0,0:0:0:0:
448,192,60235,1,0,0:0:0:0:
320,192,60314,1,0,0:0:0:0:
192,192,60314,1,0,0:0:0:0:
64,192,60314,1,0,0:0:0:0:
448,192,60393,1,0,0:0:0:0:
320,192,60472,1,0,0:0:0:0:
64,192,60472,1,0,0:0:0:0:
448,192,60551,1,0,0:0:0:0:
192,192,60551,1,0,0:0:0:0:
64,192,60629,1,0,0:0:0:0:
320,192,60629,1,0,0:0:0:0:
192,192,60708,1,0,0:0:0:0:
448,192,60787,1,0,0:0:0:0:
320,192,60787,1,0,0:0:0:0:
64,192,60787,1,0,0:0:0:0:
192,192,60866,1,0,0:0:0:0:
64,192,60945,1,0,0:0:0:0:
320,192,60945,1,0,0:0:0:0:
448,192,60945,1,0,0:0:0:0:
192,192,61024,1,0,0:0:0:0:
64,192,61103,1,0,0:0:0:0:
320,192,61103,1,0,0:0:0:0:
448,192,61182,1,0,0:0:0:0:
192,192,61261,1,0,0:0:0:0:
320,192,61261,1,0,0:0:0:0:
64,192,61340,5,0,0:0:0:0:
448,192,61419,1,0,0:0:0:0:
320,192,61458,1,0,0:0:0:0:
192,192,61498,1,0,0:0:0:0:
64,192,61537,1,0,0:0:0:0:
448,192,61577,1,0,0:0:0:0:
320,192,61616,1,0,0:0:0:0:
192,192,61656,1,0,0:0:0:0:
64,192,61695,1,0,0:0:0:0:
448,192,61735,1,0,0:0:0:0:
320,192,61774,1,0,0:0:0:0:
192,192,61814,1,0,0:0:0:0:
64,192,61853,1,0,0:0:0:0:
448,192,61893,1,0,0:0:0:0:
320,192,61932,1,0,0:0:0:0:
192,192,61972,1,0,0:0:0:0:
64,192,62011,1,0,0:0:0:0:
320,192,62051,1,0,0:0:0:0:
448,192,62051,1,0,0:0:0:0:
192,192,62287,1,0,0:0:0:0:
64,192,62287,1,0,0:0:0:0:
320,192,62287,1,0,0:0:0:0:
192,192,62603,1,0,0:0:0:0:
64,192,62603,1,0,0:0:0:0:
448,192,62603,1,0,0:0:0:0:
192,192,62761,1,0,0:0:0:0:
64,192,62761,1,0,0:0:0:0:
320,192,62761,1,0,0:0:0:0:
448,192,62919,1,0,0:0:0:0:
320,192,62919,1,0,0:0:0:0:
64,192,62919,1,0,0:0:0:0:
64,192,63077,1,0,0:0:0:0:
192,192,63077,1,0,0:0:0:0:
320,192,63077,1,0,0:0:0:0:
448,192,63077,1,0,0:0:0:0:
192,192,63235,1,0,0:0:0:0:
64,192,63235,1,0,0:0:0:0:
448,192,63235,1,0,0:0:0:0:
320,192,63393,1,0,0:0:0:0:
448,192,63393,1,0,0:0:0:0:
64,192,63472,1,0,0:0:0:0:
192,192,63472,1,0,0:0:0:0:
320,192,63551,1,0,0:0:0:0:
448,192,63551,1,0,0:0:0:0:
192,192,63629,1,0,0:0:0:0:
64,192,63629,1,0,0:0:0:0:
320,192,63708,1,0,0:0:0:0:
448,192,63708,1,0,0:0:0:0:
192,192,63787,1,0,0:0:0:0:
64,192,63787,1,0,0:0:0:0:
448,192,63866,1,0,0:0:0:0:
320,192,63866,1,0,0:0:0:0:
64,192,64182,1,0,0:0:0:0:
192,192,64182,1,0,0:0:0:0:
320,192,64182,1,0,0:0:0:0:
448,192,64182,1,0,0:0:0:0:
448,192,64498,1,0,0:0:0:0:
192,192,64498,1,0,0:0:0:0:
64,192,64498,1,0,0:0:0:0:
320,192,64577,1,0,0:0:0:0:
192,192,64656,1,0,0:0:0:0:
64,192,64656,1,0,0:0:0:0:
448,192,64735,1,0,0:0:0:0:
320,192,64814,1,0,0:0:0:0:
192,192,64814,1,0,0:0:0:0:
64,192,64893,1,0,0:0:0:0:
448,192,64893,1,0,0:0:0:0:
320,192,64972,1,0,0:0:0:0:
192,192,65051,1,0,0:0:0:0:
448,192,65051,1,0,0:0:0:0:
64,192,65129,1,0,0:0:0:0:
320,192,65208,1,0,0:0:0:0:
448,192,65208,1,0,0:0:0:0:
192,192,65287,1,0,0:0:0:0:
448,192,65366,1,0,0:0:0:0:
64,192,65366,1,0,0:0:0:0:
320,192,65445,1,0,0:0:0:0:
64,192,65524,1,0,0:0:0:0:
192,192,65524,1,0,0:0:0:0:
448,192,65524,1,0,0:0:0:0:
320,192,65603,1,0,0:0:0:0:
448,192,65682,1,0,0:0:0:0:
64,192,65682,1,0,0:0:0:0:
192,192,65761,1,0,0:0:0:0:
320,192,65761,1,0,0:0:0:0:
64,192,65840,1,0,0:0:0:0:
448,192,65840,1,0,0:0:0:0:
320,192,65919,1,0,0:0:0:0:
448,192,65998,1,0,0:0:0:0:
192,192,65998,1,0,0:0:0:0:
320,192,66077,1,0,0:0:0:0:
64,192,66077,1,0,0:0:0:0:
192,192,66156,1,0,0:0:0:0:
448,192,66156,1,0,0:0:0:0:
64,192,66235,1,0,0:0:0:0:
320,192,66314,1,0,0:0:0:0:
192,192,66314,1,0,0:0:0:0:
448,192,66314,1,0,0:0:0:0:
64,192,66393,1,0,0:0:0:0:
448,192,66472,1,0,0:0:0:0:
320,192,66472,1,0,0:0:0:0:
192,192,66551,1,0,0:0:0:0:
448,192,66629,1,0,0:0:0:0:
64,192,66629,1,0,0:0:0:0:
320,192,66708,1,0,0:0:0:0:
192,192,66787,1,0,0:0:0:0:
64,192,66787,1,0,0:0:0:0:
320,192,66866,1,0,0:0:0:0:
64,192,66945,1,0,0:0:0:0:
448,192,66945,1,0,0:0:0:0:
192,192,67024,1,0,0:0:0:0:
448,192,67103,1,0,0:0:0:0:
320,192,67103,1,0,0:0:0:0:
192,192,67182,1,0,0:0:0:0:
64,192,67261,1,0,0:0:0:0:
448,192,67261,1,0,0:0:0:0:
320,192,67340,1,0,0:0:0:0:
192,192,67419,1,0,0:0:0:0:
448,192,67419,1,0,0:0:0:0:
64,192,67498,1,0,0:0:0:0:
192,192,67577,1,0,0:0:0:0:
448,192,67577,1,0,0:0:0:0:
320,192,67656,1,0,0:0:0:0:
64,192,67656,1,0,0:0:0:0:
192,192,67735,1,0,0:0:0:0:
320,192,67814,1,0,0:0:0:0:
448,192,67814,1,0,0:0:0:0:
64,192,67893,1,0,0:0:0:0:
192,192,67972,1,0,0:0:0:0:
448,192,67972,1,0,0:0:0:0:
320,192,68051,1,0,0:0:0:0:
192,192,68129,1,0,0:0:0:0:
64,192,68129,1,0,0:0:0:0:
448,192,68208,1,0,0:0:0:0:
320,192,68287,1,0,0:0:0:0:
192,192,68287,1,0,0:0:0:0:
64,192,68366,1,0,0:0:0:0:
448,192,68445,1,0,0:0:0:0:
192,192,68445,1,0,0:0:0:0:
320,192,68524,1,0,0:0:0:0:
64,192,68603,1,0,0:0:0:0:
192,192,68603,1,0,0:0:0:0:
448,192,68682,1,0,0:0:0:0:
320,192,68682,1,0,0:0:0:0:
64,192,68761,1,0,0:0:0:0:
192,192,68761,1,0,0:0:0:0:
320,192,68840,1,0,0:0:0:0:
448,192,68840,1,0,0:0:0:0:
192,192,68919,1,0,0:0:0:0:
64,192,68919,1,0,0:0:0:0:
320,192,68998,1,0,0:0:0:0:
448,192,68998,1,0,0:0:0:0:
192,192,69077,1,0,0:0:0:0:
64,192,69077,1,0,0:0:0:0:
320,192,69156,1,0,0:0:0:0:
448,192,69156,1,0,0:0:0:0:
64,192,69235,1,0,0:0:0:0:
192,192,69314,1,0,0:0:0:0:
320,192,69314,1,0,0:0:0:0:
448,192,69393,1,0,0:0:0:0:
192,192,69472,1,0,0:0:0:0:
64,192,69472,1,0,0:0:0:0:
448,192,69551,1,0,0:0:0:0:
320,192,69551,1,0,0:0:0:0:
192,192,69629,1,0,0:0:0:0:
64,192,69708,1,0,0:0:0:0:
448,192,69708,1,0,0:0:0:0:
320,192,69787,1,0,0:0:0:0:
192,192,69787,1,0,0:0:0:0:
64,192,69866,1,0,0:0:0:0:
448,192,69866,1,0,0:0:0:0:
320,192,69945,1,0,0:0:0:0:
192,192,70024,1,0,0:0:0:0:
64,192,70024,1,0,0:0:0:0:
320,192,70103,1,0,0:0:0:0:
64,192,70182,1,0,0:0:0:0:
448,192,70182,1,0,0:0:0:0:
192,192,70261,1,0,0:0:0:0:
320,192,70340,1,0,0:0:0:0:
64,192,70340,1,0,0:0:0:0:
448,192,70419,1,0,0:0:0:0:
192,192,70498,1,0,0:0:0:0:
64,192,70498,1,0,0:0:0:0:
320,192,70577,1,0,0:0:0:0:
64,192,70656,1,0,0:0:0:0:
448,192,70656,1,0,0:0:0:0:
192,192,70735,1,0,0:0:0:0:
64,192,70814,1,0,0:0:0:0:
448,192,70814,1,0,0:0:0:0:
320,192,70814,1,0,0:0:0:0:
192,192,70893,1,0,0:0:0:0:
64,192,70972,1,0,0:0:0:0:
320,192,70972,1,0,0:0:0:0:
448,192,71051,5,0,0:0:0:0:
192,192,71129,1,0,0:0:0:0:
64,192,71129,1,0,0:0:0:0:
320,192,71208,1,0,0:0:0:0:
448,192,71287,1,0,0:0:0:0:
192,192,71287,1,0,0:0:0:0:
64,192,71287,1,0,0:0:0:0:
320,192,71366,1,0,0:0:0:0:
192,192,71445,1,0,0:0:0:0:
64,192,71445,1,0,0:0:0:0:
448,192,71445,1,0,0:0:0:0:
320,192,71524,1,0,0:0:0:0:
448,192,71603,1,0,0:0:0:0:
64,192,71603,1,0,0:0:0:0:
192,192,71682,1,0,0:0:0:0:
320,192,71761,1,0,0:0:0:0:
448,192,71761,1,0,0:0:0:0:
64,192,71761,1,0,0:0:0:0:
192,192,71840,1,0,0:0:0:0:
64,192,71919,1,0,0:0:0:0:
448,192,71919,1,0,0:0:0:0:
192,192,71998,1,0,0:0:0:0:
320,192,71998,1,0,0:0:0:0:
64,192,72077,1,0,0:0:0:0:
192,192,72156,1,0,0:0:0:0:
448,192,72156,1,0,0:0:0:0:
64,192,72235,5,0,0:0:0:0:
320,192,72235,1,0,0:0:0:0:
192,192,72314,1,0,0:0:0:0:
448,192,72314,1,0,0:0:0:0:
320,192,72393,1,0,0:0:0:0:
64,192,72393,1,0,0:0:0:0:
192,192,72472,1,0,0:0:0:0:
320,192,72551,1,0,0:0:0:0:
448,192,72551,1,0,0:0:0:0:
192,192,72629,1,0,0:0:0:0:
64,192,72708,1,0,0:0:0:0:
448,192,72708,1,0,0:0:0:0:
192,192,72787,1,0,0:0:0:0:
320,192,72787,1,0,0:0:0:0:
64,192,72866,1,0,0:0:0:0:
448,192,72866,1,0,0:0:0:0:
192,192,72945,1,0,0:0:0:0:
320,192,72945,1,0,0:0:0:0:
448,192,73024,1,0,0:0:0:0:
64,192,73103,1,0,0:0:0:0:
192,192,73103,1,0,0:0:0:0:
320,192,73103,1,0,0:0:0:0:
448,192,73182,1,0,0:0:0:0:
320,192,73261,1,0,0:0:0:0:
192,192,73261,1,0,0:0:0:0:
64,192,73340,1,0,0:0:0:0:
320,192,73419,1,0,0:0:0:0:
448,192,73419,1,0,0:0:0:0:
64,192,73498,1,0,0:0:0:0:
192,192,73498,1,0,0:0:0:0:
320,192,73577,1,0,0:0:0:0:
448,192,73577,1,0,0:0:0:0:
192,192,73656,1,0,0:0:0:0:
64,192,73656,1,0,0:0:0:0:
320,192,73735,1,0,0:0:0:0:
448,192,73735,1,0,0:0:0:0:
64,192,73893,5,0,0:0:0:0:
192,192,73893,1,0,0:0:0:0:
448,192,73893,1,0,0:0:0:0:
320,192,73893,128,0,74208:0:0:0:0:
448,192,74208,128,0,74524:0:0:0:0:
192,192,74208,1,0,0:0:0:0:
64,192,74208,1,0,0:0:0:0:
320,192,74524,1,0,0:0:0:0:
64,192,74524,1,0,0:0:0:0:
192,192,74524,128,0,74840:0:0:0:0:
448,192,74840,1,0,0:0:0:0:
320,192,74840,128,0,75156:0:0:0:0:
64,192,75156,128,0,75472:0:0:0:0:
192,192,75156,1,0,0:0:0:0:
448,192,75156,1,0,0:0:0:0:
448,192,75314,1,0,0:0:0:0:
320,192,75314,1,0,0:0:0:0:
448,192,75472,1,0,0:0:0:0:
320,192,75472,128,0,75787:0:0:0:0:
192,192,75472,1,0,0:0:0:0:
64,192,75629,1,0,0:0:0:0:
192,192,75629,1,0,0:0:0:0:
448,192,75629,1,0,0:0:0:0:
64,192,75787,1,0,0:0:0:0:
448,192,75787,1,0,0:0:0:0:
192,192,75787,128,0,76103:0:0:0:0:
448,192,76103,128,0,76419:0:0:0:0:
320,192,76103,1,0,0:0:0:0:
64,192,76419,128,0,76735:0:0:0:0:
192,192,76419,1,0,0:0:0:0:
320,192,76419,1,0,0:0:0:0:
320,192,76735,1,0,0:0:0:0:
448,192,76735,1,0,0:0:0:0:
192,192,76735,128,0,77051:0:0:0:0:
448,192,76893,1,0,0:0:0:0:
320,192,76893,1,0,0:0:0:0:
64,192,76893,1,0,0:0:0:0:
64,192,77051,128,0,77366:0:0:0:0:
448,192,77051,1,0,0:0:0:0:
320,192,77051,1,0,0:0:0:0:
320,192,77366,128,0,77682:0:0:0:0:
192,192,77366,1,0,0:0:0:0:
448,192,77366,1,0,0:0:0:0:
448,192,77682,128,0,77998:0:0:0:0:
192,192,77682,1,0,0:0:0:0:
320,192,77998,1,0,0:0:0:0:
192,192,77998,128,0,78314:0:0:0:0:
64,192,77998,1,0,0:0:0:0:
320,192,78156,1,0,0:0:0:0:
448,192,78156,1,0,0:0:0:0:
64,192,78314,128,0,78629:0:0:0:0:
448,192,78314,1,0,0:0:0:0:
320,192,78314,1,0,0:0:0:0:
192,192,78472,1,0,0:0:0:0:
448,192,78472,1,0,0:0:0:0:
320,192,78629,128,0,78945:0:0:0:0:
192,192,78629,1,0,0:0:0:0:
448,192,78629,1,0,0:0:0:0:
448,192,78787,1,0,0:0:0:0:
64,192,78787,1,0,0:0:0:0:
192,192,78945,1,0,0:0:0:0:
448,192,78945,128,0,79261:0:0:0:0:
64,192,79103,1,0,0:0:0:0:
192,192,79103,1,0,0:0:0:0:
64,192,79261,128,0,79577:0:0:0:0:
320,192,79261,1,0,0:0:0:0:
192,192,79261,1,0,0:0:0:0:
448,192,79577,1,0,0:0:0:0:
320,192,79577,128,0,79893:0:0:0:0:
192,192,79577,1,0,0:0:0:0:
192,192,79893,128,0,80208:0:0:0:0:
64,192,79893,1,0,0:0:0:0:
448,192,79893,1,0,0:0:0:0:
64,192,80208,1,0,0:0:0:0:
320,192,80208,128,0,80524:0:0:0:0:
448,192,80208,1,0,0:0:0:0:
64,192,80366,1,0,0:0:0:0:
192,192,80366,1,0,0:0:0:0:
192,192,80524,1,0,0:0:0:0:
64,192,80524,128,0,80840:0:0:0:0:
448,192,80524,1,0,0:0:0:0:
192,192,80682,1,0,0:0:0:0:
320,192,80682,1,0,0:0:0:0:
320,192,80840,1,0,0:0:0:0:
448,192,80840,1,0,0:0:0:0:
192,192,80840,128,0,81156:0:0:0:0:
64,192,81156,1,0,0:0:0:0:
448,192,81156,128,0,81472:0:0:0:0:
320,192,81156,1,0,0:0:0:0:
64,192,81314,1,0,0:0:0:0:
192,192,81314,1,0,0:0:0:0:
320,192,81314,1,0,0:0:0:0:
320,192,81472,128,0,81787:0:0:0:0:
192,192,81472,1,0,0:0:0:0:
64,192,81472,1,0,0:0:0:0:
64,192,81787,128,0,82103:0:0:0:0:
192,192,81787,1,0,0:0:0:0:
192,192,81945,1,0,0:0:0:0:
320,192,81945,1,0,0:0:0:0:
320,192,82103,1,0,0:0:0:0:
448,192,82103,1,0,0:0:0:0:
192,192,82103,128,0,82419:0:0:0:0:
64,192,82261,1,0,0:0:0:0:
448,192,82261,1,0,0:0:0:0:
64,192,82419,1,0,0:0:0:0:
448,192,82419,128,0,82735:0:0:0:0:
320,192,82419,1,0,0:0:0:0:
320,192,82577,1,0,0:0:0:0:
64,192,82577,1,0,0:0:0:0:
320,192,82735,128,0,83051:0:0:0:0:
192,192,82735,1,0,0:0:0:0:
192,192,83051,128,0,83366:0:0:0:0:
64,192,83051,1,0,0:0:0:0:
448,192,83051,1,0,0:0:0:0:
320,192,83366,1,0,0:0:0:0:
64,192,83366,128,0,83682:0:0:0:0:
320,192,83682,1,0,0:0:0:0:
448,192,83682,128,0,83998:0:0:0:0:
192,192,83682,1,0,0:0:0:0:
192,192,83998,128,0,84314:0:0:0:0:
64,192,83998,1,0,0:0:0:0:
320,192,83998,1,0,0:0:0:0:
64,192,84314,1,0,0:0:0:0:
320,192,84314,128,0,84577:0:0:0:0:
448,192,84314,1,0,0:0:0:0:
448,192,84577,1,0,0:0:0:0:
64,192,84577,128,0,84945:0:0:0:0:
192,192,84577,1,0,0:0:0:0:
320,192,84945,1,0,0:0:0:0:
192,192,84945,1,0,0:0:0:0:
448,192,84945,128,0,85261:0:0:0:0:
64,192,85261,1,0,0:0:0:0:
320,192,85261,1,0,0:0:0:0:
192,192,85261,128,0,85577:0:0:0:0:
320,192,85419,1,0,0:0:0:0:
64,192,85419,1,0,0:0:0:0:
320,192,85577,1,0,0:0:0:0:
448,192,85577,128,0,85893:0:0:0:0:
64,192,85577,1,0,0:0:0:0:
192,192,85735,1,0,0:0:0:0:
320,192,85735,1,0,0:0:0:0:
64,192,85893,1,0,0:0:0:0:
320,192,85893,128,0,86208:0:0:0:0:
192,192,85893,1,0,0:0:0:0:
64,192,86208,1,0,0:0:0:0:
192,192,86208,128,0,86524:0:0:0:0:
448,192,86208,1,0,0:0:0:0:
64,192,86524,1,0,0:0:0:0:
448,192,86524,1,0,0:0:0:0:
320,192,86524,128,0,86840:0:0:0:0:
448,192,86682,1,0,0:0:0:0:
64,192,86682,1,0,0:0:0:0:
448,192,86840,128,0,87156:0:0:0:0:
64,192,86840,1,0,0:0:0:0:
192,192,86840,1,0,0:0:0:0:
192,192,86998,1,0,0:0:0:0:
320,192,86998,1,0,0:0:0:0:
64,192,87156,1,0,0:0:0:0:
192,192,87156,128,0,87472:0:0:0:0:
320,192,87156,1,0,0:0:0:0:
64,192,87472,128,0,87787:0:0:0:0:
448,192,87472,1,0,0:0:0:0:
320,192,87472,1,0,0:0:0:0:
320,192,87787,128,0,88103:0:0:0:0:
448,192,87787,1,0,0:0:0:0:
192,192,87787,1,0,0:0:0:0:
448,192,88103,1,0,0:0:0:0:
192,192,88103,1,0,0:0:0:0:
64,192,88103,128,0,88419:0:0:0:0:
320,192,88261,1,0,0:0:0:0:
448,192,88261,1,0,0:0:0:0:
192,192,88419,1,0,0:0:0:0:
320,192,88419,128,0,88735:0:0:0:0:
448,192,88419,1,0,0:0:0:0:
448,192,88577,1,0,0:0:0:0:
192,192,88577,1,0,0:0:0:0:
64,192,88577,1,0,0:0:0:0:
192,192,88735,128,0,89051:0:0:0:0:
448,192,88735,1,0,0:0:0:0:
64,192,88735,1,0,0:0:0:0:
448,192,88893,1,0,0:0:0:0:
64,192,88893,1,0,0:0:0:0:
320,192,89051,1,0,0:0:0:0:
448,192,89051,128,0,89366:0:0:0:0:
64,192,89208,1,0,0:0:0:0:
192,192,89208,1,0,0:0:0:0:
320,192,89366,1,0,0:0:0:0:
192,192,89366,1,0,0:0:0:0:
64,192,89366,128,0,89682:0:0:0:0:
320,192,89524,1,0,0:0:0:0:
192,192,89682,128,0,89998:0:0:0:0:
448,192,89682,1,0,0:0:0:0:
320,192,89682,1,0,0:0:0:0:
64,192,89840,1,0,0:0:0:0:
320,192,89840,1,0,0:0:0:0:
448,192,89840,1,0,0:0:0:0:
320,192,89998,1,0,0:0:0:0:
448,192,89998,1,0,0:0:0:0:
64,192,89998,128,0,90314:0:0:0:0:
448,192,90314,1,0,0:0:0:0:
192,192,90314,1,0,0:0:0:0:
320,192,90314,128,0,90629:0:0:0:0:
192,192,90629,1,0,0:0:0:0:
448,192,90629,128,0,90945:0:0:0:0:
64,192,90945,1,0,0:0:0:0:
192,192,90945,128,0,91261:0:0:0:0:
320,192,90945,1,0,0:0:0:0:
320,192,91261,1,0,0:0:0:0:
448,192,91261,1,0,0:0:0:0:
64,192,91261,128,0,91577:0:0:0:0:
448,192,91577,1,0,0:0:0:0:
192,192,91577,1,0,0:0:0:0:
320,192,91577,128,0,91893:0:0:0:0:
448,192,91893,128,0,92208:0:0:0:0:
192,192,91893,1,0,0:0:0:0:
64,192,92051,1,0,0:0:0:0:
320,192,92051,1,0,0:0:0:0:
192,192,92208,1,0,0:0:0:0:
320,192,92208,1,0,0:0:0:0:
64,192,92208,128,0,92524:0:0:0:0:
192,192,92366,1,0,0:0:0:0:
320,192,92366,1,0,0:0:0:0:
192,192,92524,1,0,0:0:0:0:
320,192,92524,128,0,92840:0:0:0:0:
448,192,92524,1,0,0:0:0:0:
448,192,92682,1,0,0:0:0:0:
192,192,92682,1,0,0:0:0:0:
448,192,92840,1,0,0:0:0:0:
64,192,92840,1,0,0:0:0:0:
192,192,92840,128,0,93156:0:0:0:0:
448,192,93156,1,0,0:0:0:0:
320,192,93156,128,0,93472:0:0:0:0:
64,192,93156,1,0,0:0:0:0:
192,192,93314,1,0,0:0:0:0:
64,192,93314,1,0,0:0:0:0:
448,192,93472,1,0,0:0:0:0:
64,192,93472,128,0,93787:0:0:0:0:
192,192,93472,1,0,0:0:0:0:
320,192,93629,5,0,0:0:0:0:
192,192,93629,1,0,0:0:0:0:
192,192,93787,128,0,94103:0:0:0:0:
448,192,93787,1,0,0:0:0:0:
320,192,93787,1,0,0:0:0:0:
320,192,94103,1,0,0:0:0:0:
448,192,94103,128,0,94419:0:0:0:0:
64,192,94103,1,0,0:0:0:0:
320,192,94261,1,0,0:0:0:0:
192,192,94261,1,0,0:0:0:0:
64,192,94261,1,0,0:0:0:0:
320,192,94419,128,0,94735:0:0:0:0:
64,192,94419,1,0,0:0:0:0:
192,192,94419,1,0,0:0:0:0:
448,192,94735,1,0,0:0:0:0:
192,192,94735,1,0,0:0:0:0:
64,192,94735,128,0,95051:0:0:0:0:
320,192,94893,1,0,0:0:0:0:
192,192,94893,1,0,0:0:0:0:
192,192,95051,128,0,95366:0:0:0:0:
448,192,95051,1,0,0:0:0:0:
320,192,95051,1,0,0:0:0:0:
448,192,95208,1,0,0:0:0:0:
64,192,95208,1,0,0:0:0:0:
320,192,95366,1,0,0:0:0:0:
448,192,95366,128,0,95682:0:0:0:0:
64,192,95366,1,0,0:0:0:0:
64,192,95524,1,0,0:0:0:0:
320,192,95524,1,0,0:0:0:0:
192,192,95682,1,0,0:0:0:0:
320,192,95682,128,0,95998:0:0:0:0:
64,192,95840,1,0,0:0:0:0:
448,192,95840,1,0,0:0:0:0:
448,192,95998,1,0,0:0:0:0:
64,192,95998,1,0,0:0:0:0:
192,192,95998,128,0,96314:0:0:0:0:
448,192,96156,1,0,0:0:0:0:
320,192,96156,1,0,0:0:0:0:
64,192,96314,128,0,96629:0:0:0:0:
320,192,96314,1,0,0:0:0:0:
192,192,96629,1,0,0:0:0:0:
448,192,96629,128,0,96945:0:0:0:0:
320,192,96629,1,0,0:0:0:0:
320,192,96945,1,0,0:0:0:0:
64,192,96945,1,0,0:0:0:0:
192,192,96945,128,0,97261:0:0:0:0:
448,192,97261,1,0,0:0:0:0:
320,192,97261,128,0,97524:0:0:0:0:
64,192,97261,1,0,0:0:0:0:
192,192,97524,1,0,0:0:0:0:
64,192,97524,128,0,97893:0:0:0:0:
448,192,97524,1,0,0:0:0:0:
192,192,97735,1,0,0:0:0:0:
320,192,97735,1,0,0:0:0:0:
448,192,97893,128,0,98208:0:0:0:0:
192,192,97893,1,0,0:0:0:0:
320,192,97893,1,0,0:0:0:0:
192,192,98051,1,0,0:0:0:0:
192,192,98208,128,0,98524:0:0:0:0:
320,192,98208,1,0,0:0:0:0:
64,192,98208,1,0,0:0:0:0:
320,192,98366,1,0,0:0:0:0:
64,192,98524,1,0,0:0:0:0:
448,192,98524,128,0,98840:0:0:0:0:
320,192,98524,1,0,0:0:0:0:
64,192,98682,1,0,0:0:0:0:
192,192,98682,1,0,0:0:0:0:
192,192,98840,1,0,0:0:0:0:
320,192,98840,128,0,99156:0:0:0:0:
64,192,98840,1,0,0:0:0:0:
64,192,98998,1,0,0:0:0:0:
448,192,99156,1,0,0:0:0:0:
192,192,99156,128,0,99472:0:0:0:0:
64,192,99156,1,0,0:0:0:0:
320,192,99314,1,0,0:0:0:0:
448,192,99314,1,0,0:0:0:0:
448,192,99472,1,0,0:0:0:0:
320,192,99472,128,0,99787:0:0:0:0:
64,192,99472,1,0,0:0:0:0:
448,192,99787,128,0,100103:0:0:0:0:
192,192,99787,1,0,0:0:0:0:
64,192,99787,1,0,0:0:0:0:
192,192,99945,1,0,0:0:0:0:
64,192,99945,1,0,0:0:0:0:
192,192,100103,128,0,100419:0:0:0:0:
320,192,100103,1,0,0:0:0:0:
64,192,100103,1,0,0:0:0:0:
320,192,100261,1,0,0:0:0:0:
64,192,100261,1,0,0:0:0:0:
64,192,100419,128,0,100735:0:0:0:0:
320,192,100419,1,0,0:0:0:0:
448,192,100419,1,0,0:0:0:0:
320,192,100577,1,0,0:0:0:0:
192,192,100577,1,0,0:0:0:0:
192,192,100735,128,0,101051:0:0:0:0:
320,192,100735,1,0,0:0:0:0:
448,192,100735,1,0,0:0:0:0:
64,192,101051,1,0,0:0:0:0:
320,192,101051,128,0,101366:0:0:0:0:
448,192,101051,1,0,0:0:0:0:
64,192,101366,128,0,101682:0:0:0:0:
192,192,101366,1,0,0:0:0:0:
448,192,101366,1,0,0:0:0:0:
448,192,101682,128,0,101998:0:0:0:0:
192,192,101682,1,0,0:0:0:0:
320,192,101682,1,0,0:0:0:0:
192,192,101998,128,0,102314:0:0:0:0:
320,192,101998,1,0,0:0:0:0:
64,192,101998,1,0,0:0:0:0:
320,192,102314,128,0,102629:0:0:0:0:
64,192,102314,1,0,0:0:0:0:
448,192,102314,1,0,0:0:0:0:
192,192,102472,1,0,0:0:0:0:
448,192,102472,1,0,0:0:0:0:
448,192,102629,128,0,102945:0:0:0:0:
192,192,102629,1,0,0:0:0:0:
64,192,102629,1,0,0:0:0:0:
192,192,102787,1,0,0:0:0:0:
64,192,102787,1,0,0:0:0:0:
320,192,102945,1,0,0:0:0:0:
64,192,103024,5,0,0:0:0:0:
192,192,103024,1,0,0:0:0:0:
320,192,103103,1,0,0:0:0:0:
448,192,103103,1,0,0:0:0:0:
192,192,103182,1,0,0:0:0:0:
64,192,103182,1,0,0:0:0:0:
320,192,103261,1,0,0:0:0:0:
448,192,103261,1,0,0:0:0:0:
192,192,103340,1,0,0:0:0:0:
64,192,103340,1,0,0:0:0:0:
320,192,103419,1,0,0:0:0:0:
448,192,103419,1,0,0:0:0:0:
192,192,103498,1,0,0:0:0:0:
64,192,103498,1,0,0:0:0:0:
448,192,103577,1,0,0:0:0:0:
320,192,103577,1,0,0:0:0:0:
192,192,103656,1,0,0:0:0:0:
64,192,103656,1,0,0:0:0:0:
64,192,103893,1,0,0:0:0:0:
192,192,103893,1,0,0:0:0:0:
448,192,103893,1,0,0:0:0:0:
448,192,104208,1,0,0:0:0:0:
320,192,104208,1,0,0:0:0:0:
64,192,104208,1,0,0:0:0:0:
64,192,104524,1,0,0:0:0:0:
192,192,104524,1,0,0:0:0:0:
320,192,104524,1,0,0:0:0:0:
448,192,104682,1,0,0:0:0:0:
320,192,104682,1,0,0:0:0:0:
64,192,104682,1,0,0:0:0:0:
64,192,104840,1,0,0:0:0:0:
192,192,104840,1,0,0:0:0:0:
320,192,104840,1,0,0:0:0:0:
448,192,104840,1,0,0:0:0:0:
64,192,104998,1,0,0:0:0:0:
192,192,104998,1,0,0:0:0:0:
448,192,104998,1,0,0:0:0:0:
320,192,105156,1,0,0:0:0:0:
192,192,105156,1,0,0:0:0:0:
64,192,105156,1,0,0:0:0:0:
64,192,105314,1,0,0:0:0:0:
320,192,105314,1,0,0:0:0:0:
448,192,105314,1,0,0:0:0:0:
64,192,105472,1,0,0:0:0:0:
192,192,105472,1,0,0:0:0:0:
320,192,105472,1,0,0:0:0:0:
192,192,105629,128,0,105945:0:0:0:0:
320,192,105708,128,0,105945:0:0:0:0:
64,192,105787,128,0,105945:0:0:0:0:
448,192,105866,128,0,105945:0:0:0:0:
64,192,106103,5,0,0:0:0:0:
192,192,106103,1,0,0:0:0:0:
320,192,106103,1,0,0:0:0:0:
448,192,106182,1,0,0:0:0:0:
320,192,106261,1,0,0:0:0:0:
192,192,106261,1,0,0:0:0:0:
64,192,106340,1,0,0:0:0:0:
448,192,106419,1,0,0:0:0:0:
320,192,106419,1,0,0:0:0:0:
192,192,106498,1,0,0:0:0:0:
64,192,106577,1,0,0:0:0:0:
320,192,106577,1,0,0:0:0:0:
192,192,106656,1,0,0:0:0:0:
448,192,106656,1,0,0:0:0:0:
320,192,106735,1,0,0:0:0:0:
192,192,106814,1,0,0:0:0:0:
64,192,106814,1,0,0:0:0:0:
448,192,106814,1,0,0:0:0:0:
320,192,106893,1,0,0:0:0:0:
192,192,106972,1,0,0:0:0:0:
448,192,106972,1,0,0:0:0:0:
320,192,107051,1,0,0:0:0:0:
64,192,107051,1,0,0:0:0:0:
192,192,107129,1,0,0:0:0:0:
320,192,107208,1,0,0:0:0:0:
448,192,107208,1,0,0:0:0:0:
192,192,107287,1,0,0:0:0:0:
64,192,107366,1,0,0:0:0:0:
320,192,107366,1,0,0:0:0:0:
448,192,107366,1,0,0:0:0:0:
192,192,107445,1,0,0:0:0:0:
448,192,107524,1,0,0:0:0:0:
64,192,107524,1,0,0:0:0:0:
320,192,107603,1,0,0:0:0:0:
64,192,107682,1,0,0:0:0:0:
192,192,107682,1,0,0:0:0:0:
448,192,107682,1,0,0:0:0:0:
320,192,107761,1,0,0:0:0:0:
448,192,107840,1,0,0:0:0:0:
192,192,107840,1,0,0:0:0:0:
64,192,107919,1,0,0:0:0:0:
192,192,107998,1,0,0:0:0:0:
320,192,107998,1,0,0:0:0:0:
448,192,107998,1,0,0:0:0:0:
64,192,108077,1,0,0:0:0:0:
320,192,108156,1,0,0:0:0:0:
448,192,108156,1,0,0:0:0:0:
192,192,108235,1,0,0:0:0:0:
64,192,108314,1,0,0:0:0:0:
320,192,108314,1,0,0:0:0:0:
448,192,108393,1,0,0:0:0:0:
320,192,108472,1,0,0:0:0:0:
192,192,108472,1,0,0:0:0:0:
64,192,108551,1,0,0:0:0:0:
192,192,108629,1,0,0:0:0:0:
320,192,108629,1,0,0:0:0:0:
448,192,108629,1,0,0:0:0:0:
64,192,108708,1,0,0:0:0:0:
448,192,108787,1,0,0:0:0:0:
320,192,108787,1,0,0:0:0:0:
192,192,108787,1,0,0:0:0:0:
64,192,108866,1,0,0:0:0:0:
192,192,108945,1,0,0:0:0:0:
320,192,108945,1,0,0:0:0:0:
448,192,108945,1,0,0:0:0:0:
64,192,109024,1,0,0:0:0:0:
448,192,109103,1,0,0:0:0:0:
192,192,109103,1,0,0:0:0:0:
320,192,109182,1,0,0:0:0:0:
64,192,109182,1,0,0:0:0:0:
192,192,109261,1,0,0:0:0:0:
64,192,109340,1,0,0:0:0:0:
320,192,109340,1,0,0:0:0:0:
448,192,109340,1,0,0:0:0:0:
192,192,109419,1,0,0:0:0:0:
64,192,109498,1,0,0:0:0:0:
448,192,109498,1,0,0:0:0:0:
192,192,109577,1,0,0:0:0:0:
320,192,109577,1,0,0:0:0:0:
64,192,109656,1,0,0:0:0:0:
448,192,109656,1,0,0:0:0:0:
320,192,109735,1,0,0:0:0:0:
192,192,109735,1,0,0:0:0:0:
448,192,109814,1,0,0:0:0:0:
192,192,109893,1,0,0:0:0:0:
320,192,109893,1,0,0:0:0:0:
64,192,109893,1,0,0:0:0:0:
448,192,109972,1,0,0:0:0:0:
64,192,110051,1,0,0:0:0:0:
192,192,110129,1,0,0:0:0:0:
320,192,110129,1,0,0:0:0:0:
64,192,110208,1,0,0:0:0:0:
448,192,110208,1,0,0:0:0:0:
192,192,110287,1,0,0:0:0:0:
320,192,110366,1,0,0:0:0:0:
64,192,110366,1,0,0:0:0:0:
192,192,110445,1,0,0:0:0:0:
448,192,110445,1,0,0:0:0:0:
320,192,110524,1,0,0:0:0:0:
64,192,110524,1,0,0:0:0:0:
192,192,110603,1,0,0:0:0:0:
448,192,110603,1,0,0:0:0:0:
320,192,110682,1,0,0:0:0:0:
64,192,110761,1,0,0:0:0:0:
192,192,110761,1,0,0:0:0:0:
448,192,110761,1,0,0:0:0:0:
320,192,110840,1,0,0:0:0:0:
64,192,110919,1,0,0:0:0:0:
192,192,110919,1,0,0:0:0:0:
320,192,110998,1,0,0:0:0:0:
448,192,110998,1,0,0:0:0:0:
64,192,111077,1,0,0:0:0:0:
192,192,111156,1,0,0:0:0:0:
320,192,111156,1,0,0:0:0:0:
448,192,111156,1,0,0:0:0:0:
64,192,111235,1,0,0:0:0:0:
448,192,111314,1,0,0:0:0:0:
320,192,111393,1,0,0:0:0:0:
192,192,111393,1,0,0:0:0:0:
64,192,111472,1,0,0:0:0:0:
448,192,111551,1,0,0:0:0:0:
320,192,111551,1,0,0:0:0:0:
192,192,111629,1,0,0:0:0:0:
64,192,111708,1,0,0:0:0:0:
448,192,111708,1,0,0:0:0:0:
320,192,111787,1,0,0:0:0:0:
192,192,111866,1,0,0:0:0:0:
64,192,111866,1,0,0:0:0:0:
448,192,111866,1,0,0:0:0:0:
320,192,111945,1,0,0:0:0:0:
448,192,112024,1,0,0:0:0:0:
192,192,112024,1,0,0:0:0:0:
64,192,112103,1,0,0:0:0:0:
192,192,112182,1,0,0:0:0:0:
320,192,112182,1,0,0:0:0:0:
448,192,112261,1,0,0:0:0:0:
64,192,112261,1,0,0:0:0:0:
192,192,112340,1,0,0:0:0:0:
320,192,112419,1,0,0:0:0:0:
64,192,112419,1,0,0:0:0:0:
448,192,112419,1,0,0:0:0:0:
192,192,112498,1,0,0:0:0:0:
64,192,112577,1,0,0:0:0:0:
320,192,112577,1,0,0:0:0:0:
448,192,112656,1,0,0:0:0:0:
320,192,112735,1,0,0:0:0:0:
64,192,112735,1,0,0:0:0:0:
192,192,112735,1,0,0:0:0:0:
448,192,112814,1,0,0:0:0:0:
320,192,112893,1,0,0:0:0:0:
64,192,112893,1,0,0:0:0:0:
192,192,112972,1,0,0:0:0:0:
320,192,113051,1,0,0:0:0:0:
448,192,113051,1,0,0:0:0:0:
64,192,113051,1,0,0:0:0:0:
192,192,113129,1,0,0:0:0:0:
64,192,113208,1,0,0:0:0:0:
448,192,113208,1,0,0:0:0:0:
320,192,113287,1,0,0:0:0:0:
448,192,113366,1,0,0:0:0:0:
192,192,113366,1,0,0:0:0:0:
64,192,113366,1,0,0:0:0:0:
320,192,113445,1,0,0:0:0:0:
192,192,113524,1,0,0:0:0:0:
64,192,113524,1,0,0:0:0:0:
320,192,113603,1,0,0:0:0:0:
448,192,113682,1,0,0:0:0:0:
192,192,113682,1,0,0:0:0:0:
64,192,113682,1,0,0:0:0:0:
320,192,113761,1,0,0:0:0:0:
448,192,113840,1,0,0:0:0:0:
64,192,113840,1,0,0:0:0:0:
192,192,113919,1,0,0:0:0:0:
320,192,113919,1,0,0:0:0:0:
64,192,113998,1,0,0:0:0:0:
448,192,114077,1,0,0:0:0:0:
320,192,114156,1,0,0:0:0:0:
192,192,114156,1,0,0:0:0:0:
64,192,114156,1,0,0:0:0:0:
448,192,114235,1,0,0:0:0:0:
320,192,114314,1,0,0:0:0:0:
192,192,114314,1,0,0:0:0:0:
64,192,114314,1,0,0:0:0:0:
448,192,114393,1,0,0:0:0:0:
64,192,114472,1,0,0:0:0:0:
192,192,114472,1,0,0:0:0:0:
320,192,114551,1,0,0:0:0:0:
448,192,114629,1,0,0:0:0:0:
64,192,114629,1,0,0:0:0:0:
192,192,114708,1,0,0:0:0:0:
320,192,114708,1,0,0:0:0:0:
64,192,114787,1,0,0:0:0:0:
192,192,114866,1,0,0:0:0:0:
320,192,114866,1,0,0:0:0:0:
448,192,114866,1,0,0:0:0:0:
64,192,114945,1,0,0:0:0:0:
192,192,115024,1,0,0:0:0:0:
320,192,115024,1,0,0:0:0:0:
448,192,115024,1,0,0:0:0:0:
64,192,115103,1,0,0:0:0:0:
320,192,115182,1,0,0:0:0:0:
192,192,115182,1,0,0:0:0:0:
448,192,115261,1,0,0:0:0:0:
64,192,115340,1,0,0:0:0:0:
320,192,115340,1,0,0:0:0:0:
192,192,115419,1,0,0:0:0:0:
448,192,115419,1,0,0:0:0:0:
320,192,115498,1,0,0:0:0:0:
192,192,115577,5,0,0:0:0:0:
64,192,115577,1,0,0:0:0:0:
320,192,115656,1,0,0:0:0:0:
448,192,115656,1,0,0:0:0:0:
64,192,115735,1,0,0:0:0:0:
192,192,115735,1,0,0:0:0:0:
320,192,115814,1,0,0:0:0:0:
448,192,115814,1,0,0:0:0:0:
192,192,115893,1,0,0:0:0:0:
64,192,115893,1,0,0:0:0:0:
320,192,115972,1,0,0:0:0:0:
448,192,115972,1,0,0:0:0:0:
192,192,116051,1,0,0:0:0:0:
64,192,116051,1,0,0:0:0:0:
320,192,116129,1,0,0:0:0:0:
448,192,116129,1,0,0:0:0:0:
192,192,116208,1,0,0:0:0:0:
64,192,116208,1,0,0:0:0:0:
448,192,116287,1,0,0:0:0:0:
320,192,116366,1,0,0:0:0:0:
64,192,116366,1,0,0:0:0:0:
192,192,116445,1,0,0:0:0:0:
64,192,116524,1,0,0:0:0:0:
320,192,116524,1,0,0:0:0:0:
448,192,116524,1,0,0:0:0:0:
192,192,116603,1,0,0:0:0:0:
64,192,116682,1,0,0:0:0:0:
320,192,116682,1,0,0:0:0:0:
448,192,116682,1,0,0:0:0:0:
192,192,116761,1,0,0:0:0:0:
320,192,116840,1,0,0:0:0:0:
448,192,116840,1,0,0:0:0:0:
192,192,116919,1,0,0:0:0:0:
64,192,116998,1,0,0:0:0:0:
320,192,116998,1,0,0:0:0:0:
448,192,116998,1,0,0:0:0:0:
192,192,117077,1,0,0:0:0:0:
64,192,117156,1,0,0:0:0:0:
448,192,117156,1,0,0:0:0:0:
192,192,117235,1,0,0:0:0:0:
320,192,117235,1,0,0:0:0:0:
64,192,117314,1,0,0:0:0:0:
192,192,117393,1,0,0:0:0:0:
320,192,117393,1,0,0:0:0:0:
448,192,117393,1,0,0:0:0:0:
64,192,117472,1,0,0:0:0:0:
192,192,117551,1,0,0:0:0:0:
320,192,117551,1,0,0:0:0:0:
448,192,117551,1,0,0:0:0:0:
64,192,117629,1,0,0:0:0:0:
448,192,117708,1,0,0:0:0:0:
320,192,117787,1,0,0:0:0:0:
192,192,117787,1,0,0:0:0:0:
64,192,117787,1,0,0:0:0:0:
448,192,117866,1,0,0:0:0:0:
320,192,117945,1,0,0:0:0:0:
64,192,117945,1,0,0:0:0:0:
448,192,118024,1,0,0:0:0:0:
192,192,118024,1,0,0:0:0:0:
320,192,118103,1,0,0:0:0:0:
448,192,118182,1,0,0:0:0:0:
64,192,118182,1,0,0:0:0:0:
192,192,118182,1,0,0:0:0:0:
320,192,118261,1,0,0:0:0:0:
192,192,118340,1,0,0:0:0:0:
64,192,118419,1,0,0:0:0:0:
320,192,118419,1,0,0:0:0:0:
448,192,118498,1,0,0:0:0:0:
64,192,118577,1,0,0:0:0:0:
192,192,118577,1,0,0:0:0:0:
320,192,118577,1,0,0:0:0:0:
448,192,118656,1,0,0:0:0:0:
320,192,118735,1,0,0:0:0:0:
64,192,118735,1,0,0:0:0:0:
448,192,118814,1,0,0:0:0:0:
192,192,118814,1,0,0:0:0:0:
320,192,118893,1,0,0:0:0:0:
192,192,118972,1,0,0:0:0:0:
64,192,118972,1,0,0:0:0:0:
448,192,119051,1,0,0:0:0:0:
320,192,119129,1,0,0:0:0:0:
192,192,119129,1,0,0:0:0:0:
64,192,119129,1,0,0:0:0:0:
448,192,119208,1,0,0:0:0:0:
320,192,119287,1,0,0:0:0:0:
192,192,119287,1,0,0:0:0:0:
64,192,119287,1,0,0:0:0:0:
448,192,119366,1,0,0:0:0:0:
64,192,119445,1,0,0:0:0:0:
320,192,119445,1,0,0:0:0:0:
192,192,119524,1,0,0:0:0:0:
64,192,119603,1,0,0:0:0:0:
448,192,119603,1,0,0:0:0:0:
320,192,119603,1,0,0:0:0:0:
192,192,119682,1,0,0:0:0:0:
64,192,119761,1,0,0:0:0:0:
448,192,119761,1,0,0:0:0:0:
320,192,119761,1,0,0:0:0:0:
192,192,119840,1,0,0:0:0:0:
448,192,119919,1,0,0:0:0:0:
64,192,119998,1,0,0:0:0:0:
192,192,119998,1,0,0:0:0:0:
320,192,119998,1,0,0:0:0:0:
448,192,120077,1,0,0:0:0:0:
320,192,120156,1,0,0:0:0:0:
64,192,120156,1,0,0:0:0:0:
448,192,120235,1,0,0:0:0:0:
192,192,120235,1,0,0:0:0:0:
320,192,120314,1,0,0:0:0:0:
64,192,120393,1,0,0:0:0:0:
192,192,120393,1,0,0:0:0:0:
448,192,120393,1,0,0:0:0:0:
320,192,120472,1,0,0:0:0:0:
448,192,120551,1,0,0:0:0:0:
192,192,120551,1,0,0:0:0:0:
64,192,120629,1,0,0:0:0:0:
192,192,120708,1,0,0:0:0:0:
320,192,120708,1,0,0:0:0:0:
448,192,120708,1,0,0:0:0:0:
64,192,120787,1,0,0:0:0:0:
192,192,120866,1,0,0:0:0:0:
320,192,120866,1,0,0:0:0:0:
448,192,120945,1,0,0:0:0:0:
64,192,121024,1,0,0:0:0:0:
192,192,121024,1,0,0:0:0:0:
320,192,121024,1,0,0:0:0:0:
448,192,121103,1,0,0:0:0:0:
192,192,121182,1,0,0:0:0:0:
320,192,121182,1,0,0:0:0:0:
64,192,121261,1,0,0:0:0:0:
448,192,121261,1,0,0:0:0:0:
192,192,121340,1,0,0:0:0:0:
320,192,121419,1,0,0:0:0:0:
64,192,121419,1,0,0:0:0:0:
448,192,121419,1,0,0:0:0:0:
192,192,121498,1,0,0:0:0:0:
320,192,121577,1,0,0:0:0:0:
448,192,121577,1,0,0:0:0:0:
64,192,121656,1,0,0:0:0:0:
192,192,121735,1,0,0:0:0:0:
448,192,121735,1,0,0:0:0:0:
320,192,121735,1,0,0:0:0:0:
64,192,121814,1,0,0:0:0:0:
192,192,121893,1,0,0:0:0:0:
448,192,121893,1,0,0:0:0:0:
320,192,121972,1,0,0:0:0:0:
448,192,122051,1,0,0:0:0:0:
192,192,122051,1,0,0:0:0:0:
64,192,122051,1,0,0:0:0:0:
320,192,122129,1,0,0:0:0:0:
448,192,122208,1,0,0:0:0:0:
64,192,122208,1,0,0:0:0:0:
192,192,122287,1,0,0:0:0:0:
320,192,122366,1,0,0:0:0:0:
448,192,122366,1,0,0:0:0:0:
64,192,122366,1,0,0:0:0:0:
192,192,122445,1,0,0:0:0:0:
64,192,122524,1,0,0:0:0:0:
320,192,122524,1,0,0:0:0:0:
448,192,122603,1,0,0:0:0:0:
320,192,122682,1,0,0:0:0:0:
192,192,122682,1,0,0:0:0:0:
64,192,122682,1,0,0:0:0:0:
448,192,122761,1,0,0:0:0:0:
320,192,122840,1,0,0:0:0:0:
64,192,122840,1,0,0:0:0:0:
192,192,122919,1,0,0:0:0:0:
448,192,122919,1,0,0:0:0:0:
320,192,122998,1,0,0:0:0:0:
64,192,122998,1,0,0:0:0:0:
192,192,123077,1,0,0:0:0:0:
448,192,123077,1,0,0:0:0:0:
320,192,123156,1,0,0:0:0:0:
64,192,123156,1,0,0:0:0:0:
448,192,123235,1,0,0:0:0:0:
320,192,123314,1,0,0:0:0:0:
192,192,123314,1,0,0:0:0:0:
64,192,123393,1,0,0:0:0:0:
448,192,123393,1,0,0:0:0:0:
320,192,123472,1,0,0:0:0:0:
192,192,123472,1,0,0:0:0:0:
64,192,123551,1,0,0:0:0:0:
448,192,123551,1,0,0:0:0:0:
320,192,123629,1,0,0:0:0:0:
192,192,123629,1,0,0:0:0:0:
64,192,123708,1,0,0:0:0:0:
192,192,123787,1,0,0:0:0:0:
448,192,123787,1,0,0:0:0:0:
320,192,123866,1,0,0:0:0:0:
64,192,123945,1,0,0:0:0:0:
192,192,123945,1,0,0:0:0:0:
448,192,123945,1,0,0:0:0:0:
320,192,124024,1,0,0:0:0:0:
192,192,124103,1,0,0:0:0:0:
448,192,124103,1,0,0:0:0:0:
64,192,124182,1,0,0:0:0:0:
320,192,124182,1,0,0:0:0:0:
448,192,124261,5,0,0:0:0:0:
64,192,124340,1,0,0:0:0:0:
192,192,124340,1,0,0:0:0:0:
320,192,124340,1,0,0:0:0:0:
448,192,124419,1,0,0:0:0:0:
64,192,124498,1,0,0:0:0:0:
320,192,124498,1,0,0:0:0:0:
192,192,124577,1,0,0:0:0:0:
448,192,124577,1,0,0:0:0:0:
320,192,124656,1,0,0:0:0:0:
192,192,124735,1,0,0:0:0:0:
64,192,124735,1,0,0:0:0:0:
448,192,124735,1,0,0:0:0:0:
320,192,124814,1,0,0:0:0:0:
192,192,124893,1,0,0:0:0:0:
448,192,124893,1,0,0:0:0:0:
64,192,124972,1,0,0:0:0:0:
320,192,125051,1,0,0:0:0:0:
448,192,125051,1,0,0:0:0:0:
192,192,125051,1,0,0:0:0:0:
64,192,125129,1,0,0:0:0:0:
320,192,125208,1,0,0:0:0:0:
192,192,125208,1,0,0:0:0:0:
448,192,125287,1,0,0:0:0:0:
64,192,125287,1,0,0:0:0:0:
320,192,125366,1,0,0:0:0:0:
192,192,125445,5,0,0:0:0:0:
64,192,125445,1,0,0:0:0:0:
320,192,125524,1,0,0:0:0:0:
448,192,125524,1,0,0:0:0:0:
192,192,125603,1,0,0:0:0:0:
64,192,125603,1,0,0:0:0:0:
320,192,125682,1,0,0:0:0:0:
448,192,125682,1,0,0:0:0:0:
64,192,125761,1,0,0:0:0:0:
192,192,125801,1,0,0:0:0:0:
320,192,125840,1,0,0:0:0:0:
448,192,125879,1,0,0:0:0:0:
64,192,125919,1,0,0:0:0:0:
192,192,125958,1,0,0:0:0:0:
320,192,125998,1,0,0:0:0:0:
448,192,126037,1,0,0:0:0:0:
64,192,126077,1,0,0:0:0:0:
192,192,126116,1,0,0:0:0:0:
320,192,126156,1,0,0:0:0:0:
448,192,126195,1,0,0:0:0:0:
64,192,126235,1,0,0:0:0:0:
192,192,126274,1,0,0:0:0:0:
320,192,126314,1,0,0:0:0:0:
448,192,126353,1,0,0:0:0:0:
64,192,126393,1,0,0:0:0:0:
192,192,126393,1,0,0:0:0:0:
64,192,126629,1,0,0:0:0:0:
320,192,126629,1,0,0:0:0:0:
448,192,126629,1,0,0:0:0:0:
192,192,126945,1,0,0:0:0:0:
64,192,126945,1,0,0:0:0:0:
448,192,126945,1,0,0:0:0:0:
192,192,127103,1,0,0:0:0:0:
64,192,127103,1,0,0:0:0:0:
320,192,127103,1,0,0:0:0:0:
448,192,127261,1,0,0:0:0:0:
192,192,127261,1,0,0:0:0:0:
64,192,127419,1,0,0:0:0:0:
192,192,127419,1,0,0:0:0:0:
320,192,127419,1,0,0:0:0:0:
448,192,127577,1,0,0:0:0:0:
320,192,127577,1,0,0:0:0:0:
64,192,127577,1,0,0:0:0:0:
64,192,127735,1,0,0:0:0:0:
192,192,127735,1,0,0:0:0:0:
448,192,127735,1,0,0:0:0:0:
320,192,127893,1,0,0:0:0:0:
448,192,127893,1,0,0:0:0:0:
192,192,127972,1,0,0:0:0:0:
64,192,127972,1,0,0:0:0:0:
320,192,128051,1,0,0:0:0:0:
448,192,128051,1,0,0:0:0:0:
192,192,128129,1,0,0:0:0:0:
64,192,128129,1,0,0:0:0:0:
320,192,128208,1,0,0:0:0:0:
448,192,128208,1,0,0:0:0:0:
192,192,128287,1,0,0:0:0:0:
64,192,128287,1,0,0:0:0:0:
64,192,128524,1,0,0:0:0:0:
192,192,128524,1,0,0:0:0:0:
320,192,128524,1,0,0:0:0:0:
448,192,128524,1,0,0:0:0:0:
64,192,128840,1,0,0:0:0:0:
320,192,128840,1,0,0:0:0:0:
448,192,128840,1,0,0:0:0:0:
192,192,128919,1,0,0:0:0:0:
320,192,128998,1,0,0:0:0:0:
64,192,128998,1,0,0:0:0:0:
448,192,129077,1,0,0:0:0:0:
192,192,129077,1,0,0:0:0:0:
64,192,129156,1,0,0:0:0:0:
192,192,129235,1,0,0:0:0:0:
320,192,129235,1,0,0:0:0:0:
448,192,129314,1,0,0:0:0:0:
64,192,129393,1,0,0:0:0:0:
192,192,129393,1,0,0:0:0:0:
320,192,129472,1,0,0:0:0:0:
64,192,129551,1,0,0:0:0:0:
448,192,129551,1,0,0:0:0:0:
192,192,129629,1,0,0:0:0:0:
320,192,129629,1,0,0:0:0:0:
448,192,129708,1,0,0:0:0:0:
64,192,129708,1,0,0:0:0:0:
320,192,129787,1,0,0:0:0:0:
192,192,129787,1,0,0:0:0:0:
448,192,129866,1,0,0:0:0:0:
64,192,129866,1,0,0:0:0:0:
192,192,129945,1,0,0:0:0:0:
320,192,129945,1,0,0:0:0:0:
448,192,130024,1,0,0:0:0:0:
320,192,130103,1,0,0:0:0:0:
64,192,130103,1,0,0:0:0:0:
192,192,130182,1,0,0:0:0:0:
64,192,130261,1,0,0:0:0:0:
320,192,130340,1,0,0:0:0:0:
448,192,130340,1,0,0:0:0:0:
64,192,130419,1,0,0:0:0:0:
192,192,130498,1,0,0:0:0:0:
448,192,130498,1,0,0:0:0:0:
64,192,130577,1,0,0:0:0:0:
320,192,130577,1,0,0:0:0:0:
192,192,130656,1,0,0:0:0:0:
448,192,130656,1,0,0:0:0:0:
320,192,130735,1,0,0:0:0:0:
64,192,130735,1,0,0:0:0:0:
192,192,130814,1,0,0:0:0:0:
448,192,130814,1,0,0:0:0:0:
320,192,130893,1,0,0:0:0:0:
64,192,130893,1,0,0:0:0:0:
192,192,130972,1,0,0:0:0:0:
448,192,130972,1,0,0:0:0:0:
320,192,131051,1,0,0:0:0:0:
64,192,131051,1,0,0:0:0:0:
192,192,131129,1,0,0:0:0:0:
448,192,131129,1,0,0:0:0:0:
64,192,131208,1,0,0:0:0:0:
320,192,131208,1,0,0:0:0:0:
192,192,131287,1,0,0:0:0:0:
448,192,131287,1,0,0:0:0:0:
64,192,131366,1,0,0:0:0:0:
320,192,131445,1,0,0:0:0:0:
448,192,131445,1,0,0:0:0:0:
192,192,131524,1,0,0:0:0:0:
64,192,131603,1,0,0:0:0:0:
320,192,131603,1,0,0:0:0:0:
448,192,131682,1,0,0:0:0:0:
192,192,131682,1,0,0:0:0:0:
320,192,131761,1,0,0:0:0:0:
448,192,131840,1,0,0:0:0:0:
64,192,131840,1,0,0:0:0:0:
192,192,131919,1,0,0:0:0:0:
320,192,131998,1,0,0:0:0:0:
448,192,131998,1,0,0:0:0:0:
64,192,131998,1,0,0:0:0:0:
192,192,132077,1,0,0:0:0:0:
64,192,132156,1,0,0:0:0:0:
320,192,132156,1,0,0:0:0:0:
448,192,132235,1,0,0:0:0:0:
64,192,132314,1,0,0:0:0:0:
192,192,132314,1,0,0:0:0:0:
320,192,132393,1,0,0:0:0:0:
448,192,132472,1,0,0:0:0:0:
64,192,132472,1,0,0:0:0:0:
192,192,132551,1,0,0:0:0:0:
320,192,132629,1,0,0:0:0:0:
448,192,132629,1,0,0:0:0:0:
192,192,132708,1,0,0:0:0:0:
64,192,132787,1,0,0:0:0:0:
448,192,132787,1,0,0:0:0:0:
320,192,132866,1,0,0:0:0:0:
192,192,132945,1,0,0:0:0:0:
64,192,132945,1,0,0:0:0:0:
320,192,133024,1,0,0:0:0:0:
448,192,133103,1,0,0:0:0:0:
64,192,133103,1,0,0:0:0:0:
192,192,133182,1,0,0:0:0:0:
320,192,133182,1,0,0:0:0:0:
64,192,133261,1,0,0:0:0:0:
448,192,133261,1,0,0:0:0:0:
320,192,133340,1,0,0:0:0:0:
192,192,133340,1,0,0:0:0:0:
64,192,133419,1,0,0:0:0:0:
448,192,133419,1,0,0:0:0:0:
320,192,133498,1,0,0:0:0:0:
192,192,133498,1,0,0:0:0:0:
64,192,133577,1,0,0:0:0:0:
448,192,133577,1,0,0:0:0:0:
192,192,133656,1,0,0:0:0:0:
320,192,133656,1,0,0:0:0:0:
64,192,133735,1,0,0:0:0:0:
448,192,133814,1,0,0:0:0:0:
192,192,133814,1,0,0:0:0:0:
320,192,133893,1,0,0:0:0:0:
192,192,133972,1,0,0:0:0:0:
64,192,133972,1,0,0:0:0:0:
320,192,134051,1,0,0:0:0:0:
448,192,134129,1,0,0:0:0:0:
64,192,134129,1,0,0:0:0:0:
320,192,134208,1,0,0:0:0:0:
192,192,134287,1,0,0:0:0:0:
64,192,134287,1,0,0:0:0:0:
448,192,134366,1,0,0:0:0:0:
320,192,134445,1,0,0:0:0:0:
64,192,134445,1,0,0:0:0:0:
192,192,134524,1,0,0:0:0:0:
320,192,134603,1,0,0:0:0:0:
448,192,134603,1,0,0:0:0:0:
64,192,134682,1,0,0:0:0:0:
192,192,134761,1,0,0:0:0:0:
448,192,134761,1,0,0:0:0:0:
320,192,134840,1,0,0:0:0:0:
192,192,134919,1,0,0:0:0:0:
64,192,134919,1,0,0:0:0:0:
320,192,134998,1,0,0:0:0:0:
448,192,135077,1,0,0:0:0:0:
64,192,135077,1,0,0:0:0:0:
192,192,135156,1,0,0:0:0:0:
320,192,135235,1,0,0:0:0:0:
448,192,135235,1,0,0:0:0:0:
64,192,135314,1,0,0:0:0:0:
192,192,135393,1,0,0:0:0:0:
448,192,135393,1,0,0:0:0:0:
320,192,135472,1,0,0:0:0:0:
192,192,135551,1,0,0:0:0:0:
64,192,135551,1,0,0:0:0:0:
448,192,135629,1,0,0:0:0:0:
320,192,135708,1,0,0:0:0:0:
64,192,135708,1,0,0:0:0:0:
192,192,135787,1,0,0:0:0:0:
64,192,135866,1,0,0:0:0:0:
320,192,135866,1,0,0:0:0:0:
192,192,135945,1,0,0:0:0:0:
448,192,135945,1,0,0:0:0:0:
320,192,136024,1,0,0:0:0:0:
64,192,136024,1,0,0:0:0:0:
192,192,136103,1,0,0:0:0:0:
448,192,136103,1,0,0:0:0:0:
320,192,136182,1,0,0:0:0:0:
64,192,136182,1,0,0:0:0:0:
192,192,136261,1,0,0:0:0:0:
448,192,136261,1,0,0:0:0:0:
320,192,136340,1,0,0:0:0:0:
64,192,136340,1,0,0:0:0:0:
448,192,136419,1,0,0:0:0:0:
192,192,136498,1,0,0:0:0:0:
64,192,136498,1,0,0:0:0:0:
320,192,136577,1,0,0:0:0:0:
448,192,136656,1,0,0:0:0:0:
64,192,136656,1,0,0:0:0:0:
192,192,136735,1,0,0:0:0:0:
320,192,136814,1,0,0:0:0:0:
448,192,136814,1,0,0:0:0:0:
192,192,136893,1,0,0:0:0:0:
64,192,136972,1,0,0:0:0:0:
448,192,136972,1,0,0:0:0:0:
320,192,137051,5,0,0:0:0:0:
192,192,137129,1,0,0:0:0:0:
64,192,137129,1,0,0:0:0:0:
448,192,137129,1,0,0:0:0:0:
320,192,137208,1,0,0:0:0:0:
448,192,137287,1,0,0:0:0:0:
192,192,137287,1,0,0:0:0:0:
64,192,137366,1,0,0:0:0:0:
320,192,137445,1,0,0:0:0:0:
448,192,137445,1,0,0:0:0:0:
192,192,137524,1,0,0:0:0:0:
64,192,137603,1,0,0:0:0:0:
448,192,137603,1,0,0:0:0:0:
320,192,137682,1,0,0:0:0:0:
448,192,137761,1,0,0:0:0:0:
192,192,137761,1,0,0:0:0:0:
64,192,137840,1,0,0:0:0:0:
192,192,137919,1,0,0:0:0:0:
320,192,137919,1,0,0:0:0:0:
448,192,137998,1,0,0:0:0:0:
64,192,137998,1,0,0:0:0:0:
320,192,138077,1,0,0:0:0:0:
192,192,138077,1,0,0:0:0:0:
64,192,138156,1,0,0:0:0:0:
320,192,138235,5,0,0:0:0:0:
448,192,138235,1,0,0:0:0:0:
192,192,138314,1,0,0:0:0:0:
64,192,138314,1,0,0:0:0:0:
320,192,138393,1,0,0:0:0:0:
448,192,138393,1,0,0:0:0:0:
192,192,138472,1,0,0:0:0:0:
64,192,138472,1,0,0:0:0:0:
320,192,138551,1,0,0:0:0:0:
448,192,138551,1,0,0:0:0:0:
192,192,138629,1,0,0:0:0:0:
64,192,138629,1,0,0:0:0:0:
448,192,138708,1,0,0:0:0:0:
320,192,138708,1,0,0:0:0:0:
192,192,138787,1,0,0:0:0:0:
64,192,138787,1,0,0:0:0:0:
320,192,138866,1,0,0:0:0:0:
448,192,138866,1,0,0:0:0:0:
64,192,138945,1,0,0:0:0:0:
192,192,139024,1,0,0:0:0:0:
320,192,139103,1,0,0:0:0:0:
448,192,139103,1,0,0:0:0:0:
64,192,139103,1,0,0:0:0:0:
192,192,139182,1,0,0:0:0:0:
64,192,139261,1,0,0:0:0:0:
448,192,139261,1,0,0:0:0:0:
192,192,139340,1,0,0:0:0:0:
320,192,139340,1,0,0:0:0:0:
64,192,139419,1,0,0:0:0:0:
320,192,139498,1,0,0:0:0:0:
192,192,139498,1,0,0:0:0:0:
448,192,139498,1,0,0:0:0:0:
64,192,139577,1,0,0:0:0:0:
192,192,139656,1,0,0:0:0:0:
448,192,139656,1,0,0:0:0:0:
320,192,139735,1,0,0:0:0:0:
64,192,139814,1,0,0:0:0:0:
192,192,139814,1,0,0:0:0:0:
448,192,139814,1,0,0:0:0:0:
320,192,139893,1,0,0:0:0:0:
192,192,139972,1,0,0:0:0:0:
448,192,139972,1,0,0:0:0:0:
64,192,140051,1,0,0:0:0:0:
192,192,140129,1,0,0:0:0:0:
320,192,140129,1,0,0:0:0:0:
448,192,140129,1,0,0:0:0:0:
64,192,140208,1,0,0:0:0:0:
448,192,140287,1,0,0:0:0:0:
320,192,140287,1,0,0:0:0:0:
192,192,140366,1,0,0:0:0:0:
64,192,140445,1,0,0:0:0:0:
448,192,140445,1,0,0:0:0:0:
320,192,140524,1,0,0:0:0:0:
64,192,140603,1,0,0:0:0:0:
192,192,140603,1,0,0:0:0:0:
448,192,140603,1,0,0:0:0:0:
320,192,140682,1,0,0:0:0:0:
192,192,140761,1,0,0:0:0:0:
64,192,140761,1,0,0:0:0:0:
320,192,140840,1,0,0:0:0:0:
448,192,140919,1,0,0:0:0:0:
192,192,140919,1,0,0:0:0:0:
64,192,140919,1,0,0:0:0:0:
320,192,140998,1,0,0:0:0:0:
448,192,141077,1,0,0:0:0:0:
64,192,141077,1,0,0:0:0:0:
192,192,141156,1,0,0:0:0:0:
320,192,141235,1,0,0:0:0:0:
448,192,141235,1,0,0:0:0:0:
64,192,141235,1,0,0:0:0:0:
192,192,141314,1,0,0:0:0:0:
64,192,141393,1,0,0:0:0:0:
320,192,141393,1,0,0:0:0:0:
448,192,141472,1,0,0:0:0:0:
192,192,141551,1,0,0:0:0:0:
64,192,141551,1,0,0:0:0:0:
320,192,141551,1,0,0:0:0:0:
448,192,141629,1,0,0:0:0:0:
192,192,141708,1,0,0:0:0:0:
64,192,141708,1,0,0:0:0:0:
448,192,141787,1,0,0:0:0:0:
320,192,141866,1,0,0:0:0:0:
192,192,141866,1,0,0:0:0:0:
64,192,141866,1,0,0:0:0:0:
448,192,141945,1,0,0:0:0:0:
320,192,142024,1,0,0:0:0:0:
64,192,142024,1,0,0:0:0:0:
192,192,142103,1,0,0:0:0:0:
448,192,142103,1,0,0:0:0:0:
320,192,142182,1,0,0:0:0:0:
448,192,142261,1,0,0:0:0:0:
192,192,142261,1,0,0:0:0:0:
64,192,142261,1,0,0:0:0:0:
320,192,142340,1,0,0:0:0:0:
64,192,142419,1,0,0:0:0:0:
448,192,142419,1,0,0:0:0:0:
192,192,142498,1,0,0:0:0:0:
320,192,142577,1,0,0:0:0:0:
64,192,142577,1,0,0:0:0:0:
448,192,142656,1,0,0:0:0:0:
192,192,142656,1,0,0:0:0:0:
64,192,142735,1,0,0:0:0:0:
320,192,142814,1,0,0:0:0:0:
448,192,142814,1,0,0:0:0:0:
192,192,142814,1,0,0:0:0:0:
64,192,142893,1,0,0:0:0:0:
448,192,142972,1,0,0:0:0:0:
320,192,142972,1,0,0:0:0:0:
192,192,143051,1,0,0:0:0:0:
64,192,143129,1,0,0:0:0:0:
448,192,143129,1,0,0:0:0:0:
320,192,143208,1,0,0:0:0:0:
64,192,143287,1,0,0:0:0:0:
192,192,143287,1,0,0:0:0:0:
448,192,143287,1,0,0:0:0:0:
320,192,143366,1,0,0:0:0:0:
448,192,143445,1,0,0:0:0:0:
192,192,143445,1,0,0:0:0:0:
64,192,143524,1,0,0:0:0:0:
320,192,143524,1,0,0:0:0:0:
192,192,143603,1,0,0:0:0:0:
320,192,143682,1,0,0:0:0:0:
64,192,143682,1,0,0:0:0:0:
448,192,143682,1,0,0:0:0:0:
192,192,143761,1,0,0:0:0:0:
448,192,143840,1,0,0:0:0:0:
64,192,143919,1,0,0:0:0:0:
192,192,143919,1,0,0:0:0:0:
320,192,143919,1,0,0:0:0:0:
448,192,143998,1,0,0:0:0:0:
320,192,144077,1,0,0:0:0:0:
64,192,144077,1,0,0:0:0:0:
448,192,144156,1,0,0:0:0:0:
192,192,144156,1,0,0:0:0:0:
64,192,144235,1,0,0:0:0:0:
320,192,144314,1,0,0:0:0:0:
448,192,144314,1,0,0:0:0:0:
192,192,144314,1,0,0:0:0:0:
64,192,144393,1,0,0:0:0:0:
320,192,144472,1,0,0:0:0:0:
448,192,144472,1,0,0:0:0:0:
64,192,144551,1,0,0:0:0:0:
192,192,144551,1,0,0:0:0:0:
320,192,144629,1,0,0:0:0:0:
448,192,144629,1,0,0:0:0:0:
192,192,144708,1,0,0:0:0:0:
64,192,144787,1,0,0:0:0:0:
320,192,144787,1,0,0:0:0:0:
448,192,144787,1,0,0:0:0:0:
192,192,144866,1,0,0:0:0:0:
64,192,144945,1,0,0:0:0:0:
320,192,144945,1,0,0:0:0:0:
448,192,145024,1,0,0:0:0:0:
192,192,145024,1,0,0:0:0:0:
64,192,145103,1,0,0:0:0:0:
320,192,145103,1,0,0:0:0:0:
192,192,145182,1,0,0:0:0:0:
64,192,145261,1,0,0:0:0:0:
320,192,145261,1,0,0:0:0:0:
448,192,145261,1,0,0:0:0:0:
192,192,145340,1,0,0:0:0:0:
320,192,145419,1,0,0:0:0:0:
448,192,145419,1,0,0:0:0:0:
64,192,145498,1,0,0:0:0:0:
192,192,145577,1,0,0:0:0:0:
448,192,145577,1,0,0:0:0:0:
320,192,145656,1,0,0:0:0:0:
64,192,145735,1,0,0:0:0:0:
192,192,145735,1,0,0:0:0:0:
448,192,145814,1,0,0:0:0:0:
320,192,145893,1,0,0:0:0:0:
64,192,145893,1,0,0:0:0:0:
192,192,145972,1,0,0:0:0:0:
320,192,146051,1,0,0:0:0:0:
448,192,146051,1,0,0:0:0:0:
64,192,146129,1,0,0:0:0:0:
192,192,146208,1,0,0:0:0:0:
448,192,146208,1,0,0:0:0:0:
320,192,146287,1,0,0:0:0:0:
64,192,146287,1,0,0:0:0:0:
448,192,146366,1,0,0:0:0:0:
192,192,146366,1,0,0:0:0:0:
320,192,146445,1,0,0:0:0:0:
64,192,146445,1,0,0:0:0:0:
448,192,146524,1,0,0:0:0:0:
320,192,146603,1,0,0:0:0:0:
192,192,146603,1,0,0:0:0:0:
64,192,146682,1,0,0:0:0:0:
448,192,146761,1,0,0:0:0:0:
320,192,146761,1,0,0:0:0:0:
192,192,146840,1,0,0:0:0:0:
64,192,146919,1,0,0:0:0:0:
448,192,146919,1,0,0:0:0:0:
320,192,146998,1,0,0:0:0:0:
192,192,147077,1,0,0:0:0:0:
64,192,147077,1,0,0:0:0:0:
448,192,147077,1,0,0:0:0:0:
320,192,147156,1,0,0:0:0:0:
448,192,147235,1,0,0:0:0:0:
64,192,147235,1,0,0:0:0:0:
192,192,147314,1,0,0:0:0:0:
320,192,147393,1,0,0:0:0:0:
448,192,147393,1,0,0:0:0:0:
192,192,147472,1,0,0:0:0:0:
64,192,147551,1,0,0:0:0:0:
320,192,147551,1,0,0:0:0:0:
448,192,147629,1,0,0:0:0:0:
192,192,147629,1,0,0:0:0:0:
320,192,147708,1,0,0:0:0:0:
192,192,147787,1,0,0:0:0:0:
448,192,147787,1,0,0:0:0:0:
64,192,147866,1,0,0:0:0:0:
320,192,147866,1,0,0:0:0:0:
448,192,147945,1,0,0:0:0:0:
192,192,148024,5,0,0:0:0:0:
64,192,148024,1,0,0:0:0:0:
320,192,148103,1,0,0:0:0:0:
448,192,148103,1,0,0:0:0:0:
192,192,148182,1,0,0:0:0:0:
64,192,148182,1,0,0:0:0:0:
320,192,148261,1,0,0:0:0:0:
448,192,148261,1,0,0:0:0:0:
192,192,148340,1,0,0:0:0:0:
64,192,148340,1,0,0:0:0:0:
320,192,148419,1,0,0:0:0:0:
448,192,148419,1,0,0:0:0:0:
192,192,148498,5,0,0:0:0:0:
64,192,148498,1,0,0:0:0:0:
320,192,148577,1,0,0:0:0:0:
448,192,148577,1,0,0:0:0:0:
192,192,148656,1,0,0:0:0:0:
64,192,148656,1,0,0:0:0:0:
320,192,148735,1,0,0:0:0:0:
448,192,148735,1,0,0:0:0:0:
192,192,148814,1,0,0:0:0:0:
64,192,148814,1,0,0:0:0:0:
320,192,148893,1,0,0:0:0:0:
448,192,148893,1,0,0:0:0:0:
64,192,149051,5,0,0:0:0:0:
192,192,149051,1,0,0:0:0:0:
320,192,149051,1,0,0:0:0:0:
448,192,149051,1,0,0:0:0:0:
64,192,149208,128,0,149366:0:0:0:0:
192,192,149208,1,0,0:0:0:0:
320,192,149287,1,0,0:0:0:0:
448,192,149366,1,0,0:0:0:0:
192,192,149366,128,0,149524:0:0:0:0:
64,192,149524,1,0,0:0:0:0:
320,192,149524,128,0,149682:0:0:0:0:
192,192,149682,1,0,0:0:0:0:
448,192,149682,128,0,149840:0:0:0:0:
64,192,149682,1,0,0:0:0:0:
320,192,149840,1,0,0:0:0:0:
192,192,149840,1,0,0:0:0:0:
64,192,149840,128,0,149998:0:0:0:0:
320,192,149998,128,0,150314:0:0:0:0:
448,192,149998,1,0,0:0:0:0:
192,192,149998,1,0,0:0:0:0:
64,192,150314,1,0,0:0:0:0:
448,192,150314,1,0,0:0:0:0:
192,192,150393,1,0,0:0:0:0:
448,192,150472,1,0,0:0:0:0:
64,192,150472,1,0,0:0:0:0:
320,192,150551,1,0,0:0:0:0:
192,192,150629,1,0,0:0:0:0:
64,192,150629,1,0,0:0:0:0:
448,192,150708,1,0,0:0:0:0:
320,192,150787,1,0,0:0:0:0:
64,192,150787,1,0,0:0:0:0:
192,192,150866,1,0,0:0:0:0:
64,192,150945,1,0,0:0:0:0:
448,192,150945,1,0,0:0:0:0:
320,192,150945,1,0,0:0:0:0:
192,192,151024,1,0,0:0:0:0:
320,192,151103,1,0,0:0:0:0:
64,192,151103,1,0,0:0:0:0:
448,192,151182,1,0,0:0:0:0:
64,192,151261,1,0,0:0:0:0:
192,192,151261,1,0,0:0:0:0:
320,192,151340,1,0,0:0:0:0:
448,192,151419,1,0,0:0:0:0:
64,192,151419,1,0,0:0:0:0:
192,192,151498,1,0,0:0:0:0:
448,192,151577,1,0,0:0:0:0:
64,192,151577,1,0,0:0:0:0:
320,192,151577,1,0,0:0:0:0:
192,192,151656,1,0,0:0:0:0:
320,192,151735,1,0,0:0:0:0:
64,192,151735,1,0,0:0:0:0:
448,192,151814,1,0,0:0:0:0:
192,192,151893,1,0,0:0:0:0:
320,192,151893,1,0,0:0:0:0:
64,192,151893,1,0,0:0:0:0:
448,192,151972,1,0,0:0:0:0:
192,192,152051,1,0,0:0:0:0:
320,192,152051,1,0,0:0:0:0:
64,192,152129,1,0,0:0:0:0:
448,192,152208,1,0,0:0:0:0:
320,192,152208,1,0,0:0:0:0:
192,192,152287,1,0,0:0:0:0:
64,192,152366,1,0,0:0:0:0:
320,192,152366,1,0,0:0:0:0:
448,192,152366,1,0,0:0:0:0:
192,192,152445,1,0,0:0:0:0:
64,192,152524,1,0,0:0:0:0:
448,192,152603,1,0,0:0:0:0:
320,192,152603,1,0,0:0:0:0:
192,192,152603,1,0,0:0:0:0:
64,192,152682,1,0,0:0:0:0:
192,192,152761,1,0,0:0:0:0:
320,192,152840,1,0,0:0:0:0:
64,192,152840,1,0,0:0:0:0:
448,192,152840,1,0,0:0:0:0:
192,192,152919,1,0,0:0:0:0:
448,192,152998,1,0,0:0:0:0:
320,192,152998,1,0,0:0:0:0:
64,192,153077,1,0,0:0:0:0:
320,192,153156,1,0,0:0:0:0:
192,192,153156,1,0,0:0:0:0:
448,192,153235,1,0,0:0:0:0:
64,192,153314,1,0,0:0:0:0:
192,192,153314,1,0,0:0:0:0:
320,192,153393,1,0,0:0:0:0:
64,192,153472,1,0,0:0:0:0:
448,192,153472,1,0,0:0:0:0:
192,192,153551,1,0,0:0:0:0:
320,192,153629,1,0,0:0:0:0:
64,192,153629,1,0,0:0:0:0:
448,192,153629,1,0,0:0:0:0:
192,192,153708,1,0,0:0:0:0:
320,192,153787,1,0,0:0:0:0:
448,192,153787,1,0,0:0:0:0:
192,192,153866,1,0,0:0:0:0:
320,192,153945,1,0,0:0:0:0:
448,192,153945,1,0,0:0:0:0:
64,192,153945,1,0,0:0:0:0:
192,192,154024,1,0,0:0:0:0:
320,192,154103,1,0,0:0:0:0:
64,192,154103,1,0,0:0:0:0:
448,192,154182,1,0,0:0:0:0:
192,192,154261,1,0,0:0:0:0:
64,192,154261,1,0,0:0:0:0:
320,192,154261,1,0,0:0:0:0:
448,192,154340,1,0,0:0:0:0:
192,192,154419,1,0,0:0:0:0:
320,192,154419,1,0,0:0:0:0:
64,192,154498,1,0,0:0:0:0:
320,192,154577,1,0,0:0:0:0:
448,192,154577,1,0,0:0:0:0:
192,192,154656,1,0,0:0:0:0:
64,192,154735,1,0,0:0:0:0:
448,192,154735,1,0,0:0:0:0:
320,192,154735,1,0,0:0:0:0:
192,192,154814,1,0,0:0:0:0:
64,192,154893,1,0,0:0:0:0:
320,192,154893,1,0,0:0:0:0:
448,192,154972,1,0,0:0:0:0:
64,192,155051,1,0,0:0:0:0:
192,192,155051,1,0,0:0:0:0:
320,192,155129,1,0,0:0:0:0:
64,192,155208,1,0,0:0:0:0:
192,192,155208,1,0,0:0:0:0:
448,192,155208,1,0,0:0:0:0:
320,192,155287,1,0,0:0:0:0:
448,192,155366,1,0,0:0:0:0:
192,192,155366,1,0,0:0:0:0:
64,192,155445,1,0,0:0:0:0:
448,192,155524,1,0,0:0:0:0:
192,192,155524,1,0,0:0:0:0:
320,192,155524,1,0,0:0:0:0:
64,192,155603,1,0,0:0:0:0:
192,192,155682,1,0,0:0:0:0:
320,192,155682,1,0,0:0:0:0:
448,192,155761,1,0,0:0:0:0:
320,192,155840,1,0,0:0:0:0:
64,192,155840,1,0,0:0:0:0:
192,192,155840,1,0,0:0:0:0:
448,192,155919,1,0,0:0:0:0:
320,192,155998,1,0,0:0:0:0:
64,192,155998,1,0,0:0:0:0:
192,192,155998,1,0,0:0:0:0:
448,192,156077,1,0,0:0:0:0:
64,192,156156,1,0,0:0:0:0:
320,192,156156,1,0,0:0:0:0:
192,192,156235,1,0,0:0:0:0:
64,192,156314,1,0,0:0:0:0:
448,192,156314,1,0,0:0:0:0:
320,192,156314,1,0,0:0:0:0:
192,192,156393,1,0,0:0:0:0:
64,192,156472,1,0,0:0:0:0:
320,192,156472,1,0,0:0:0:0:
448,192,156551,1,0,0:0:0:0:
64,192,156629,1,0,0:0:0:0:
192,192,156629,1,0,0:0:0:0:
320,192,156629,1,0,0:0:0:0:
448,192,156708,1,0,0:0:0:0:
192,192,156787,1,0,0:0:0:0:
64,192,156787,1,0,0:0:0:0:
320,192,156866,1,0,0:0:0:0:
64,192,156945,1,0,0:0:0:0:
448,192,156945,1,0,0:0:0:0:
192,192,157024,1,0,0:0:0:0:
320,192,157103,1,0,0:0:0:0:
64,192,157103,1,0,0:0:0:0:
448,192,157103,1,0,0:0:0:0:
192,192,157182,1,0,0:0:0:0:
64,192,157261,1,0,0:0:0:0:
448,192,157261,1,0,0:0:0:0:
320,192,157340,1,0,0:0:0:0:
448,192,157419,1,0,0:0:0:0:
192,192,157419,1,0,0:0:0:0:
64,192,157419,1,0,0:0:0:0:
320,192,157498,1,0,0:0:0:0:
192,192,157577,1,0,0:0:0:0:
448,192,157577,1,0,0:0:0:0:
64,192,157656,1,0,0:0:0:0:
320,192,157735,1,0,0:0:0:0:
448,192,157735,1,0,0:0:0:0:
192,192,157814,1,0,0:0:0:0:
64,192,157893,1,0,0:0:0:0:
448,192,157893,1,0,0:0:0:0:
320,192,157972,1,0,0:0:0:0:
64,192,158051,1,0,0:0:0:0:
448,192,158051,1,0,0:0:0:0:
192,192,158051,1,0,0:0:0:0:
320,192,158129,1,0,0:0:0:0:
192,192,158208,1,0,0:0:0:0:
64,192,158208,1,0,0:0:0:0:
448,192,158208,1,0,0:0:0:0:
320,192,158287,5,0,0:0:0:0:
64,192,158366,1,0,0:0:0:0:
448,192,158366,1,0,0:0:0:0:
192,192,158445,1,0,0:0:0:0:
320,192,158445,1,0,0:0:0:0:
64,192,158524,1,0,0:0:0:0:
448,192,158524,1,0,0:0:0:0:
192,192,158603,1,0,0:0:0:0:
64,192,158682,1,0,0:0:0:0:
320,192,158682,1,0,0:0:0:0:
448,192,158761,1,0,0:0:0:0:
64,192,158840,1,0,0:0:0:0:
192,192,158840,1,0,0:0:0:0:
320,192,158840,1,0,0:0:0:0:
448,192,158919,1,0,0:0:0:0:
192,192,158998,1,0,0:0:0:0:
64,192,158998,1,0,0:0:0:0:
320,192,159077,1,0,0:0:0:0:
448,192,159156,1,0,0:0:0:0:
192,192,159156,1,0,0:0:0:0:
64,192,159235,1,0,0:0:0:0:
320,192,159235,1,0,0:0:0:0:
192,192,159314,1,0,0:0:0:0:
448,192,159314,1,0,0:0:0:0:
64,192,159393,1,0,0:0:0:0:
320,192,159472,5,0,0:0:0:0:
448,192,159472,1,0,0:0:0:0:
192,192,159551,1,0,0:0:0:0:
64,192,159551,1,0,0:0:0:0:
320,192,159629,1,0,0:0:0:0:
448,192,159629,1,0,0:0:0:0:
192,192,159708,1,0,0:0:0:0:
64,192,159708,1,0,0:0:0:0:
320,192,159787,1,0,0:0:0:0:
448,192,159787,1,0,0:0:0:0:
64,192,159866,1,0,0:0:0:0:
192,192,159866,1,0,0:0:0:0:
320,192,159945,1,0,0:0:0:0:
448,192,159945,1,0,0:0:0:0:
192,192,160024,1,0,0:0:0:0:
64,192,160024,1,0,0:0:0:0:
320,192,160103,1,0,0:0:0:0:
448,192,160103,1,0,0:0:0:0:
192,192,160182,1,0,0:0:0:0:
64,192,160182,1,0,0:0:0:0:
320,192,160261,1,0,0:0:0:0:
448,192,160261,1,0,0:0:0:0:
192,192,160340,1,0,0:0:0:0:
64,192,160340,1,0,0:0:0:0:
320,192,160419,1,0,0:0:0:0:
448,192,160419,1,0,0:0:0:0:
64,192,160498,1,0,0:0:0:0:
448,192,160577,5,0,0:0:0:0:
192,192,160577,1,0,0:0:0:0:
320,192,160656,1,0,0:0:0:0:
64,192,160656,1,0,0:0:0:0:
192,192,160735,1,0,0:0:0:0:
320,192,160814,1,0,0:0:0:0:
448,192,160814,1,0,0:0:0:0:
192,192,160893,1,0,0:0:0:0:
64,192,160893,1,0,0:0:0:0:
320,192,160972,1,0,0:0:0:0:
192,192,161051,1,0,0:0:0:0:
448,192,161051,1,0,0:0:0:0:
64,192,161129,1,0,0:0:0:0:
320,192,161129,1,0,0:0:0:0:
192,192,161208,1,0,0:0:0:0:
64,192,161287,1,0,0:0:0:0:
320,192,161287,1,0,0:0:0:0:
448,192,161287,1,0,0:0:0:0:
192,192,161366,1,0,0:0:0:0:
64,192,161445,1,0,0:0:0:0:
320,192,161445,1,0,0:0:0:0:
448,192,161524,1,0,0:0:0:0:
192,192,161524,1,0,0:0:0:0:
320,192,161603,1,0,0:0:0:0:
192,192,161682,1,0,0:0:0:0:
64,192,161682,1,0,0:0:0:0:
320,192,161761,1,0,0:0:0:0:
64,192,161840,1,0,0:0:0:0:
192,192,161840,1,0,0:0:0:0:
448,192,161840,1,0,0:0:0:0:
320,192,161919,1,0,0:0:0:0:
64,192,161998,1,0,0:0:0:0:
448,192,161998,1,0,0:0:0:0:
192,192,162077,1,0,0:0:0:0:
64,192,162156,1,0,0:0:0:0:
448,192,162156,1,0,0:0:0:0:
320,192,162156,1,0,0:0:0:0:
192,192,162235,1,0,0:0:0:0:
64,192,162314,1,0,0:0:0:0:
320,192,162314,1,0,0:0:0:0:
448,192,162393,1,0,0:0:0:0:
192,192,162472,1,0,0:0:0:0:
320,192,162472,1,0,0:0:0:0:
64,192,162472,1,0,0:0:0:0:
448,192,162551,1,0,0:0:0:0:
64,192,162629,1,0,0:0:0:0:
192,192,162629,1,0,0:0:0:0:
320,192,162708,1,0,0:0:0:0:
192,192,162787,1,0,0:0:0:0:
448,192,162787,1,0,0:0:0:0:
64,192,162866,1,0,0:0:0:0:
192,192,162945,1,0,0:0:0:0:
320,192,162945,1,0,0:0:0:0:
448,192,163024,1,0,0:0:0:0:
320,192,163103,1,0,0:0:0:0:
192,192,163103,1,0,0:0:0:0:
64,192,163103,1,0,0:0:0:0:
448,192,163182,1,0,0:0:0:0:
320,192,163261,1,0,0:0:0:0:
64,192,163261,1,0,0:0:0:0:
192,192,163261,1,0,0:0:0:0:
448,192,163340,1,0,0:0:0:0:
192,192,163419,1,0,0:0:0:0:
64,192,163419,1,0,0:0:0:0:
320,192,163419,1,0,0:0:0:0:
448,192,163498,1,0,0:0:0:0:
320,192,163577,1,0,0:0:0:0:
64,192,163577,1,0,0:0:0:0:
192,192,163656,1,0,0:0:0:0:
448,192,163656,1,0,0:0:0:0:
320,192,163735,1,0,0:0:0:0:
64,192,163814,1,0,0:0:0:0:
192,192,163814,1,0,0:0:0:0:
448,192,163814,1,0,0:0:0:0:
320,192,163893,1,0,0:0:0:0:
64,192,163972,1,0,0:0:0:0:
448,192,163972,1,0,0:0:0:0:
192,192,164051,1,0,0:0:0:0:
320,192,164051,1,0,0:0:0:0:
448,192,164129,1,0,0:0:0:0:
64,192,164129,1,0,0:0:0:0:
192,192,164208,1,0,0:0:0:0:
320,192,164208,1,0,0:0:0:0:
64,192,164287,1,0,0:0:0:0:
448,192,164366,1,0,0:0:0:0:
192,192,164366,1,0,0:0:0:0:
320,192,164445,1,0,0:0:0:0:
64,192,164445,1,0,0:0:0:0:
448,192,164524,1,0,0:0:0:0:
320,192,164603,1,0,0:0:0:0:
192,192,164603,1,0,0:0:0:0:
448,192,164682,1,0,0:0:0:0:
64,192,164682,1,0,0:0:0:0:
320,192,164761,1,0,0:0:0:0:
192,192,164840,1,0,0:0:0:0:
448,192,164840,1,0,0:0:0:0:
320,192,164919,1,0,0:0:0:0:
64,192,164919,1,0,0:0:0:0:
192,192,164998,1,0,0:0:0:0:
448,192,164998,1,0,0:0:0:0:
320,192,165077,1,0,0:0:0:0:
64,192,165077,1,0,0:0:0:0:
192,192,165156,1,0,0:0:0:0:
448,192,165235,1,0,0:0:0:0:
64,192,165235,1,0,0:0:0:0:
320,192,165235,1,0,0:0:0:0:
192,192,165314,1,0,0:0:0:0:
320,192,165393,1,0,0:0:0:0:
448,192,165393,1,0,0:0:0:0:
64,192,165472,1,0,0:0:0:0:
192,192,165472,1,0,0:0:0:0:
448,192,165551,1,0,0:0:0:0:
320,192,165629,1,0,0:0:0:0:
64,192,165629,1,0,0:0:0:0:
192,192,165629,1,0,0:0:0:0:
448,192,165708,1,0,0:0:0:0:
64,192,165787,1,0,0:0:0:0:
320,192,165787,1,0,0:0:0:0:
192,192,165866,1,0,0:0:0:0:
448,192,165866,1,0,0:0:0:0:
320,192,165945,1,0,0:0:0:0:
448,192,166024,1,0,0:0:0:0:
64,192,166024,1,0,0:0:0:0:
192,192,166024,1,0,0:0:0:0:
320,192,166103,1,0,0:0:0:0:
448,192,166182,1,0,0:0:0:0:
64,192,166182,1,0,0:0:0:0:
192,192,166261,1,0,0:0:0:0:
64,192,166340,1,0,0:0:0:0:
448,192,166340,1,0,0:0:0:0:
320,192,166340,1,0,0:0:0:0:
192,192,166419,1,0,0:0:0:0:
320,192,166498,1,0,0:0:0:0:
64,192,166498,1,0,0:0:0:0:
448,192,166577,1,0,0:0:0:0:
192,192,166656,1,0,0:0:0:0:
320,192,166656,1,0,0:0:0:0:
448,192,166735,1,0,0:0:0:0:
64,192,166735,1,0,0:0:0:0:
320,192,166814,1,0,0:0:0:0:
448,192,166893,1,0,0:0:0:0:
192,192,166893,1,0,0:0:0:0:
64,192,166893,1,0,0:0:0:0:
320,192,166972,1,0,0:0:0:0:
192,192,167051,1,0,0:0:0:0:
448,192,167051,1,0,0:0:0:0:
64,192,167129,1,0,0:0:0:0:
320,192,167208,1,0,0:0:0:0:
192,192,167208,1,0,0:0:0:0:
448,192,167208,1,0,0:0:0:0:
64,192,167287,1,0,0:0:0:0:
448,192,167366,1,0,0:0:0:0:
192,192,167366,1,0,0:0:0:0:
320,192,167445,1,0,0:0:0:0:
448,192,167524,1,0,0:0:0:0:
192,192,167524,1,0,0:0:0:0:
64,192,167524,1,0,0:0:0:0:
320,192,167603,1,0,0:0:0:0:
64,192,167682,1,0,0:0:0:0:
448,192,167682,1,0,0:0:0:0:
192,192,167761,1,0,0:0:0:0:
320,192,167840,1,0,0:0:0:0:
64,192,167840,1,0,0:0:0:0:
448,192,167840,1,0,0:0:0:0:
192,192,167919,1,0,0:0:0:0:
320,192,167998,1,0,0:0:0:0:
448,192,167998,1,0,0:0:0:0:
192,192,168077,1,0,0:0:0:0:
320,192,168156,5,0,0:0:0:0:
64,192,168156,1,0,0:0:0:0:
448,192,168156,1,0,0:0:0:0:
192,192,168235,1,0,0:0:0:0:
64,192,168314,1,0,0:0:0:0:
448,192,168314,1,0,0:0:0:0:
320,192,168393,1,0,0:0:0:0:
192,192,168393,1,0,0:0:0:0:
448,192,168472,1,0,0:0:0:0:
64,192,168551,1,0,0:0:0:0:
192,192,168551,1,0,0:0:0:0:
448,192,168629,1,0,0:0:0:0:
320,192,168629,1,0,0:0:0:0:
192,192,168708,1,0,0:0:0:0:
64,192,168787,1,0,0:0:0:0:
448,192,168787,1,0,0:0:0:0:
320,192,168866,1,0,0:0:0:0:
192,192,168945,1,0,0:0:0:0:
64,192,168945,1,0,0:0:0:0:
448,192,168945,1,0,0:0:0:0:
320,192,169024,1,0,0:0:0:0:
448,192,169103,1,0,0:0:0:0:
192,192,169103,1,0,0:0:0:0:
64,192,169182,1,0,0:0:0:0:
320,192,169182,1,0,0:0:0:0:
448,192,169261,1,0,0:0:0:0:
192,192,169340,5,0,0:0:0:0:
64,192,169340,1,0,0:0:0:0:
320,192,169419,5,0,0:0:0:0:
448,192,169419,1,0,0:0:0:0:
64,192,169498,5,0,0:0:0:0:
192,192,169498,1,0,0:0:0:0:
320,192,169577,5,0,0:0:0:0:
448,192,169577,1,0,0:0:0:0:
192,192,169656,1,0,0:0:0:0:
64,192,169656,1,0,0:0:0:0:
320,192,169735,1,0,0:0:0:0:
448,192,169735,1,0,0:0:0:0:
192,192,169814,1,0,0:0:0:0:
64,192,169814,1,0,0:0:0:0:
448,192,169893,5,0,0:0:0:0:
320,192,169932,1,0,0:0:0:0:
192,192,169972,1,0,0:0:0:0:
64,192,170011,1,0,0:0:0:0:
448,192,170051,1,0,0:0:0:0:
320,192,170090,1,0,0:0:0:0:
192,192,170129,1,0,0:0:0:0:
64,192,170169,1,0,0:0:0:0:
448,192,170208,1,0,0:0:0:0:
320,192,170248,1,0,0:0:0:0:
192,192,170287,1,0,0:0:0:0:
64,192,170327,1,0,0:0:0:0:
448,192,170366,1,0,0:0:0:0:
320,192,170406,1,0,0:0:0:0:
192,192,170445,1,0,0:0:0:0:
64,192,170485,1,0,0:0:0:0:
320,192,170603,128,0,170919:0:0:0:0:
448,192,170603,1,0,0:0:0:0:
192,192,170919,128,0,171235:0:0:0:0:
448,192,170919,128,0,171551:0:0:0:0:
64,192,170919,1,0,0:0:0:0:
64,192,171235,128,0,171551:0:0:0:0:
320,192,171235,1,0,0:0:0:0:
320,192,171551,128,0,172182:0:0:0:0:
192,192,171551,1,0,0:0:0:0:
192,192,171866,128,0,172182:0:0:0:0:
64,192,171866,1,0,0:0:0:0:
448,192,171866,1,0,0:0:0:0:
64,192,172024,1,0,0:0:0:0:
448,192,172024,1,0,0:0:0:0:
448,192,172182,128,0,172498:0:0:0:0:
64,192,172182,128,0,172814:0:0:0:0:
320,192,172340,1,0,0:0:0:0:
320,192,172498,128,0,172814:0:0:0:0:
192,192,172498,1,0,0:0:0:0:
192,192,172656,1,0,0:0:0:0:
448,192,172656,1,0,0:0:0:0:
192,192,172814,128,0,173445:0:0:0:0:
448,192,172814,128,0,173129:0:0:0:0:
64,192,172972,1,0,0:0:0:0:
64,192,173129,128,0,173445:0:0:0:0:
320,192,173129,1,0,0:0:0:0:
320,192,173287,1,0,0:0:0:0:
320,192,173445,1,0,0:0:0:0:
448,192,173445,1,0,0:0:0:0:
64,192,173603,1,0,0:0:0:0:
192,192,173603,1,0,0:0:0:0:
320,192,173603,1,0,0:0:0:0:
448,192,173603,1,0,0:0:0:0:
320,192,173761,1,0,0:0:0:0:
192,192,173761,1,0,0:0:0:0:
448,192,173761,1,0,0:0:0:0:
448,192,173919,1,0,0:0:0:0:
320,192,173919,1,0,0:0:0:0:
64,192,173919,1,0,0:0:0:0:
192,192,174077,1,0,0:0:0:0:
64,192,174077,1,0,0:0:0:0:
320,192,174077,1,0,0:0:0:0:
192,192,174235,1,0,0:0:0:0:
64,192,174235,1,0,0:0:0:0:
448,192,174235,1,0,0:0:0:0:
320,192,174393,1,0,0:0:0:0:
448,192,174393,1,0,0:0:0:0:
192,192,174472,1,0,0:0:0:0:
64,192,174472,1,0,0:0:0:0:
320,192,174551,1,0,0:0:0:0:
448,192,174551,1,0,0:0:0:0:
192,192,174629,1,0,0:0:0:0:
64,192,174629,1,0,0:0:0:0:
320,192,174708,1,0,0:0:0:0:
448,192,174708,1,0,0:0:0:0:
192,192,174787,1,0,0:0:0:0:
64,192,174787,1,0,0:0:0:0:
320,192,174866,1,0,0:0:0:0:
448,192,174866,1,0,0:0:0:0:
64,192,175024,1,0,0:0:0:0:
192,192,175024,1,0,0:0:0:0:
320,192,175024,1,0,0:0:0:0:
448,192,175024,1,0,0:0:0:0:
192,192,175261,128,0,175577:0:0:0:0:
320,192,175261,128,0,175577:0:0:0:0:
64,192,175419,128,0,175577:0:0:0:0:
448,192,175419,128,0,175577:0:0:0:0:
64,192,175656,1,0,0:0:0:0:
320,192,175735,1,0,0:0:0:0:
448,192,175735,1,0,0:0:0:0:
192,192,175814,1,0,0:0:0:0:
64,192,175814,1,0,0:0:0:0:
320,192,175893,1,0,0:0:0:0:
448,192,175893,1,0,0:0:0:0:
64,192,175972,1,0,0:0:0:0:
192,192,176051,1,0,0:0:0:0:
320,192,176051,1,0,0:0:0:0:
64,192,176129,1,0,0:0:0:0:
448,192,176129,1,0,0:0:0:0:
192,192,176208,1,0,0:0:0:0:
64,192,176287,1,0,0:0:0:0:
320,192,176287,1,0,0:0:0:0:
448,192,176366,1,0,0:0:0:0:
64,192,176445,1,0,0:0:0:0:
192,192,176445,1,0,0:0:0:0:
320,192,176524,1,0,0:0:0:0:
448,192,176603,1,0,0:0:0:0:
64,192,176603,1,0,0:0:0:0:
192,192,176682,1,0,0:0:0:0:
320,192,176761,1,0,0:0:0:0:
64,192,176761,1,0,0:0:0:0:
448,192,176761,1,0,0:0:0:0:
192,192,176840,1,0,0:0:0:0:
448,192,176919,1,0,0:0:0:0:
64,192,176919,1,0,0:0:0:0:
320,192,176998,1,0,0:0:0:0:
192,192,176998,1,0,0:0:0:0:
64,192,177077,1,0,0:0:0:0:
448,192,177077,1,0,0:0:0:0:
192,192,177156,1,0,0:0:0:0:
320,192,177235,1,0,0:0:0:0:
64,192,177235,1,0,0:0:0:0:
192,192,177314,1,0,0:0:0:0:
448,192,177314,1,0,0:0:0:0:
320,192,177393,1,0,0:0:0:0:
64,192,177393,1,0,0:0:0:0:
448,192,177472,1,0,0:0:0:0:
64,192,177551,1,0,0:0:0:0:
320,192,177551,1,0,0:0:0:0:
192,192,177551,1,0,0:0:0:0:
448,192,177629,1,0,0:0:0:0:
64,192,177708,1,0,0:0:0:0:
192,192,177708,1,0,0:0:0:0:
320,192,177787,1,0,0:0:0:0:
64,192,177866,1,0,0:0:0:0:
448,192,177866,1,0,0:0:0:0:
192,192,177945,1,0,0:0:0:0:
448,192,178024,1,0,0:0:0:0:
320,192,178024,1,0,0:0:0:0:
192,192,178103,1,0,0:0:0:0:
64,192,178182,1,0,0:0:0:0:
448,192,178182,1,0,0:0:0:0:
320,192,178261,1,0,0:0:0:0:
192,192,178340,1,0,0:0:0:0:
64,192,178340,1,0,0:0:0:0:
320,192,178419,1,0,0:0:0:0:
448,192,178498,1,0,0:0:0:0:
64,192,178498,1,0,0:0:0:0:
192,192,178577,1,0,0:0:0:0:
320,192,178656,1,0,0:0:0:0:
64,192,178656,1,0,0:0:0:0:
448,192,178735,1,0,0:0:0:0:
320,192,178814,1,0,0:0:0:0:
64,192,178814,1,0,0:0:0:0:
448,192,178893,1,0,0:0:0:0:
192,192,178893,1,0,0:0:0:0:
320,192,178972,1,0,0:0:0:0:
192,192,179051,1,0,0:0:0:0:
64,192,179051,1,0,0:0:0:0:
448,192,179129,1,0,0:0:0:0:
320,192,179208,1,0,0:0:0:0:
64,192,179208,1,0,0:0:0:0:
192,192,179287,1,0,0:0:0:0:
448,192,179366,1,0,0:0:0:0:
320,192,179366,1,0,0:0:0:0:
64,192,179445,1,0,0:0:0:0:
320,192,179524,1,0,0:0:0:0:
192,192,179524,1,0,0:0:0:0:
448,192,179603,1,0,0:0:0:0:
320,192,179682,1,0,0:0:0:0:
64,192,179682,1,0,0:0:0:0:
192,192,179761,1,0,0:0:0:0:
448,192,179840,1,0,0:0:0:0:
320,192,179840,1,0,0:0:0:0:
64,192,179919,1,0,0:0:0:0:
192,192,179919,1,0,0:0:0:0:
448,192,179998,1,0,0:0:0:0:
320,192,179998,1,0,0:0:0:0:
64,192,180077,1,0,0:0:0:0:
192,192,180077,1,0,0:0:0:0:
320,192,180156,1,0,0:0:0:0:
448,192,180156,1,0,0:0:0:0:
192,192,180235,1,0,0:0:0:0:
64,192,180235,1,0,0:0:0:0:
320,192,180314,1,0,0:0:0:0:
448,192,180314,1,0,0:0:0:0:
64,192,180393,1,0,0:0:0:0:
192,192,180393,1,0,0:0:0:0:
448,192,180472,1,0,0:0:0:0:
320,192,180551,1,0,0:0:0:0:
192,192,180551,1,0,0:0:0:0:
64,192,180629,1,0,0:0:0:0:
320,192,180708,1,0,0:0:0:0:
448,192,180708,1,0,0:0:0:0:
192,192,180787,1,0,0:0:0:0:
64,192,180787,1,0,0:0:0:0:
320,192,180866,1,0,0:0:0:0:
448,192,180945,1,0,0:0:0:0:
64,192,180945,1,0,0:0:0:0:
320,192,181024,1,0,0:0:0:0:
192,192,181024,1,0,0:0:0:0:
448,192,181103,1,0,0:0:0:0:
64,192,181103,1,0,0:0:0:0:
192,192,181182,1,0,0:0:0:0:
448,192,181261,1,0,0:0:0:0:
320,192,181261,1,0,0:0:0:0:
192,192,181340,1,0,0:0:0:0:
448,192,181419,1,0,0:0:0:0:
64,192,181419,1,0,0:0:0:0:
320,192,181498,1,0,0:0:0:0:
192,192,181577,1,0,0:0:0:0:
448,192,181577,1,0,0:0:0:0:
64,192,181656,1,0,0:0:0:0:
320,192,181735,1,0,0:0:0:0:
448,192,181735,1,0,0:0:0:0:
192,192,181814,1,0,0:0:0:0:
448,192,181893,1,0,0:0:0:0:
64,192,181893,1,0,0:0:0:0:
320,192,181972,1,0,0:0:0:0:
448,192,182051,1,0,0:0:0:0:
64,192,182051,1,0,0:0:0:0:
192,192,182051,1,0,0:0:0:0:
320,192,182129,1,0,0:0:0:0:
448,192,182208,1,0,0:0:0:0:
192,192,182208,1,0,0:0:0:0:
64,192,182287,5,0,0:0:0:0:
320,192,182366,1,0,0:0:0:0:
448,192,182366,1,0,0:0:0:0:
192,192,182445,1,0,0:0:0:0:
448,192,182524,1,0,0:0:0:0:
320,192,182524,1,0,0:0:0:0:
64,192,182524,1,0,0:0:0:0:
192,192,182603,1,0,0:0:0:0:
64,192,182682,1,0,0:0:0:0:
448,192,182682,1,0,0:0:0:0:
320,192,182682,1,0,0:0:0:0:
192,192,182761,1,0,0:0:0:0:
64,192,182840,1,0,0:0:0:0:
448,192,182840,1,0,0:0:0:0:
320,192,182919,1,0,0:0:0:0:
192,192,182998,1,0,0:0:0:0:
64,192,182998,1,0,0:0:0:0:
448,192,182998,1,0,0:0:0:0:
320,192,183077,1,0,0:0:0:0:
64,192,183156,1,0,0:0:0:0:
448,192,183156,1,0,0:0:0:0:
192,192,183235,1,0,0:0:0:0:
320,192,183235,1,0,0:0:0:0:
448,192,183314,1,0,0:0:0:0:
64,192,183393,1,0,0:0:0:0:
320,192,183393,1,0,0:0:0:0:
448,192,183472,5,0,0:0:0:0:
192,192,183472,1,0,0:0:0:0:
64,192,183551,1,0,0:0:0:0:
192,192,183629,1,0,0:0:0:0:
320,192,183629,1,0,0:0:0:0:
448,192,183708,1,0,0:0:0:0:
64,192,183708,1,0,0:0:0:0:
320,192,183787,1,0,0:0:0:0:
192,192,183866,1,0,0:0:0:0:
64,192,183866,1,0,0:0:0:0:
320,192,183945,1,0,0:0:0:0:
448,192,184024,1,0,0:0:0:0:
64,192,184024,1,0,0:0:0:0:
192,192,184103,1,0,0:0:0:0:
320,192,184182,1,0,0:0:0:0:
448,192,184182,1,0,0:0:0:0:
64,192,184261,1,0,0:0:0:0:
192,192,184340,1,0,0:0:0:0:
448,192,184340,1,0,0:0:0:0:
320,192,184419,1,0,0:0:0:0:
448,192,184498,1,0,0:0:0:0:
64,192,184498,1,0,0:0:0:0:
192,192,184577,1,0,0:0:0:0:
64,192,184656,1,0,0:0:0:0:
320,192,184656,1,0,0:0:0:0:
448,192,184656,1,0,0:0:0:0:
192,192,184735,1,0,0:0:0:0:
448,192,184814,5,0,0:0:0:0:
320,192,184814,1,0,0:0:0:0:
192,192,184893,1,0,0:0:0:0:
64,192,184893,1,0,0:0:0:0:
320,192,184972,1,0,0:0:0:0:
448,192,184972,1,0,0:0:0:0:
192,192,185051,1,0,0:0:0:0:
64,192,185051,1,0,0:0:0:0:
320,192,185129,1,0,0:0:0:0:
448,192,185129,1,0,0:0:0:0:
192,192,185208,1,0,0:0:0:0:
64,192,185208,1,0,0:0:0:0:
320,192,185287,1,0,0:0:0:0:
448,192,185287,1,0,0:0:0:0:
64,192,185366,1,0,0:0:0:0:
192,192,185366,1,0,0:0:0:0:
320,192,185445,1,0,0:0:0:0:
448,192,185445,1,0,0:0:0:0:
192,192,185524,1,0,0:0:0:0:
64,192,185524,1,0,0:0:0:0:
320,192,185603,1,0,0:0:0:0:
448,192,185603,1,0,0:0:0:0:
64,192,185682,1,0,0:0:0:0:
192,192,185682,1,0,0:0:0:0:
320,192,185761,1,0,0:0:0:0:
448,192,185840,1,0,0:0:0:0:
192,192,185840,1,0,0:0:0:0:
320,192,185919,1,0,0:0:0:0:
64,192,185919,1,0,0:0:0:0:
192,192,185998,1,0,0:0:0:0:
448,192,186077,1,0,0:0:0:0:
64,192,186077,1,0,0:0:0:0:
320,192,186077,1,0,0:0:0:0:
192,192,186156,1,0,0:0:0:0:
64,192,186235,1,0,0:0:0:0:
320,192,186235,1,0,0:0:0:0:
448,192,186235,1,0,0:0:0:0:
192,192,186314,1,0,0:0:0:0:
320,192,186393,1,0,0:0:0:0:
448,192,186393,1,0,0:0:0:0:
192,192,186472,1,0,0:0:0:0:
320,192,186551,1,0,0:0:0:0:
64,192,186551,1,0,0:0:0:0:
448,192,186551,1,0,0:0:0:0:
192,192,186629,1,0,0:0:0:0:
64,192,186708,1,0,0:0:0:0:
448,192,186708,1,0,0:0:0:0:
320,192,186787,1,0,0:0:0:0:
192,192,186787,1,0,0:0:0:0:
64,192,186866,1,0,0:0:0:0:
320,192,186945,1,0,0:0:0:0:
192,192,186945,1,0,0:0:0:0:
448,192,186945,1,0,0:0:0:0:
64,192,187024,1,0,0:0:0:0:
192,192,187103,1,0,0:0:0:0:
448,192,187103,1,0,0:0:0:0:
320,192,187103,1,0,0:0:0:0:
64,192,187182,1,0,0:0:0:0:
448,192,187261,1,0,0:0:0:0:
64,192,187340,1,0,0:0:0:0:
192,192,187340,1,0,0:0:0:0:
320,192,187340,1,0,0:0:0:0:
448,192,187419,1,0,0:0:0:0:
320,192,187498,1,0,0:0:0:0:
64,192,187498,1,0,0:0:0:0:
448,192,187577,1,0,0:0:0:0:
192,192,187577,1,0,0:0:0:0:
320,192,187656,1,0,0:0:0:0:
192,192,187735,1,0,0:0:0:0:
448,192,187735,1,0,0:0:0:0:
64,192,187735,1,0,0:0:0:0:
320,192,187814,1,0,0:0:0:0:
192,192,187893,1,0,0:0:0:0:
64,192,187972,1,0,0:0:0:0:
320,192,187972,1,0,0:0:0:0:
448,192,188051,1,0,0:0:0:0:
192,192,188129,1,0,0:0:0:0:
320,192,188129,1,0,0:0:0:0:
64,192,188129,1,0,0:0:0:0:
448,192,188208,1,0,0:0:0:0:
64,192,188287,1,0,0:0:0:0:
320,192,188287,1,0,0:0:0:0:
448,192,188366,1,0,0:0:0:0:
192,192,188366,1,0,0:0:0:0:
320,192,188445,1,0,0:0:0:0:
64,192,188524,1,0,0:0:0:0:
192,192,188524,1,0,0:0:0:0:
448,192,188603,1,0,0:0:0:0:
320,192,188682,1,0,0:0:0:0:
64,192,188682,1,0,0:0:0:0:
192,192,188682,1,0,0:0:0:0:
448,192,188761,1,0,0:0:0:0:
192,192,188840,1,0,0:0:0:0:
320,192,188840,1,0,0:0:0:0:
64,192,188840,1,0,0:0:0:0:
448,192,188919,1,0,0:0:0:0:
320,192,188998,1,0,0:0:0:0:
64,192,188998,1,0,0:0:0:0:
192,192,189077,1,0,0:0:0:0:
320,192,189156,1,0,0:0:0:0:
64,192,189156,1,0,0:0:0:0:
448,192,189156,1,0,0:0:0:0:
192,192,189235,1,0,0:0:0:0:
64,192,189314,1,0,0:0:0:0:
448,192,189314,1,0,0:0:0:0:
320,192,189314,1,0,0:0:0:0:
192,192,189393,1,0,0:0:0:0:
448,192,189472,1,0,0:0:0:0:
192,192,189551,1,0,0:0:0:0:
320,192,189551,1,0,0:0:0:0:
64,192,189551,1,0,0:0:0:0:
448,192,189629,1,0,0:0:0:0:
64,192,189708,1,0,0:0:0:0:
320,192,189708,1,0,0:0:0:0:
192,192,189787,1,0,0:0:0:0:
448,192,189787,1,0,0:0:0:0:
320,192,189866,1,0,0:0:0:0:
448,192,189945,1,0,0:0:0:0:
64,192,189945,1,0,0:0:0:0:
192,192,189945,1,0,0:0:0:0:
320,192,190024,1,0,0:0:0:0:
448,192,190103,1,0,0:0:0:0:
192,192,190103,1,0,0:0:0:0:
64,192,190182,1,0,0:0:0:0:
448,192,190261,1,0,0:0:0:0:
320,192,190261,1,0,0:0:0:0:
192,192,190261,1,0,0:0:0:0:
64,192,190340,1,0,0:0:0:0:
320,192,190419,1,0,0:0:0:0:
192,192,190419,1,0,0:0:0:0:
448,192,190498,1,0,0:0:0:0:
64,192,190577,1,0,0:0:0:0:
192,192,190577,1,0,0:0:0:0:
320,192,190577,1,0,0:0:0:0:
448,192,190656,1,0,0:0:0:0:
320,192,190735,1,0,0:0:0:0:
192,192,190735,1,0,0:0:0:0:
448,192,190814,1,0,0:0:0:0:
64,192,190814,1,0,0:0:0:0:
192,192,190893,1,0,0:0:0:0:
320,192,190972,1,0,0:0:0:0:
448,192,190972,1,0,0:0:0:0:
64,192,190972,1,0,0:0:0:0:
192,192,191051,1,0,0:0:0:0:
448,192,191129,1,0,0:0:0:0:
320,192,191129,1,0,0:0:0:0:
64,192,191208,1,0,0:0:0:0:
448,192,191287,1,0,0:0:0:0:
320,192,191287,1,0,0:0:0:0:
192,192,191287,1,0,0:0:0:0:
64,192,191366,1,0,0:0:0:0:
448,192,191445,1,0,0:0:0:0:
192,192,191445,1,0,0:0:0:0:
320,192,191524,1,0,0:0:0:0:
192,192,191603,1,0,0:0:0:0:
64,192,191603,1,0,0:0:0:0:
448,192,191603,1,0,0:0:0:0:
320,192,191682,1,0,0:0:0:0:
64,192,191761,1,0,0:0:0:0:
448,192,191761,1,0,0:0:0:0:
192,192,191840,1,0,0:0:0:0:
320,192,191919,1,0,0:0:0:0:
64,192,191919,1,0,0:0:0:0:
448,192,191919,1,0,0:0:0:0:
192,192,191998,1,0,0:0:0:0:
64,192,192077,1,0,0:0:0:0:
320,192,192077,1,0,0:0:0:0:
448,192,192156,1,0,0:0:0:0:
320,192,192235,1,0,0:0:0:0:
192,192,192235,1,0,0:0:0:0:
64,192,192235,1,0,0:0:0:0:
448,192,192314,1,0,0:0:0:0:
320,192,192393,1,0,0:0:0:0:
64,192,192393,1,0,0:0:0:0:
448,192,192472,1,0,0:0:0:0:
192,192,192472,1,0,0:0:0:0:
64,192,192551,1,0,0:0:0:0:
320,192,192551,1,0,0:0:0:0:
448,192,192629,1,0,0:0:0:0:
192,192,192629,1,0,0:0:0:0:
64,192,192708,1,0,0:0:0:0:
320,192,192708,1,0,0:0:0:0:
448,192,192787,1,0,0:0:0:0:
192,192,192866,1,0,0:0:0:0:
320,192,192866,1,0,0:0:0:0:
448,192,192945,1,0,0:0:0:0:
64,192,192945,1,0,0:0:0:0:
192,192,193024,1,0,0:0:0:0:
320,192,193024,1,0,0:0:0:0:
448,192,193103,1,0,0:0:0:0:
64,192,193103,1,0,0:0:0:0:
192,192,193182,1,0,0:0:0:0:
320,192,193182,1,0,0:0:0:0:
64,192,193261,5,0,0:0:0:0:
192,192,193340,1,0,0:0:0:0:
448,192,193340,1,0,0:0:0:0:
320,192,193419,1,0,0:0:0:0:
64,192,193498,1,0,0:0:0:0:
448,192,193498,1,0,0:0:0:0:
192,192,193498,1,0,0:0:0:0:
320,192,193577,1,0,0:0:0:0:
448,192,193656,1,0,0:0:0:0:
192,192,193656,1,0,0:0:0:0:
320,192,193735,1,0,0:0:0:0:
64,192,193735,1,0,0:0:0:0:
448,192,193814,5,0,0:0:0:0:
320,192,193893,1,0,0:0:0:0:
64,192,193893,1,0,0:0:0:0:
192,192,193893,1,0,0:0:0:0:
448,192,193972,1,0,0:0:0:0:
320,192,194051,1,0,0:0:0:0:
192,192,194051,1,0,0:0:0:0:
64,192,194051,1,0,0:0:0:0:
448,192,194129,1,0,0:0:0:0:
320,192,194208,1,0,0:0:0:0:
64,192,194208,1,0,0:0:0:0:
192,192,194287,1,0,0:0:0:0:
448,192,194287,1,0,0:0:0:0:
320,192,194366,1,0,0:0:0:0:
64,192,194445,5,0,0:0:0:0:
192,192,194445,1,0,0:0:0:0:
320,192,194524,1,0,0:0:0:0:
448,192,194524,1,0,0:0:0:0:
192,192,194603,5,0,0:0:0:0:
64,192,194603,1,0,0:0:0:0:
320,192,194682,1,0,0:0:0:0:
448,192,194682,1,0,0:0:0:0:
192,192,194761,1,0,0:0:0:0:
64,192,194761,1,0,0:0:0:0:
320,192,194840,1,0,0:0:0:0:
448,192,194840,1,0,0:0:0:0:
192,192,194919,1,0,0:0:0:0:
64,192,194919,1,0,0:0:0:0:
448,192,194998,5,0,0:0:0:0:
320,192,194998,1,0,0:0:0:0:
64,192,195077,1,0,0:0:0:0:
192,192,195116,1,0,0:0:0:0:
320,192,195156,1,0,0:0:0:0:
448,192,195195,1,0,0:0:0:0:
64,192,195235,1,0,0:0:0:0:
192,192,195274,1,0,0:0:0:0:
320,192,195314,1,0,0:0:0:0:
448,192,195353,1,0,0:0:0:0:
64,192,195393,1,0,0:0:0:0:
192,192,195432,1,0,0:0:0:0:
320,192,195472,1,0,0:0:0:0:
448,192,195511,1,0,0:0:0:0:
64,192,195551,1,0,0:0:0:0:
192,192,195590,1,0,0:0:0:0:
320,192,195629,1,0,0:0:0:0:
448,192,195669,1,0,0:0:0:0:
64,192,195708,128,0,196182:0:0:0:0:
192,192,195708,128,0,196182:0:0:0:0:
