osu file format v12

[General]
AudioFilename: RIP=RELEASE.mp3
AudioLeadIn: 0
PreviewTime: 84216
Countdown: 0
SampleSet: Soft
StackLeniency: 0.7
Mode: 0
LetterboxInBreaks: 0
EpilepsyWarning: 1

[Editor]
Bookmarks: 34129,67520,84216,102998,119694,136390,153085,171868,188564,207346,226129
DistanceSpacing: 0.9
BeatDivisor: 4
GridSize: 8

[Metadata]
Title:RIP=RELEASE
TitleUnicode:RIP=RELEASE
Artist:Wotamin
ArtistUnicode:ヲタみん
Creator:Leorda
Version:Normal
Source:
Tags:megurine luka avtechno ryuuseiP
BeatmapID:241725
BeatmapSetID:88755

[Difficulty]
HPDrainRate:3
CircleSize:3
OverallDifficulty:4
ApproachRate:4
SliderMultiplier:1.2
SliderTickRate:2

[Events]
//Background and Video events
0,0,"RIP=RELEASE.jpg",0,0
//Break Periods
2,103230,118406
2,172100,187276
//Storyboard Layer 0 (Background)
//Storyboard Layer 1 (Fail)
//Storyboard Layer 2 (Pass)
//Storyboard Layer 3 (Foreground)
//Storyboard Sound Samples
//Background Colour Transformations
3,100,163,162,255

[TimingPoints]
770,521.739130434783,4,2,1,100,1,0
84248,-100,4,2,1,100,0,1
103030,-100,4,2,1,100,0,0
153117,-100,4,2,1,100,0,1
171900,-100,4,2,1,100,0,0
188596,-133.333333333333,4,2,1,70,0,0
207378,-100,4,2,1,100,0,1
226161,-100,4,2,1,100,0,0

[Colours]
Combo1 : 224,132,255
Combo2 : 255,159,207
Combo3 : 111,0,55

[HitObjects]
256,48,34161,1,4,0:0:0:0:
360,80,34683,1,0,1:0:0:0:
408,176,35204,1,0,0:0:0:0:
384,232,35465,1,0,0:0:0:0:
360,280,35726,1,0,1:0:0:0:
264,232,36248,6,0,B|200:192|144:232|144:232,1,120,0|0,0:0|1:0,0:0:0:0:
88,320,37291,2,0,B|152:360|208:320|208:320,1,120,0|0,0:0|1:0,0:0:0:0:
264,232,38335,6,0,P|264:168|224:120,2,120,0|0|0,0:0|1:0|0:0,0:0:0:0:
304,328,39900,1,0,1:0:0:0:
376,248,40422,6,0,P|408:184|408:120,1,120,0|0,0:0|1:0,0:0:0:0:
304,104,41465,2,0,P|272:168|272:232,1,120,0|0,0:0|1:0,0:0:0:0:
272,272,42248,1,0,0:0:0:0:
240,320,42509,5,0,0:0:0:0:
136,336,43030,1,0,1:0:0:0:
64,256,43552,1,0,0:0:0:0:
80,152,44074,1,0,1:0:0:0:
152,72,44596,6,0,P|208:48|288:72,1,120,0|0,0:0|1:0,0:0:0:0:
272,112,45378,1,0,0:0:0:0:
280,168,45639,2,0,P|336:184|416:168,1,120,0|0,0:0|1:0,0:0:0:0:
408,288,46683,6,0,P|368:328|304:312,1,120,0|0,0:0|1:0,0:0:0:0:
200,312,47726,2,0,P|143:323|103:283,1,120,0|0,0:0|1:0,0:0:0:0:
72,176,48770,6,0,P|48:120|72:48,1,120,0|0,0:0|1:0,0:0:0:0:
112,64,49552,1,0,0:0:0:0:
160,88,49813,2,0,P|224:104|288:88,1,120,0|0,0:0|1:0,0:0:0:0:
400,128,50856,6,0,B|400:192|376:192|376:248,2,120,4|0|0,0:0|1:0|0:0,0:0:0:0:
376,24,52422,1,0,1:0:0:0:
304,104,52943,6,0,P|288:168|224:184,1,120,0|0,0:0|1:0,0:0:0:0:
200,168,53726,1,0,0:0:0:0:
152,184,53987,2,0,P|106:165|90:101,1,120,0|0,0:0|1:0,0:0:0:0:
152,184,55030,6,0,P|168:232|152:304,1,120,0|0,0:0|1:0,0:0:0:0:
200,328,55813,1,0,0:0:0:0:
248,304,56074,2,0,P|301:282|368:304,1,120,0|0,0:0|1:0,0:0:0:0:
448,240,57117,5,0,0:0:0:0:
480,136,57639,1,0,1:0:0:0:
408,56,58161,1,0,0:0:0:0:
352,64,58422,1,0,0:0:0:0:
304,88,58683,1,0,1:0:0:0:
216,144,59204,6,0,P|168:160|96:136,1,120,0|0,0:0|1:0,0:0:0:0:
56,40,60248,2,0,P|104:24|176:48,1,120,0|0,0:0|1:0,0:0:0:0:
216,144,61291,5,0,0:0:0:0:
176,248,61813,1,0,1:0:0:0:
256,320,62335,1,0,0:0:0:0:
344,256,62856,1,0,1:0:0:0:
320,152,63378,6,0,P|368:104|432:96,1,120,0|0,0:0|1:0,0:0:0:0:
416,152,64161,2,0,P|456:200|456:264,1,120,0|0,0:0|0:0,0:0:0:0:
416,288,64943,1,0,1:0:0:0:
320,248,65465,5,0,0:0:0:0:
248,328,65987,1,0,1:0:0:0:
152,272,66509,1,0,0:0:0:0:
168,168,67030,1,0,1:0:0:0:
272,152,67552,5,4,0:0:0:0:
376,168,68074,1,0,1:0:0:0:
472,208,68596,2,0,L|472:280,2,60,0|0|0,0:0|0:0|1:0,0:0:0:0:
448,104,69639,6,0,P|400:72|328:88,1,120,0|0,0:0|1:0,0:0:0:0:
272,160,70683,2,0,P|224:192|152:176,1,120,0|0,0:0|1:0,0:0:0:0:
96,104,71726,5,0,0:0:0:0:
200,80,72248,1,0,1:0:0:0:
272,160,72770,1,0,0:0:0:0:
296,208,73030,1,0,0:0:0:0:
280,264,73291,1,0,1:0:0:0:
176,224,73813,6,0,P|112:208|72:248,1,120,0|0,0:0|1:0,0:0:0:0:
96,344,74856,2,0,P|160:360|200:320,1,120,0|0,0:0|1:0,0:0:0:0:
280,264,75900,6,0,P|360:248|416:272,2,120,4|0|0,0:0|1:0|0:0,0:0:0:0:
232,288,77204,1,0,0:0:0:0:
184,272,77465,1,0,1:0:0:0:
152,168,77987,6,0,P|128:104|64:80,1,120,0|0,0:0|1:0,0:0:0:0:
40,176,79030,1,0,0:0:0:0:
104,264,79552,1,0,1:0:0:0:
152,168,80074,6,0,L|272:168|272:168,1,120,0|0,0:0|1:0,0:0:0:0:
320,192,80856,1,0,0:0:0:0:
288,240,81117,2,0,P|264:304|288:360,1,120,0|0,0:0|1:0,0:0:0:0:
392,360,82161,6,0,L|392:256,2,90,4|0|0,1:2|1:0|1:0,0:0:0:0:
464,216,83726,1,0,1:0:0:0:
465,216,83987,1,0,0:0:0:0:
465,216,84248,6,0,P|425:176|345:168,1,120,4|0,0:0|1:0,0:0:0:0:
312,176,85030,1,0,0:0:0:0:
256,184,85291,2,0,P|195:171|155:131,1,120,0|0,0:0|1:0,0:0:0:0:
216,40,86335,6,0,P|272:48|316:92,1,120,0|0,0:0|1:0,0:0:0:0:
256,184,87378,1,0,0:0:0:0:
176,256,87900,1,0,1:0:0:0:
80,216,88422,6,0,P|48:264|72:328,1,120,0|0,0:0|1:0,0:0:0:0:
112,352,89204,1,0,0:0:0:0:
160,336,89465,2,0,P|224:320|296:344,1,120,0|0,0:0|1:0,0:0:0:0:
384,320,90509,6,0,P|432:280|440:224,1,120,0|0,0:0|1:0,0:0:0:0:
352,160,91552,2,0,P|304:200|295:254,2,120,0|0|4,0:0|1:0|0:0,0:0:0:0:
448,112,93117,5,0,1:0:0:0:
352,64,93639,2,0,L|400:24,2,60,0|0|0,0:0|0:0|1:0,0:0:0:0:
304,88,94422,1,0,0:0:0:0:
256,112,94683,2,0,P|176:144|136:128,1,120,0|0,0:0|1:0,0:0:0:0:
64,208,95726,2,0,P|136:240|200:240,1,120,0|0,0:0|1:0,0:0:0:0:
288,248,96770,5,0,0:0:0:0:
384,200,97291,1,0,1:0:0:0:
336,104,97813,1,0,0:0:0:0:
240,152,98335,1,0,1:0:0:0:
256,192,98856,12,4,103030,0:0:0:0:
256,192,119726,5,4,0:0:0:0:
160,144,120248,1,0,1:0:0:0:
64,192,120770,2,0,L|24:144,2,60,0|0|0,0:0|0:0|1:0,0:0:0:0:
104,296,121813,6,0,P|160:320|224:288,1,120,0|0,0:0|1:0,0:0:0:0:
256,272,122596,1,0,0:0:0:0:
304,248,122856,2,0,P|356:228|412:252,1,120,0|0,0:0|1:0,0:0:0:0:
352,344,123900,5,0,0:0:0:0:
256,304,124422,1,0,1:0:0:0:
192,216,124943,2,0,L|192:144,2,60,0|0|0,0:0|0:0|1:0,0:0:0:0:
80,216,125987,6,0,L|80:88,1,120,0|0,0:0|1:0,0:0:0:0:
168,32,127030,2,0,L|168:160,1,120,0|0,0:0|1:0,0:0:0:0:
264,96,128074,6,0,P|344:88|368:136,1,120,0|0,0:0|1:0,0:0:0:0:
400,216,129117,2,0,P|419:240|499:232,1,120,0|0,0:0|1:0,0:0:0:0:
472,128,130161,5,0,0:0:0:0:
368,128,130683,1,0,1:0:0:0:
304,216,131204,1,0,0:0:0:0:
200,200,131726,1,0,1:0:0:0:
104,144,132248,6,0,P|48:144|24:208,1,120,0|0,0:0|1:0,0:0:0:0:
56,240,133030,2,0,P|112:240|136:176,1,120
160,144,133813,1,0,1:0:0:0:
224,56,134335,5,0,0:0:0:0:
328,56,134856,1,0,1:0:0:0:
392,144,135378,1,0,1:0:0:0:
376,192,135639,1,0,1:0:0:0:
352,240,135900,2,0,P|312:248|288:224,2,60,0|0|4,1:0|1:0|1:2,0:0:0:0:
448,288,136943,5,0,1:0:0:0:
352,344,137465,2,0,P|304:344|232:312,1,120,0|0,0:0|1:0,0:0:0:0:
200,280,138248,1,0,0:0:0:0:
176,232,138509,6,0,P|128:208|64:256,2,120,0|0|0,0:0|1:0|0:0,0:0:0:0:
280,256,140074,1,0,1:0:0:0:
384,248,140596,6,0,P|432:200|432:144,1,120,0|0,0:0|1:0,0:0:0:0:
360,72,141639,2,0,P|312:120|312:176,1,120,0|0,0:0|1:0,0:0:0:0:
352,272,142683,6,0,P|349:321|301:369,1,120,0|0,0:0|1:0,0:0:0:0:
227,290,143726,2,0,P|229:240|277:192,1,120,0|0,0:0|1:0,0:0:0:0:
320,176,144509,1,0,0:0:0:0:
376,176,144770,6,0,B|424:176|424:200|496:200,2,120,4|0|0,0:0|1:0|0:0,0:0:0:0:
267,176,146335,1,0,1:0:0:0:
160,176,146856,6,0,P|112:160|88:88,2,120,0|0|0,0:0|1:0|0:0,0:0:0:0:
192,72,148422,1,0,1:0:0:0:
256,160,148943,6,0,B|280:224|208:272,1,120,0|0,0:0|1:0,0:0:0:0:
168,280,149726,1,0,0:0:0:0:
120,264,149987,2,0,B|58:223|82:159,1,120,0|0,0:0|1:0,0:0:0:0:
176,120,151030,6,0,L|176:16,2,90,4|0|0,1:2|1:0|1:0,1:0:0:0:
328,56,152596,1,0,1:0:0:0:
256,136,153117,5,4,0:0:0:0:
280,184,153378,1,0,0:0:0:0:
328,208,153639,2,0,P|368:232|448:208,2,120,0|0|0,1:0|0:0|1:0,0:0:0:0:
360,104,155204,5,0,0:0:0:0:
256,136,155726,1,0,1:0:0:0:
160,184,156248,2,0,P|112:152|112:80,2,120,0|0|0,0:0|1:0|0:0,0:0:0:0:
256,232,157813,5,0,1:0:0:0:
344,296,158335,2,0,P|400:304|456:256,1,120,0|0,0:0|1:0,0:0:0:0:
368,192,159378,6,0,P|344:128|368:56,1,120,0|0,0:0|1:0,0:0:0:0:
304,56,160161,2,0,P|240:32|190:41,1,120
152,80,160943,1,0,1:0:0:0:
112,176,161465,6,0,P|104:224|160:272,1,120,4|0,0:0|1:0,0:0:0:0:
256,272,162509,2,0,P|303:225|295:177,1,120,0|0,0:0|1:0,0:0:0:0:
272,128,163291,1,0,0:0:0:0:
248,80,163552,6,0,P|296:32|360:40,1,120,0|0,0:0|1:0,0:0:0:0:
432,96,164596,1,0,0:0:0:0:
424,200,165117,1,0,1:0:0:0:
392,304,165639,6,0,P|376:336|280:336,1,120,0|0,0:0|1:0,0:0:0:0:
192,352,166683,2,0,P|115:337|99:305,1,120,0|0,0:0|1:0,0:0:0:0:
256,192,167726,12,4,171900,0:0:0:0:
256,192,188596,5,4,0:0:0:0:
160,192,190683,6,0,P|160:256|272:304,2,180.000006866455
256,192,193813,5,0,0:0:0:0:
352,192,194856,2,0,P|352:128|240:80,2,180.000006866455
256,192,197987,5,0,0:0:0:0:
168,192,199030,1,0,0:0:0:0:
208,272,200074,1,0,0:0:0:0:
256,272,200596,1,0,0:0:0:0:
304,272,201117,5,0,0:0:0:0:
352,200,202161,1,0,0:0:0:0:
256,192,203204,12,0,206335,0:0:0:0:
48,216,207378,6,0,P|88:256|168:264,1,120,4|0,0:0|1:0,0:0:0:0:
192,232,208161,1,0,0:0:0:0:
240,200,208422,2,0,P|301:213|341:253,1,120,0|0,0:0|1:0,0:0:0:0:
288,344,209465,6,0,P|228:332|188:292,1,120,0|0,0:0|1:0,0:0:0:0:
240,200,210509,1,0,0:0:0:0:
328,144,211030,1,0,1:0:0:0:
432,168,211552,6,0,P|464:120|440:56,1,120,0|0,0:0|1:0,0:0:0:0:
400,32,212335,1,0,0:0:0:0:
352,48,212596,2,0,P|288:64|216:40,1,120,0|0,0:0|1:0,0:0:0:0:
128,64,213639,6,0,P|80:104|72:160,1,120,0|0,0:0|1:0,0:0:0:0:
160,224,214683,2,0,P|208:184|217:130,2,120,0|0|4,0:0|1:0|0:0,0:0:0:0:
64,272,216248,5,0,1:0:0:0:
160,320,216770,2,0,L|112:360,2,60,0|0|0,0:0|0:0|1:0,0:0:0:0:
208,296,217552,1,0,0:0:0:0:
256,272,217813,6,0,P|336:240|376:256,1,120,0|0,0:0|1:0,0:0:0:0:
448,176,218856,2,0,P|376:144|312:144,1,120,0|0,0:0|1:0,0:0:0:0:
224,136,219900,5,0,0:0:0:0:
128,184,220422,1,0,1:0:0:0:
176,280,220943,1,0,0:0:0:0:
272,232,221465,1,0,1:0:0:0:
256,192,221987,12,4,226161,0:0:0:0:
