osu file format v12

[General]
AudioFilename: RIP=RELEASE.mp3
AudioLeadIn: 0
PreviewTime: 84216
Countdown: 0
SampleSet: Soft
StackLeniency: 0.7
Mode: 0
LetterboxInBreaks: 0
EpilepsyWarning: 1

[Editor]
Bookmarks: 34129,67520,84216,102998,119694,136390,153085,171868,188564,207346,226129
DistanceSpacing: 1
BeatDivisor: 4
GridSize: 4

[Metadata]
Title:RIP=RELEASE
TitleUnicode:RIP=RELEASE
Artist:Wotamin
ArtistUnicode:ヲタみん
Creator:Leorda
Version:Insane
Source:
Tags:megurine luka avtechno ryuuseiP
BeatmapID:241724
BeatmapSetID:88755

[Difficulty]
HPDrainRate:8
CircleSize:4
OverallDifficulty:8
ApproachRate:8
SliderMultiplier:1.8
SliderTickRate:2

[Events]
//Background and Video events
0,0,"RIP=RELEASE.jpg",0,0
//Break Periods
2,103230,118976
2,172100,187846
//Storyboard Layer 0 (Background)
//Storyboard Layer 1 (Fail)
//Storyboard Layer 2 (Pass)
//Storyboard Layer 3 (Foreground)
//Storyboard Sound Samples
//Background Colour Transformations
3,100,163,162,255

[TimingPoints]
770,521.739130434783,4,2,1,100,1,0
84248,-100,4,2,1,100,0,1
103030,-100,4,2,1,100,0,0
153117,-100,4,2,1,100,0,1
171900,-100,4,2,1,100,0,0
188596,-133.333333333333,4,2,1,70,0,0
207378,-100,4,2,1,100,0,1
226161,-100,4,2,1,100,0,0

[Colours]
Combo1 : 224,132,255
Combo2 : 255,159,207
Combo3 : 111,0,55

[HitObjects]
160,160,34161,2,0,P|160:112|200:80,1,90,4|0,0:0|0:0,0:0:0:0:
264,128,34683,2,0,P|264:176|224:208,1,90,0|0,1:0|0:0,0:0:0:0:
160,248,35204,1,0,0:0:0:0:
128,280,35335,1,0,0:0:0:0:
120,328,35465,1,0,0:0:0:0:
208,320,35726,2,0,L|312:320,1,90,0|0,1:0|0:0,0:0:0:0:
344,320,36117,6,0,L|344:280,2,22.5
432,320,36509,2,0,P|456:288|440:240,1,90,0|0,0:0|1:0,0:0:0:0:
408,96,37030,2,0,P|384:128|397:172,1,90
480,136,37552,2,0,P|504:104|488:56,1,90,0|0,0:0|1:0,0:0:0:0:
416,16,38074,1,0,0:0:0:0:
368,24,38204,6,0,L|328:24,2,22.5
344,112,38596,2,0,P|304:120|256:96,1,90,0|0,0:0|1:0,0:0:0:0:
208,24,39117,2,0,P|144:24|96:120,1,180
104,200,39900,1,0,1:0:0:0:
136,280,40161,6,0,P|152:328|128:376,1,90
48,352,40683,2,0,P|32:304|56:256,1,90,0|0,0:0|1:0,0:0:0:0:
104,200,41204,1,0,0:0:0:0:
192,216,41465,6,0,P|240:224|280:208,1,90
312,184,41856,1,0,0:0:0:0:
344,160,41987,2,0,P|381:145|429:153,1,90,0|0,1:0|0:0,0:0:0:0:
472,232,42509,5,0,0:0:0:0:
448,320,42770,1,0,0:0:0:0:
400,328,42900,1,0,0:0:0:0:
360,304,43030,1,0,1:0:0:0:
280,256,43291,2,0,P|224:248|192:264,1,90
128,312,43813,2,0,P|72:328|32:320,1,90,0|0,0:0|1:0,0:0:0:0:
80,240,44335,1,0,0:0:0:0:
48,208,44465,6,0,L|48:176,2,22.5
136,176,44856,2,0,P|176:168|216:192,1,90,0|0,0:0|1:0,0:0:0:0:
272,264,45378,2,0,P|312:288|352:280,1,90
400,200,45900,1,0,0:0:0:0:
425,113,46161,2,0,P|465:81|505:81,1,90,0|0,1:0|0:0,0:0:0:0:
477,167,46683,6,0,P|437:199|397:199,1,90
336,136,47204,1,0,1:0:0:0:
272,72,47465,1,0,0:0:0:0:
240,40,47596,1,0,0:0:0:0:
200,24,47726,1,0,0:0:0:0:
152,24,47856,1,0,0:0:0:0:
112,40,47987,1,0,0:0:0:0:
136,128,48248,2,0,P|176:152|240:144,1,90,0|0,1:0|0:0,0:0:0:0:
312,144,48770,6,0,P|354:144|394:168,1,90
376,208,49161,1,0,0:0:0:0:
360,248,49291,2,0,P|317:247|277:223,1,90,0|0,1:0|0:0,0:0:0:0:
208,160,49813,1,0,1:0:0:0:
179,126,49943,1,0,0:0:0:0:
136,114,50073,1,0,1:0:0:0:
94,128,50204,1,0,0:0:0:0:
68,164,50334,1,0,1:0:0:0:
67,208,50465,1,0,1:0:0:0:
91,246,50595,1,0,1:0:0:0:
132,262,50726,1,0,1:0:0:0:
175,253,50856,1,4,1:2:0:0:
264,232,51117,6,0,P|320:232|344:264,1,90,0|0,0:0|1:0,0:0:0:0:
492,326,51639,2,0,P|436:326|416:304,1,90
440,216,52161,1,0,0:0:0:0:
512,160,52422,2,0,P|504:96|464:80,1,90,0|0,1:0|0:0,0:0:0:0:
448,64,52813,6,0,L|448:24,2,22.5
376,112,53204,2,0,P|328:128|288:96,1,90,0|0,0:0|1:0,0:0:0:0:
152,45,53726,2,0,P|200:29|232:48,1,90
96,112,54248,2,0,P|48:128|16:109,1,90,0|0,0:0|1:0,0:0:0:0:
56,32,54770,1,0,0:0:0:0:
136,192,55030,6,0,P|112:232|64:248,1,90
48,160,55552,1,0,1:0:0:0:
224,224,55813,2,0,P|200:280|96:336,2,180
264,144,57117,6,0,P|304:96|336:96,1,90
384,160,57639,2,0,P|344:208|312:208,1,90,0|0,1:0|0:0,0:0:0:0:
200,72,58161,1,0,0:0:0:0:
232,40,58291,1,0,0:0:0:0:
272,16,58422,1,0,0:0:0:0:
320,8,58552,1,0,0:0:0:0:
368,8,58683,2,0,P|416:8|464:48,1,90,0|0,1:0|0:0,0:0:0:0:
384,160,59204,6,0,P|336:160|301:138,1,90,0|0,0:0|0:0,0:0:0:0:
368,80,59726,1,0,1:0:0:0:
448,112,59987,2,0,P|464:168|368:240,2,180
368,80,61291,6,0,L|288:40,1,90
200,40,61813,1,0,1:0:0:0:
208,128,62074,2,0,P|224:184|128:256,1,180
128,168,62856,1,0,1:0:0:0:
208,128,63117,1,0,0:0:0:0:
296,152,63378,6,0,P|352:176|392:160,1,90
352,80,63900,1,0,1:0:0:0:
336,256,64161,2,0,P|392:264|432:240,1,90
352,80,64683,1,0,0:0:0:0:
408,344,64943,2,0,P|464:328|488:296,1,90,0|0,1:0|0:0,0:0:0:0:
352,80,65465,6,0,P|296:40|264:40,1,90
256,80,65856,1,0,0:0:0:0:
240,120,65987,2,0,P|221:118|165:78,1,90,0|0,1:0|0:0,0:0:0:0:
96,24,66509,1,0,1:0:0:0:
54,40,66639,1,0,0:0:0:0:
19,68,66769,1,0,1:0:0:0:
0,105,66900,1,0,0:0:0:0:
40,124,67030,1,0,1:0:0:0:
24,160,67161,1,0,1:0:0:0:
8,200,67291,1,0,1:0:0:0:
16,248,67422,1,0,1:0:0:0:
32,288,67552,1,4,1:2:0:0:
120,264,67813,6,0,P|176:264|208:288,1,90,0|0,0:0|1:0,0:0:0:0:
354,362,68335,2,0,P|298:362|272:344,1,90,0|0,0:0|0:0,0:0:0:0:
304,264,68856,1,0,0:0:0:0:
392,232,69117,2,0,P|432:200|448:160,1,90,0|0,1:0|0:0,0:0:0:0:
384,104,69639,6,0,P|344:136|328:176,1,90
248,208,70161,2,0,P|233:242|193:274,1,90,0|0,1:0|0:0,0:0:0:0:
104,296,70683,1,0,0:0:0:0:
80,256,70813,1,0,0:0:0:0:
104,216,70943,1,0,0:0:0:0:
72,184,71074,1,0,0:0:0:0:
88,144,71204,2,0,P|104:96|144:64,1,90,0|0,1:0|0:0,0:0:0:0:
424,240,71726,6,0,P|408:288|368:320,1,90
304,264,72248,2,0,P|320:216|360:184,1,90,0|0,1:0|0:0,0:0:0:0:
504,272,72770,1,0,0:0:0:0:
488,312,72900,1,0,0:0:0:0:
456,344,73030,1,0,0:0:0:0:
232,232,73291,2,0,P|248:184|288:152,1,90,0|0,1:0|0:0,0:0:0:0:
384,40,73813,6,0,P|368:88|328:120,1,90
288,40,74335,1,0,1:0:0:0:
448,128,74596,2,0,P|424:176|368:208,1,90,0|0,0:0|0:0,0:0:0:0:
288,40,75117,1,0,0:0:0:0:
504,224,75378,2,0,P|472:264|416:296,1,90,0|0,1:0|0:0,0:0:0:0:
288,341,75900,6,0,P|320:301|352:280,1,90,4|0,0:0|0:0,0:0:0:0:
352,192,76422,2,0,P|330:160|290:128,1,90,0|0,1:0|0:0,0:0:0:0:
208,168,76943,1,0,0:0:0:0:
160,176,77074,1,0,0:0:0:0:
120,168,77204,1,0,0:0:0:0:
120,80,77465,2,0,P|160:72|216:88,1,90,0|0,1:0|0:0,0:0:0:0:
208,264,77987,6,0,P|168:272|112:256,2,90,0|0|0,0:0|0:0|1:0,0:0:0:0:
288,224,78770,1,0,0:0:0:0:
328,208,78900,1,0,0:0:0:0:
376,208,79030,1,0,0:0:0:0:
416,224,79161,1,0,0:0:0:0:
440,264,79291,2,0,P|432:320|392:352,1,90,0|0,0:0|1:0,0:0:0:0:
328,304,79813,1,0,0:0:0:0:
288,224,80074,6,0,P|296:168|336:136,1,90
429,25,80596,2,0,P|421:81|400:104,1,90,0|0,1:0|0:0,0:0:0:0:
344,32,81117,1,0,0:0:0:0:
296,40,81248,1,0,0:0:0:0:
256,64,81378,1,0,0:0:0:0:
240,104,81509,1,0,0:0:0:0:
232,152,81639,2,0,P|208:192|160:224,1,90,0|0,1:0|0:0,0:0:0:0:
136,136,82161,5,4,1:2:0:0:
264,256,82552,1,0,1:0:0:0:
408,152,82943,1,0,1:0:0:0:
280,32,83335,1,0,1:0:0:0:
136,136,83726,1,0,1:0:0:0:
133,180,83856,1,0,1:0:0:0:
142,224,83986,1,0,1:0:0:0:
162,264,84117,1,0,1:0:0:0:
192,298,84247,5,4,1:2:0:0:
280,320,84509,1,0,0:0:0:0:
320,304,84639,2,0,L|288:240,2,45,0|0|0,0:0|1:0|0:0,0:0:0:0:
360,320,85030,1,0,0:0:0:0:
408,312,85161,2,0,B|408:264|360:240|360:176,1,135
360,144,85683,1,0,0:0:0:0:
360,96,85813,2,0,P|320:64|280:64,1,90,0|0,1:0|0:0,0:0:0:0:
256,152,86335,6,0,P|218:151|178:119,1,90
160,80,86726,2,0,L|160:32,2,45,0|0|0,0:0|1:0|0:0,0:0:0:0:
120,96,87117,1,0,0:0:0:0:
88,128,87248,2,0,B|88:176|136:200|136:264,1,135
144,296,87770,1,0,0:0:0:0:
184,320,87900,1,0,1:0:0:0:
232,320,88030,1,0,0:0:0:0:
272,288,88161,1,0,0:0:0:0:
272,240,88291,1,0,0:0:0:0:
280,192,88422,6,0,P|328:160|368:168,1,90
392,192,88813,1,0,0:0:0:0:
432,208,88943,2,0,P|461:211|509:179,1,90,0|0,1:0|0:0,0:0:0:0:
512,136,89335,2,0,P|480:80|408:56,1,135
368,64,89856,1,0,0:0:0:0:
328,80,89987,2,0,P|280:96|240:80,1,90,0|0,1:0|0:0,0:0:0:0:
168,40,90509,6,0,P|112:40|72:72,1,90
104,96,90900,2,0,L|104:200,1,90,0|0,0:0|0:0,0:0:0:0:
104,280,91422,2,0,P|144:320|232:296,1,135
272,232,92074,1,0,1:0:0:0:
312,224,92204,1,0,0:0:0:0:
352,240,92335,1,0,0:0:0:0:
384,272,92465,1,0,0:0:0:0:
408,312,92596,6,0,P|480:280|488:256,1,90,4|0,0:0|0:0,0:0:0:0:
496,232,92987,2,0,L|496:160,1,45,0|0,0:0|1:0,0:0:0:0:
496,144,93248,1,0,0:0:0:0:
408,120,93509,2,0,P|352:128|296:72,1,135
272,40,94030,1,0,0:0:0:0:
248,80,94161,2,0,P|193:130|160:120,1,90,0|0,1:0|0:0,0:0:0:0:
104,168,94683,6,0,P|104:216|144:256,1,90
168,264,95074,2,0,L|168:312,2,45,0|0|0,0:0|1:0|0:0,0:0:0:0:
200,232,95465,1,0,0:0:0:0:
240,248,95596,2,0,P|304:264|336:208,1,135
328,168,96117,1,0,0:0:0:0:
320,120,96248,2,0,P|344:72|376:64,1,90,0|0,1:0|0:0,0:0:0:0:
456,120,96770,6,0,P|480:176|456:208,1,90
432,216,97161,1,0,0:0:0:0:
424,256,97291,1,0,1:0:0:0:
456,336,97552,1,0,0:0:0:0:
368,320,97813,2,0,P|328:288|280:296,1,90
248,304,98204,1,0,0:0:0:0:
208,288,98335,1,0,1:0:0:0:
176,208,98596,1,0,0:0:0:0:
256,192,98856,12,0,100683,0:0:0:0:
256,192,100943,12,4,103030,0:0:0:0:
128,312,119726,5,4,0:0:0:0:
56,256,119987,1,0,0:0:0:0:
88,176,120248,1,0,1:0:0:0:
176,184,120509,1,0,0:0:0:0:
240,120,120770,2,0,L|240:64,2,45
280,144,121161,1,0,0:0:0:0:
320,128,121291,2,0,P|384:128|408:152,1,90,0|0,1:0|0:0,0:0:0:0:
424,184,121683,6,0,L|456:184,2,22.5
440,272,122074,1,0,0:0:0:0:
368,328,122335,1,0,1:0:0:0:
288,288,122596,2,0,P|240:264|200:272,1,90
61,317,123117,2,0,P|109:341|144:336,1,90,0|0,0:0|1:0,0:0:0:0:
32,232,123639,1,0,0:0:0:0:
64,200,123770,6,0,L|64:168,2,22.5
152,168,124161,1,0,0:0:0:0:
240,160,124422,2,0,P|280:184|344:168,2,90,0|0|0,1:0|0:0|0:0,0:0:0:0:
304,96,125204,2,0,P|368:96|408:136,1,90,0|0,0:0|1:0,0:0:0:0:
432,192,125726,1,0,0:0:0:0:
384,264,125987,5,0,0:0:0:0:
296,296,126248,2,0,P|240:296|208:264,1,90,0|0,0:0|1:0,0:0:0:0:
193,188,126770,2,0,P|249:188|281:220,1,90
215,276,127291,2,0,P|159:276|127:244,1,90,0|0,0:0|1:0,0:0:0:0:
112,168,127813,1,0,0:0:0:0:
160,96,128074,6,0,P|158:49|120:24,2,90,0|0|0,0:0|0:0|1:0,0:0:0:0:
232,152,128856,2,0,P|288:160|312:200,1,90
403,279,129378,2,0,P|347:271|328:248,1,90,0|0,0:0|1:0,0:0:0:0:
400,192,129900,1,0,0:0:0:0:
448,192,130030,6,0,L|480:192,2,22.5
448,104,130422,2,0,L|448:8,1,90,0|0,0:0|1:0,0:0:0:0:
368,56,130943,2,0,B|280:24|280:88|176:48,1,180
112,16,131726,1,0,1:0:0:0:
64,88,131987,1,0,0:0:0:0:
128,152,132248,6,0,P|80:176|24:160,1,90
64,88,132770,1,0,1:0:0:0:
120,256,133030,2,0,P|72:272|24:256,1,90
64,88,133552,1,0,0:0:0:0:
96,360,133813,2,0,P|48:368|0:352,1,90,0|0,1:0|0:0,0:0:0:0:
64,88,134335,6,0,P|128:64|152:72,1,90
289,109,134856,2,0,P|225:133|208:128,1,90,0|0,1:0|0:0,0:0:0:0:
368,64,135378,1,0,1:0:0:0:
411,55,135508,1,0,0:0:0:0:
454,67,135638,1,0,1:0:0:0:
487,97,135769,1,0,0:0:0:0:
503,138,135899,1,0,1:0:0:0:
499,183,136030,1,0,1:0:0:0:
476,221,136160,1,0,1:0:0:0:
438,244,136291,1,0,1:0:0:0:
393,248,136421,1,4,1:2:0:0:
312,216,136683,5,0,0:0:0:0:
224,200,136943,2,0,P|176:208|144:240,1,90,0|0,1:0|0:0,0:0:0:0:
184,320,137465,2,0,P|232:312|264:280,1,90
192,112,137987,2,0,P|144:120|112:152,1,90,0|0,1:0|0:0,0:0:0:0:
272,112,138509,6,0,P|320:120|360:88,1,90
384,72,138900,1,0,0:0:0:0:
432,80,139030,1,0,1:0:0:0:
416,168,139291,1,0,0:0:0:0:
400,256,139552,1,0,0:0:0:0:
359,276,139682,1,0,0:0:0:0:
315,281,139812,1,0,0:0:0:0:
271,272,139943,1,0,0:0:0:0:
240,248,140074,2,0,P|200:216|152:208,1,90,0|0,1:0|0:0,0:0:0:0:
88,256,140596,6,0,P|128:288|176:296,1,90
264,152,141117,2,0,P|224:120|176:112,1,90,0|0,1:0|0:0,0:0:0:0:
104,136,141639,1,0,0:0:0:0:
32,192,141900,2,0,P|8:232|8:280,2,90,0|0|0,0:0|1:0|0:0,0:0:0:0:
120,216,142683,6,0,L|216:216,1,90
248,240,143074,1,0,0:0:0:0:
288,264,143204,2,0,L|408:264,1,90,0|0,1:0|0:0,0:0:0:0:
464,288,143726,2,0,L|464:192,1,90
440,160,144117,1,0,0:0:0:0:
416,120,144248,2,0,L|416:16,1,90,0|0,1:0|0:0,0:0:0:0:
336,72,144770,6,0,L|240:72,1,90,4|0,0:0|0:0,0:0:0:0:
288,152,145291,2,0,L|192:152,1,90,0|0,1:0|0:0,0:0:0:0:
224,240,145813,2,0,L|128:240,1,90,0|0,0:0|0:0,0:0:0:0:
184,320,146335,1,0,1:0:0:0:
232,320,146465,1,0,0:0:0:0:
280,320,146596,1,0,0:0:0:0:
328,320,146726,1,0,0:0:0:0:
376,320,146856,6,0,P|424:296|432:240,1,90
424,176,147378,2,0,P|376:200|368:256,1,90,0|0,1:0|0:0,0:0:0:0:
376,344,147900,2,0,P|424:320|432:264,1,90
424,144,148422,2,0,P|376:168|368:224,1,90,0|0,1:0|0:0,0:0:0:0:
448,144,148943,6,0,P|496:120|507:88,1,90,0|0,0:0|0:0,0:0:0:0:
504,40,149335,1,0,0:0:0:0:
456,48,149465,2,0,P|400:64|352:48,1,90,0|0,1:0|0:0,0:0:0:0:
288,24,149987,1,0,0:0:0:0:
248,32,150117,1,0,0:0:0:0:
208,56,150248,1,0,0:0:0:0:
192,96,150378,1,0,0:0:0:0:
200,144,150509,2,0,P|224:200|200:240,1,90,0|0,1:0|0:0,0:0:0:0:
128,192,151030,5,4,1:2:0:0:
296,248,151422,1,0,1:0:0:0:
440,144,151813,1,0,1:0:0:0:
272,88,152204,1,0,1:0:0:0:
128,192,152596,1,0,1:0:0:0:
112,232,152726,1,0,1:0:0:0:
120,272,152856,1,0,1:0:0:0:
152,304,152987,1,0,1:0:0:0:
200,304,153117,5,4,1:2:0:0:
288,272,153378,1,0,0:0:0:0:
336,272,153509,2,0,L|384:272,2,45,0|0|0,0:0|1:0|0:0,0:0:0:0:
312,232,153900,1,0,0:0:0:0:
312,184,154030,2,0,B|312:128|264:128|264:56,1,135
232,32,154552,1,0,0:0:0:0:
200,64,154683,2,0,P|176:128|128:144,1,90,0|0,1:0|0:0,0:0:0:0:
80,176,155204,6,0,P|40:208|32:256,1,90
72,272,155596,2,0,L|72:320,2,45,0|0|0,0:0|1:0|0:0,0:0:0:0:
112,256,155987,1,0,0:0:0:0:
152,272,156117,2,0,B|216:272|216:296|288:296,1,135
328,280,156639,1,0,0:0:0:0:
368,256,156770,2,0,B|368:168|392:160|392:72,1,180,0|0,1:0|0:0,0:0:0:0:
312,32,157552,5,0,0:0:0:0:
264,32,157683,2,0,L|200:32,2,45,0|0|0,0:0|1:0|0:0,0:0:0:0:
288,72,158074,1,0,0:0:0:0:
288,120,158204,2,0,B|288:176|240:176|240:248,1,135
200,256,158726,1,0,0:0:0:0:
160,248,158856,2,0,L|64:248,1,90,0|0,1:0|0:0,0:0:0:0:
40,160,159378,6,0,P|88:144|152:160,1,90
168,168,159770,2,0,P|216:184|240:180,1,45,0|0,0:0|1:0,0:0:0:0:
252,172,160030,1,0,0:0:0:0:
328,224,160291,2,0,P|352:272|448:288,1,135
464,272,160813,1,0,0:0:0:0:
488,232,160943,2,0,L|488:136,1,90,0|0,1:0|0:0,0:0:0:0:
440,64,161465,6,0,L|336:64,1,90,4|0,0:0|0:0,0:0:0:0:
308,76,161856,1,0,0:0:0:0:
268,92,161987,2,0,P|240:124|236:184,1,90,0|0,1:0|0:0,0:0:0:0:
256,208,162378,1,0,0:0:0:0:
280,248,162509,2,0,P|280:290|248:322,1,90
168,280,163030,2,0,P|167:237|199:205,1,90,0|0,1:0|0:0,0:0:0:0:
288,176,163552,6,0,L|384:176,1,90
424,160,163943,2,0,L|424:104,2,45,0|0|0,0:0|1:0|0:0,0:0:0:0:
464,184,164335,1,0,0:0:0:0:
496,216,164465,2,0,B|496:280|472:280|472:352,1,135
424,360,164987,1,0,0:0:0:0:
384,344,165117,2,0,L|272:344,1,90,0|0,1:0|0:0,0:0:0:0:
208,320,165639,6,0,P|168:344|104:320,1,90
88,320,166030,1,0,0:0:0:0:
72,280,166161,1,0,1:0:0:0:
152,240,166422,1,0,0:0:0:0:
240,208,166683,2,0,P|224:168|176:136,1,90
144,136,167074,1,0,0:0:0:0:
104,160,167204,1,0,1:0:0:0:
152,240,167465,1,0,0:0:0:0:
256,192,167726,12,0,169552,0:0:0:0:
256,192,169813,12,4,171900,0:0:0:0:
256,192,188596,5,4,0:0:0:0:
128,192,190683,5,0,0:0:0:0:
32,160,191074,2,0,P|72:104|136:88,1,135.000005149842
224,232,192248,1,0,0:0:0:0:
208,264,192378,1,0,0:0:0:0:
184,272,192509,1,0,0:0:0:0:
160,296,192639,1,0,0:0:0:0:
128,296,192770,1,0,0:0:0:0:
256,24,193813,5,0,0:0:0:0:
384,192,194856,5,0,0:0:0:0:
480,160,195248,2,0,P|440:104|376:88,1,135.000005149842
288,232,196421,1,0,0:0:0:0:
304,264,196551,1,0,0:0:0:0:
328,272,196682,1,0,0:0:0:0:
352,296,196812,1,0,0:0:0:0:
384,296,196943,1,0,0:0:0:0:
104,352,197987,5,0,0:0:0:0:
56,88,199030,1,0,0:0:0:0:
320,40,200074,1,0,0:0:0:0:
352,168,200596,1,0,0:0:0:0:
384,296,201117,1,0,0:0:0:0:
120,352,202161,1,0,0:0:0:0:
256,192,203204,12,4,207378,0:0:0:0:
232,64,207640,5,0,0:0:0:0:
192,80,207770,2,0,L|224:144,2,45,0|0|0,0:0|1:0|0:0,0:0:0:0:
152,64,208161,1,0,0:0:0:0:
104,72,208292,2,0,B|104:120|152:144|152:208,1,135
152,240,208814,1,0,0:0:0:0:
152,288,208944,2,0,P|192:320|232:320,1,90,0|0,1:0|0:0,0:0:0:0:
256,232,209466,6,0,P|294:233|334:265,1,90
352,304,209857,2,0,L|352:352,2,45,0|0|0,0:0|1:0|0:0,0:0:0:0:
392,288,210248,1,0,0:0:0:0:
424,256,210379,2,0,B|424:208|376:184|376:120,1,135
368,88,210901,1,0,0:0:0:0:
328,64,211031,1,0,1:0:0:0:
280,64,211161,1,0,0:0:0:0:
240,96,211292,1,0,0:0:0:0:
240,144,211422,1,0,0:0:0:0:
232,192,211553,6,0,P|184:224|144:216,1,90
120,192,211944,1,0,0:0:0:0:
80,176,212074,2,0,P|51:173|3:205,1,90,0|0,1:0|0:0,0:0:0:0:
0,248,212466,2,0,P|32:304|104:328,1,135
144,320,212987,1,0,0:0:0:0:
184,304,213118,2,0,P|232:288|272:304,1,90,0|0,1:0|0:0,0:0:0:0:
344,344,213640,6,0,P|400:344|440:312,1,90
408,288,214031,2,0,L|408:184,1,90,0|0,0:0|0:0,0:0:0:0:
408,104,214553,2,0,P|368:64|280:88,1,135
240,152,215205,1,0,1:0:0:0:
200,160,215335,1,0,0:0:0:0:
160,144,215466,1,0,0:0:0:0:
128,112,215596,1,0,0:0:0:0:
104,72,215727,6,0,P|32:104|24:128,1,90,4|0,0:0|0:0,0:0:0:0:
16,152,216118,2,0,L|16:224,1,45,0|0,0:0|1:0,0:0:0:0:
16,240,216379,1,0,0:0:0:0:
104,264,216640,2,0,P|160:256|216:312,1,135
240,344,217161,1,0,0:0:0:0:
264,304,217292,2,0,P|319:254|352:264,1,90,0|0,1:0|0:0,0:0:0:0:
408,216,217814,6,0,P|408:168|368:128,1,90
344,120,218205,2,0,L|344:72,2,45,0|0|0,0:0|1:0|0:0,0:0:0:0:
312,152,218596,1,0,0:0:0:0:
272,136,218727,2,0,P|208:120|176:176,1,135
184,216,219248,1,0,0:0:0:0:
192,264,219379,2,0,P|168:312|136:320,1,90,0|0,1:0|0:0,0:0:0:0:
56,264,219901,6,0,P|32:208|56:176,1,90
80,168,220292,1,0,0:0:0:0:
88,128,220422,1,0,1:0:0:0:
56,48,220683,1,0,0:0:0:0:
144,64,220944,2,0,P|184:96|232:88,1,90
264,80,221335,1,0,0:0:0:0:
304,96,221466,1,0,1:0:0:0:
336,176,221727,1,0,0:0:0:0:
256,192,221987,12,0,223814,0:0:0:0:
256,192,224074,12,4,226161,0:0:0:0:
