osu file format v12

[General]
AudioFilename: RIP=RELEASE.mp3
AudioLeadIn: 0
PreviewTime: 84216
Countdown: 0
SampleSet: Soft
StackLeniency: 0.7
Mode: 0
LetterboxInBreaks: 0
EpilepsyWarning: 1

[Editor]
Bookmarks: 34129,67520,84216,102998,119694,136390,153085,171868,188564,207346,226129
DistanceSpacing: 1.3
BeatDivisor: 4
GridSize: 8

[Metadata]
Title:RIP=RELEASE
TitleUnicode:RIP=RELEASE
Artist:Wotamin
ArtistUnicode:ヲタみん
Creator:Leorda
Version:Hard
Source:
Tags:megurine luka avtechno ryuuseiP
BeatmapID:241723
BeatmapSetID:88755

[Difficulty]
HPDrainRate:5
CircleSize:4
OverallDifficulty:6
ApproachRate:7
SliderMultiplier:1.5
SliderTickRate:2

[Events]
//Background and Video events
0,0,"RIP=RELEASE.jpg",0,0
//Break Periods
2,103230,118826
2,172100,187696
//Storyboard Layer 0 (Background)
//Storyboard Layer 1 (Fail)
//Storyboard Layer 2 (Pass)
//Storyboard Layer 3 (Foreground)
//Storyboard Sound Samples
//Background Colour Transformations
3,100,163,162,255

[TimingPoints]
770,521.739130434783,4,2,1,100,1,0
84248,-100,4,2,1,100,0,1
103030,-100,4,2,1,100,0,0
153117,-100,4,2,1,100,0,1
171900,-100,4,2,1,100,0,0
188596,-133.333333333333,4,2,1,70,0,0
207378,-100,4,2,1,100,0,1
226161,-100,4,2,1,100,0,0

[Colours]
Combo1 : 224,132,255
Combo2 : 255,159,207
Combo3 : 111,0,55

[HitObjects]
96,96,34161,6,0,P|88:136|112:192,1,75,4|0,0:0|0:0,0:0:0:0:
192,136,34683,2,0,P|232:128|288:152,1,75,0|0,1:0|0:0,0:0:0:0:
344,192,35204,1,0,0:0:0:0:
336,288,35465,1,0,0:0:0:0:
248,328,35726,2,0,P|208:336|152:312,1,75,0|0,1:0|0:0,0:0:0:0:
136,304,36117,1,0,0:0:0:0:
96,272,36248,6,0,P|40:248|8:256,2,75,0|0|0,0:0|0:0|1:0,0:0:0:0:
176,216,37030,2,0,P|216:208|272:232,1,75
344,240,37552,2,0,P|376:248|416:240,1,75,0|0,0:0|1:0,0:0:0:0:
488,176,38074,1,0,0:0:0:0:
464,136,38204,1,0,0:0:0:0:
440,96,38335,5,0,0:0:0:0:
360,40,38596,1,0,0:0:0:0:
280,96,38856,1,0,1:0:0:0:
208,160,39117,2,0,P|168:184|128:176,1,75
120,88,39639,2,0,P|160:64|200:72,1,75,0|0,0:0|1:0,0:0:0:0:
280,96,40161,1,0,0:0:0:0:
368,136,40422,6,0,P|368:184|336:216,1,75
264,240,40943,1,0,1:0:0:0:
208,160,41204,1,0,0:0:0:0:
280,96,41465,2,0,P|336:48|416:56,1,150,0|0,0:0|1:0,0:0:0:0:
472,128,42248,1,0,0:0:0:0:
456,224,42509,6,0,P|440:264|400:288,1,75
328,320,43030,1,0,1:0:0:0:
240,280,43291,2,0,P|176:256|88:264,1,150
8,312,44074,1,0,1:0:0:0:
80,376,44335,1,0,0:0:0:0:
128,360,44465,1,0,0:0:0:0:
160,328,44596,6,0,P|184:264|176:176,1,150,0|0,0:0|1:0,0:0:0:0:
96,128,45378,1,0,0:0:0:0:
24,56,45639,2,0,P|88:24|176:64,1,150,0|0,0:0|1:0,0:0:0:0:
248,96,46422,1,0,0:0:0:0:
336,144,46683,6,0,P|296:184|256:192,2,75,0|0|0,0:0|0:0|1:0,0:0:0:0:
432,168,47465,2,0,P|392:232|312:280,1,150
232,272,48248,1,0,1:0:0:0:
152,224,48509,1,0,0:0:0:0:
80,160,48770,6,0,P|40:136|0:136,2,75,0|0|0,0:0|0:0|1:0,0:0:0:0:
16,232,49552,1,0,0:0:0:0:
88,296,49813,1,0,1:0:0:0:
152,224,50074,1,0,1:0:0:0:
208,144,50335,2,0,L|240:104,4,37.5,0|0|0|0|4,1:0|1:0|1:0|1:0|1:2,0:0:0:0:
152,224,51117,5,0,0:0:0:0:
183,316,51378,1,0,1:0:0:0:
264,272,51639,2,0,P|304:256|344:264,1,75
408,328,52161,2,0,P|438:332|478:316,1,75,0|0,0:0|1:0,0:0:0:0:
496,224,52683,1,0,0:0:0:0:
496,176,52813,1,0,0:0:0:0:
472,128,52943,6,0,P|432:80|336:56,1,150,0|0,0:0|1:0,0:0:0:0:
296,136,53726,1,0,0:0:0:0:
240,216,53987,2,0,P|158:190|118:142,1,150,0|0,0:0|1:0,0:0:0:0:
88,48,54770,1,0,0:0:0:0:
32,128,55030,6,0,P|40:176|72:208,1,75
128,264,55552,1,0,1:0:0:0:
200,328,55813,2,0,P|272:304|352:344,1,150
432,360,56596,1,0,1:0:0:0:
496,288,56856,1,0,0:0:0:0:
408,240,57117,6,0,P|384:168|424:88,1,150,0|0,0:0|1:0,0:0:0:0:
488,40,57900,1,0,0:0:0:0:
472,136,58161,2,0,P|400:160|320:120,1,150,0|0,0:0|1:0,0:0:0:0:
264,64,58943,1,0,0:0:0:0:
176,32,59204,6,0,P|128:24|88:32,1,75
32,96,59726,1,0,1:0:0:0:
128,112,59987,2,0,P|152:184|112:264,1,150,0|0,0:0|0:0,0:0:0:0:
24,272,60770,1,0,1:0:0:0:
32,176,61030,1,0,0:0:0:0:
72,144,61161,1,0,0:0:0:0:
120,136,61291,6,0,P|192:112|272:152,1,150,0|0,0:0|1:0,0:0:0:0:
328,208,62074,1,0,0:0:0:0:
376,296,62335,2,0,P|376:336|352:368,2,75,0|0|0,0:0|0:0|1:0,0:0:0:0:
424,208,63117,1,0,0:0:0:0:
504,152,63378,6,0,P|529:85|505:13,1,150,0|0,0:0|1:0,0:0:0:0:
416,56,64161,1,0,0:0:0:0:
328,104,64422,2,0,P|304:176|329:242,1,150,0|0,0:0|1:0,0:0:0:0:
400,296,65204,1,0,0:0:0:0:
312,344,65465,5,0,0:0:0:0:
312,344,65726,1,0,0:0:0:0:
216,320,65987,1,0,1:0:0:0:
216,320,66248,1,0,0:0:0:0:
128,272,66509,1,0,1:0:0:0:
104,176,66770,1,0,1:0:0:0:
144,88,67030,2,0,L|112:64,4,37.5,0|0|0|0|4,1:0|1:0|1:0|1:0|1:2,0:0:0:0:
200,168,67813,5,0,0:0:0:0:
280,216,68074,2,0,P|328:216|352:184,1,75,0|0,1:0|0:0,0:0:0:0:
368,104,68596,2,0,P|320:104|296:136,1,75
280,216,69117,1,0,1:0:0:0:
344,288,69378,1,0,0:0:0:0:
432,328,69639,6,0,P|496:256|480:208,1,150,0|0,0:0|1:0,0:0:0:0:
440,128,70422,1,0,0:0:0:0:
344,128,70683,2,0,P|301:140|229:76,1,150,0|0,0:3|1:3,0:3:0:0:
320,32,71465,1,0,0:0:0:0:
344,128,71726,6,0,P|344:176|320:208,1,75
245,278,72248,2,0,P|232:256|232:208,1,75,0|0,1:0|0:0,0:0:0:0:
344,288,72770,2,0,P|312:352|216:360,1,150,0|0,0:0|1:0,0:0:0:0:
152,336,73552,1,0,0:0:0:0:
104,248,73813,6,0,P|80:208|88:160,1,75
128,96,74335,1,0,1:0:0:0:
216,144,74596,2,0,P|288:184|344:136,1,150
408,88,75378,1,0,1:0:0:0:
464,168,75639,1,0,0:0:0:0:
456,264,75900,6,0,P|432:304|328:296,1,150,4|0,0:0|1:0,0:0:0:0:
248,264,76683,1,0,0:0:0:0:
160,312,76943,2,0,P|64:312|41:270,1,150,0|0,0:0|1:0,0:0:0:0:
40,176,77726,1,0,0:0:0:0:
128,144,77987,6,0,P|160:104|152:72,1,75
56,80,78509,1,0,1:0:0:0:
40,176,78770,2,0,P|80:224|184:216,1,150
256,192,79552,1,0,1:0:0:0:
352,216,79813,1,0,0:0:0:0:
440,256,80074,6,0,P|408:296|368:304,1,75
352,216,80596,2,0,P|384:176|424:168,1,75,0|0,1:0|0:0,0:0:0:0:
480,104,81117,1,0,0:0:0:0:
384,80,81378,2,0,P|344:96|312:136,1,75,0|0,0:0|1:0,0:0:0:0:
256,192,81900,1,0,0:0:0:0:
216,280,82161,5,4,1:2:0:0:
80,224,82552,1,0,1:0:0:0:
144,88,82943,1,0,1:0:0:0:
280,144,83335,1,0,1:0:0:0:
216,280,83726,6,0,L|200:320,4,37.5,0|0|0|0|4,1:0|1:0|1:0|1:0|1:2,0:0:0:0:
312,304,84509,1,0,0:0:0:0:
376,232,84770,2,0,P|416:192|456:184,2,75,0|0|0,1:0|0:0|0:0,0:0:0:0:
400,328,85552,1,0,0:0:0:0:
312,304,85813,2,0,P|280:264|280:232,1,75,0|0,1:0|0:0,0:0:0:0:
232,152,86335,6,0,P|176:120|96:160,1,150,0|0,0:0|1:0,0:0:0:0:
168,224,87117,1,0,0:0:0:0:
232,296,87378,2,0,P|158:327|102:295,1,150,0|0,0:0|1:0,0:0:0:0:
72,256,88030,1,0,0:0:0:0:
56,208,88161,1,0,0:0:0:0:
48,112,88422,6,0,P|48:64|72:40,1,75
152,88,88943,1,0,1:0:0:0:
216,168,89204,1,0,0:0:0:0:
280,240,89465,2,0,P|336:264|424:240,1,150,0|0,0:0|1:0,0:0:0:0:
472,160,90248,1,0,0:0:0:0:
432,72,90509,6,0,P|400:48|352:48,1,75
312,120,91030,2,0,P|344:144|392:144,1,75,0|0,1:0|0:0,0:0:0:0:
472,160,91552,2,0,P|488:216|416:272,1,150,0|0,0:0|1:0,0:0:0:0:
376,272,92204,1,0,0:0:0:0:
336,248,92335,1,0,0:0:0:0:
248,208,92596,6,0,P|184:208|160:288,1,150,4|0,0:0|1:0,0:0:0:0:
256,304,93378,1,0,0:0:0:0:
336,248,93639,2,0,P|344:192|288:120,1,150,0|0,0:0|1:0,0:0:0:0:
192,104,94422,1,0,0:0:0:0:
104,152,94683,6,0,P|72:176|56:216,1,75
96,240,95074,1,0,0:0:0:0:
144,256,95204,2,0,P|176:232|192:192,1,75,0|0,1:0|0:0,0:0:0:0:
192,104,95726,2,0,P|232:56|320:48,1,150,0|0,0:0|1:0,0:0:0:0:
392,112,96509,1,0,0:0:0:0:
328,184,96770,6,0,P|328:240|392:312,1,150,0|0,0:0|1:0,0:0:0:0:
472,360,97552,1,0,0:0:0:0:
504,272,97813,2,0,P|504:216|445:146,1,150,0|0,0:0|1:0,0:0:0:0:
256,192,98856,12,4,103030,0:0:0:0:
256,192,119726,5,4,0:0:0:0:
184,128,119987,1,0,0:0:0:0:
168,224,120248,2,0,P|128:256|96:256,2,75,0|0|0,1:0|0:0|0:0,0:0:0:0:
184,128,121030,1,0,0:0:0:0:
200,32,121291,2,0,P|256:16|288:40,1,75,0|0,1:0|0:0,0:0:0:0:
296,64,121683,1,0,0:0:0:0:
304,112,121813,6,0,P|336:176|424:200,1,150,0|0,0:0|1:0,0:0:0:0:
480,136,122596,1,0,0:0:0:0:
384,128,122856,2,0,P|320:160|296:248,1,150,0|0,0:0|1:0,0:0:0:0:
328,320,123639,1,0,0:0:0:0:
408,264,123900,6,0,P|448:224|488:224,2,75,0|0|0,0:0|0:0|1:0,0:0:0:0:
328,320,124683,1,0,0:0:0:0:
240,288,124943,1,0,0:0:0:0:
176,216,125204,2,0,P|136:192|104:200,1,75,0|0,0:0|1:0,0:0:0:0:
120,296,125726,1,0,0:0:0:0:
176,216,125987,6,0,P|200:136|160:80,1,150,0|0,0:0|1:0,0:0:0:0:
72,72,126770,1,0,0:0:0:0:
128,152,127030,2,0,P|208:144|256:96,1,150,0|0,0:0|1:0,0:0:0:0:
296,8,127813,1,0,0:0:0:0:
392,40,128074,5,0,0:0:0:0:
432,128,128335,1,0,0:0:0:0:
392,216,128596,1,0,1:0:0:0:
304,256,128856,2,0,P|272:224|232:224,1,75
192,304,129378,2,0,P|224:336|264:336,1,75,0|0,0:0|1:0,0:0:0:0:
304,256,129900,1,0,0:0:0:0:
328,216,130030,1,0,0:0:0:0:
328,168,130161,6,0,P|256:136|176:144,1,150,0|0,0:0|1:0,0:0:0:0:
88,160,130943,1,0,0:0:0:0:
163,230,131204,2,0,P|235:262|315:254,1,150,0|0,0:0|1:0,0:0:0:0:
400,224,131987,1,0,0:0:0:0:
456,144,132248,6,0,P|456:96|432:72,1,75
352,40,132770,1,0,1:0:0:0:
264,80,133030,2,0,P|208:72|176:48,2,75
352,40,133813,1,0,1:0:0:0:
352,136,134074,1,0,0:0:0:0:
264,176,134335,6,0,P|216:184|184:160,1,75
163,79,134856,2,0,P|211:71|243:95,1,75,0|0,1:0|0:0,0:0:0:0:
194,173,135378,2,0,P|146:181|114:157,1,75
92,76,135900,2,0,P|140:68|176:96,1,75,0|0,1:0|0:0,0:0:0:0:
194,172,136422,5,4,0:0:0:0:
176,264,136683,1,0,0:0:0:0:
240,336,136943,2,0,P|328:352|384:296,1,150,0|0,1:0|0:0,0:0:0:0:
320,232,137726,1,0,0:0:0:0:
304,136,137987,2,0,P|312:96|336:72,1,75,0|0,1:0|0:0,0:0:0:0:
432,72,138509,6,0,L|248:72,1,150,0|0,0:0|1:0,0:0:0:0:
208,136,139291,1,0,0:0:0:0:
208,232,139552,2,0,P|192:288|176:296,1,75
96,240,140074,2,0,P|112:184|128:176,1,75,0|0,1:0|0:0,0:0:0:0:
208,136,140596,6,0,P|296:160|312:240,1,150,0|0,0:0|1:0,0:0:0:0:
320,304,141378,1,0,0:0:0:0:
232,344,141639,2,0,P|144:320|128:240,1,150,0|0,0:0|1:0,0:0:0:0:
128,176,142422,1,0,0:0:0:0:
112,80,142683,6,0,P|96:40|48:24,1,75
16,104,143204,1,0,1:0:0:0:
40,200,143465,1,0,0:0:0:0:
128,176,143726,2,0,P|192:192|184:272,1,150,0|0,0:0|1:0,0:0:0:0:
112,320,144509,1,0,0:0:0:0:
200,360,144770,6,0,P|264:328|336:368,1,150,4|0,0:0|1:0,0:0:0:0:
416,320,145552,2,0,P|392:280|288:240,1,150
304,144,146335,2,0,P|352:144|400:168,1,75,0|0,1:0|0:0,0:0:0:0:
456,224,146856,5,0,0:0:0:0:
472,128,147117,1,0,0:0:0:0:
400,64,147378,1,0,1:0:0:0:
304,56,147639,2,0,P|232:88|160:40,1,150
80,40,148422,1,0,1:0:0:0:
16,112,148683,1,0,0:0:0:0:
80,184,148943,6,0,P|112:240|96:328,1,150,0|0,0:0|1:0,0:0:0:0:
32,256,149726,2,0,L|200:224,1,150
272,200,150509,1,0,1:0:0:0:
288,104,150770,1,0,0:0:0:0:
368,160,151030,5,4,1:2:0:0:
288,280,151422,1,0,1:0:0:0:
200,160,151813,1,0,1:0:0:0:
288,40,152204,1,0,1:0:0:0:
368,160,152596,6,0,L|368:200,4,37.5,0|0|0|0|4,1:0|1:0|1:0|1:0|1:2,0:0:0:0:
416,72,153378,1,0,0:0:0:0:
464,160,153639,2,0,L|464:312|464:312,1,150,0|0,1:0|0:0,0:0:0:0:
368,336,154422,1,0,0:0:0:0:
272,360,154683,2,0,L|272:208|272:208,1,150,0|0,1:0|0:0,0:0:0:0:
248,120,155465,5,0,0:0:0:0:
160,88,155726,1,0,1:0:0:0:
80,144,155987,1,0,0:0:0:0:
144,216,156248,2,0,P|120:264|32:280,1,150,0|0,0:0|1:0,0:0:0:0:
8,240,156900,1,0,0:0:0:0:
0,192,157030,1,0,0:0:0:0:
80,144,157291,6,0,P|48:96|8:88,2,75,0|0|0,0:0|0:0|1:0,0:0:0:0:
48,240,158074,1,0,0:0:0:0:
144,216,158335,2,0,P|216:208|256:288,1,150,0|0,0:0|1:0,0:0:0:0:
200,344,159117,1,0,0:0:0:0:
296,360,159378,6,0,P|400:368|448:336,1,150,0|0,0:0|1:0,0:0:0:0:
400,256,160161,1,0,0:0:0:0:
336,184,160422,2,0,P|314:147|322:43,1,150,0|0,0:0|1:0,0:0:0:0:
368,56,161074,1,0,0:0:0:0:
408,88,161204,1,0,0:0:0:0:
456,176,161465,5,4,0:0:0:0:
400,256,161726,1,0,0:0:0:0:
304,280,161987,2,0,P|264:256|248:224,2,75,0|0|0,1:0|0:0|0:0,0:0:0:0:
336,184,162770,1,0,0:0:0:0:
280,104,163030,2,0,P|240:80|200:80,1,75,0|0,1:0|0:0,0:0:0:0:
216,176,163552,6,0,P|168:144|80:160,1,150,0|0,0:0|1:0,0:0:0:0:
40,248,164335,1,0,0:0:0:0:
120,304,164596,2,0,P|96:336|48:344,1,75
40,248,165117,2,0,P|80:216|120:216,1,75,0|0,1:0|0:0,0:0:0:0:
192,256,165639,6,0,P|264:288|344:256,1,150,0|0,0:0|1:0,0:0:0:0:
408,208,166422,1,0,0:0:0:0:
352,128,166683,2,0,P|280:96|200:128,1,150,0|0,0:0|1:0,0:0:0:0:
256,192,167726,12,4,171900,0:0:0:0:
256,192,188596,5,4,0:0:0:0:
176,336,190683,5,0,0:0:0:0:
256,336,191726,1,0,0:0:0:0:
336,336,192770,5,0,0:0:0:0:
256,192,193813,1,0,0:0:0:0:
296,48,194856,1,0,0:0:0:0:
216,48,195899,1,0,0:0:0:0:
256,48,196943,5,0,0:0:0:0:
32,192,197987,1,0,0:0:0:0:
256,352,199030,1,0,0:0:0:0:
480,192,200074,1,0,0:0:0:0:
256,24,201117,5,0,0:0:0:0:
256,192,202161,1,0,0:0:0:0:
256,192,203204,12,4,207378,0:0:0:0:
200,80,207639,5,0,0:0:0:0:
136,152,207900,2,0,P|96:192|56:200,2,75,0|0|0,1:0|0:0|0:0,0:0:0:0:
112,56,208682,1,0,0:0:0:0:
200,80,208943,2,0,P|232:120|232:152,1,75,0|0,1:0|0:0,0:0:0:0:
280,232,209465,6,0,P|344:272|400:208,1,150,0|0,0:0|1:0,0:0:0:0:
352,144,210247,1,0,0:0:0:0:
312,56,210508,2,0,P|365:17|429:57,1,150,0|0,0:0|1:0,0:0:0:0:
456,96,211160,1,0,0:0:0:0:
464,152,211291,1,0,0:0:0:0:
464,248,211552,6,0,P|464:296|440:320,1,75
352,296,212073,1,0,1:0:0:0:
296,216,212334,1,0,0:0:0:0:
232,144,212595,2,0,P|176:120|88:144,1,150,0|0,0:0|1:0,0:0:0:0:
40,224,213378,1,0,0:0:0:0:
80,312,213639,6,0,P|112:336|160:336,1,75
200,264,214161,2,0,P|168:240|104:232,1,75,0|0,1:0|0:0,0:0:0:0:
40,224,214682,2,0,P|24:168|96:112,1,150,0|0,0:0|1:0,0:0:0:0:
136,112,215334,1,0,0:0:0:0:
176,136,215465,1,0,0:0:0:0:
264,176,215726,6,0,P|328:176|352:96,1,150,4|0,0:0|1:0,0:0:0:0:
256,80,216508,1,0,0:0:0:0:
176,136,216769,2,0,P|168:192|224:264,1,150,0|0,0:0|1:0,0:0:0:0:
320,280,217552,1,0,0:0:0:0:
408,232,217813,6,0,P|440:208|456:168,1,75
368,128,218335,2,0,P|336:152|320:192,1,75,0|0,1:0|0:0,0:0:0:0:
320,280,218856,2,0,P|280:328|192:336,1,150,0|0,0:0|1:0,0:0:0:0:
120,272,219639,1,0,0:0:0:0:
184,200,219900,6,0,P|184:144|120:72,1,150,0|0,0:0|1:0,0:0:0:0:
40,24,220682,1,0,0:0:0:0:
8,112,220943,2,0,P|8:168|67:238,1,150,0|0,0:0|1:0,0:0:0:0:
256,192,221986,12,4,226160,0:0:0:0:
