osu file format v12

[General]
AudioFilename: O_T_Nver_.mp3
AudioLeadIn: 2000
PreviewTime: 41657
Countdown: 1
SampleSet: None
StackLeniency: 0.7
Mode: 0
LetterboxInBreaks: 1

[Editor]
DistanceSpacing: 1.5
BeatDivisor: 4
GridSize: 4

[Metadata]
Title:Gigantic O.T.N
TitleUnicode:Gigantic O.T.N
Artist:Wotamin
ArtistUnicode:Wotamin
Creator:caren_sk
Version:PainSinger AR10
Source:Nico Nico Douga
Tags:len nico douga vocaloid gigantic o.t.n Aqo
BeatmapID:246241
BeatmapSetID:79696

[Difficulty]
HPDrainRate:5
CircleSize:4
OverallDifficulty:8
ApproachRate:10
SliderMultiplier:2.5
SliderTickRate:1

[Events]
//Background and Video events
0,0,"BG.jpg",0,0
//Break Periods
//Storyboard Layer 0 (Background)
//Storyboard Layer 1 (Fail)
//Storyboard Layer 2 (Pass)
//Storyboard Layer 3 (Foreground)
//Storyboard Sound Samples
//Background Colour Transformations
3,100,163,162,255

[TimingPoints]
1306,315.789473684211,4,1,1,80,1,0
11411,-111.111111111111,4,2,1,100,0,0
41727,-100,4,1,1,90,0,1
64463,-111.111111111111,4,1,1,100,0,0
74411,-111.111111111111,4,2,1,100,0,0
94779,-200,4,1,1,80,0,0
106148,-100,4,1,1,90,0,1
128884,-100,4,1,1,90,0,0
139937,-66.6666666666667,4,1,1,90,0,0
142779,-80,4,1,1,90,0,0
148148,-66.6666666666667,4,1,1,90,0,0
149174,-66.6666666666667,4,2,0,70,0,0
150358,-80,4,1,1,90,0,1
170569,-80,4,1,1,90,0,0
170884,-80,4,1,1,90,0,1
171200,-80,4,1,1,90,0,0
171516,-80,4,1,1,90,0,1
171832,-80,4,1,1,90,0,0
172148,-80,4,1,1,90,0,1
172463,-80,4,1,1,90,0,0
172779,-80,4,1,1,90,0,1
173095,-80,4,1,1,90,0,0
173411,-80,4,1,1,90,0,1
173569,-80,4,1,1,90,0,0
175306,-80,4,1,1,90,0,1
175621,-71.4285714285714,4,1,1,80,0,0
180200,-80,4,1,1,80,0,0
182569,-71.4285714285714,4,1,1,90,0,0

[Colours]
Combo1 : 255,79,74
Combo2 : 15,255,15
Combo3 : 0,43,242
Combo4 : 255,40,255

[HitObjects]
152,120,674,2,0,P|256:60|360:120,1,250,0|4,0:0|0:0,0:0:0:0:
256,292,1306,5,4,0:0:0:0:
300,316,1384,1,0,0:0:0:0:
348,328,1463,1,0,0:0:0:0:
396,320,1542,1,0,0:0:0:0:
440,292,1621,1,8,0:0:0:0:
348,252,1779,1,0,0:0:0:0:
440,212,1937,5,2,0:0:0:0:
396,184,2016,1,0,0:0:0:0:
348,176,2095,1,0,0:0:0:0:
300,188,2174,1,0,0:0:0:0:
256,212,2252,1,8,0:0:0:0:
164,252,2411,5,8,0:0:0:0:
112,252,2490,1,0,0:0:0:0:
60,252,2569,1,10,0:0:0:0:
56,152,2727,1,8,0:0:0:0:
108,152,2806,1,0,0:0:0:0:
156,152,2884,1,8,0:0:0:0:
108,64,3042,5,0,0:0:0:0:
356,108,3200,1,2,0:0:0:0:
428,348,3358,1,0,0:0:0:0:
180,308,3516,1,8,0:0:0:0:
356,108,3674,1,0,0:0:0:0:
360,208,3832,6,0,P|340:264|280:288,1,125,4|0,0:0|0:0,0:0:0:0:
212,216,4148,2,0,P|232:160|292:136,1,125,8|0,0:0|0:0,0:0:0:0:
388,120,4463,2,0,P|368:64|308:40,1,125,2|0,0:0|0:0,0:0:0:0:
260,52,4700,1,0,0:0:0:0:
220,80,4779,1,8,0:0:0:0:
124,52,4937,5,8,0:0:0:0:
80,76,5016,1,0,0:0:0:0:
68,124,5095,1,8,0:0:0:0:
168,140,5253,1,8,0:0:0:0:
156,188,5332,1,0,0:0:0:0:
112,212,5411,1,8,0:0:0:0:
80,252,5490,1,0,0:0:0:0:
76,300,5569,1,0,0:0:0:0:
104,340,5648,1,0,0:0:0:0:
148,360,5727,1,2,0:0:0:0:
196,352,5806,1,0,0:0:0:0:
244,336,5884,2,0,L|292:292,3,62.5,0|0|8|0,0:0|0:0|0:0|0:0,0:0:0:0:
440,280,6358,5,4,0:0:0:0:
408,240,6437,1,0,0:0:0:0:
440,200,6516,1,0,0:0:0:0:
404,108,6674,1,8,0:0:0:0:
324,48,6832,1,0,0:0:0:0:
240,104,6990,1,2,0:0:0:0:
200,76,7069,1,0,0:0:0:0:
152,64,7148,1,0,0:0:0:0:
104,80,7227,1,0,0:0:0:0:
68,116,7306,1,8,0:0:0:0:
56,164,7384,1,0,0:0:0:0:
72,212,7463,1,0,0:0:0:0:
164,172,7621,6,0,L|208:216,4,62.5,2|0|0|0|8,0:0|0:0|0:0|0:0|0:0,0:0:0:0:
140,268,8095,1,0,0:0:0:0:
380,340,8253,1,2,0:0:0:0:
300,104,8411,1,0,0:0:0:0:
244,348,8569,1,8,0:0:0:0:
420,172,8727,1,0,0:0:0:0:
180,108,8884,1,2,0:0:0:0:
208,204,9042,5,8,0:0:0:0:
252,224,9121,1,0,0:0:0:0:
300,204,9200,1,8,0:0:0:0:
256,112,9358,1,8,0:0:0:0:
300,92,9437,1,0,0:0:0:0:
348,112,9516,1,8,0:0:0:0:
388,204,9674,6,0,P|380:264|328:296,1,125,0|8,0:0|0:0,0:0:0:0:
228,296,9990,2,0,P|176:264|168:204,1,125,0|2,0:0|0:0,0:0:0:0:
68,204,10306,5,0,0:0:0:0:
36,164,10384,1,0,0:0:0:0:
28,116,10463,1,8,0:0:0:0:
36,68,10542,1,0,0:0:0:0:
68,32,10621,1,0,0:0:0:0:
256,36,10779,5,4,0:0:0:0:
256,348,11095,1,4,0:0:0:0:
356,328,11253,6,0,P|416:308|436:252,1,125,0|4,0:0|0:0,0:0:0:0:
436,164,11569,1,0,0:0:0:0:
348,184,11727,1,0,0:0:0:0:
376,100,11884,1,0,0:0:0:0:
288,116,12042,1,0,0:0:0:0:
260,200,12200,2,0,P|232:244|176:256,1,112.499996566773,0|0,0:0|0:0,0:0:0:0:
92,220,12516,2,0,P|120:176|176:164,1,112.499996566773,0|0,0:0|0:0,0:0:0:0:
176,256,12832,2,0,P|148:300|92:312,1,112.499996566773,0|0,0:0|0:0,0:0:0:0:
20,256,13148,1,0,0:0:0:0:
28,168,13306,2,0,P|88:76|196:56,1,224.999993133545,4|0,0:0|0:0,0:0:0:0:
192,144,13779,6,0,P|252:136|280:96,1,112.499996566773,0|0,0:0|0:0,0:0:0:0:
460,144,14095,2,0,P|400:136|372:96,1,112.499996566773
460,236,14411,2,0,P|400:244|372:284,1,112.499996566773,0|0,0:0|0:0,0:0:0:0:
192,240,14727,2,0,P|252:248|280:288,1,112.499996566773,0|0,0:0|0:0,0:0:0:0:
324,208,15042,5,2,0:0:0:0:
324,164,15121,1,0,0:0:0:0:
324,120,15200,1,2,0:0:0:0:
100,120,15358,1,0,0:0:0:0:
100,76,15437,1,0,0:0:0:0:
100,32,15516,1,2,0:0:0:0:
212,128,15674,1,0,0:0:0:0:
108,192,15832,5,4,0:0:0:0:
256,360,15990,1,4,0:0:0:0:
404,192,16148,1,4,0:0:0:0:
256,292,16463,6,0,L|256:176,1,112.499996566773,4|0,0:0|0:0,0:0:0:0:
324,120,16779,1,0,0:0:0:0:
188,120,16937,1,0,0:0:0:0:
340,192,17095,1,0,0:0:0:0:
172,192,17253,1,0,0:0:0:0:
356,264,17411,1,0,0:0:0:0:
156,264,17569,1,0,0:0:0:0:
68,288,17727,6,0,P|24:192|68:88,1,224.999993133545,0|0,0:0|0:0,0:0:0:0:
184,32,18200,1,0,0:0:0:0:
320,32,18358,1,0,0:0:0:0:
444,88,18516,2,0,P|488:192|444:288,1,224.999993133545
364,332,18990,5,4,0:0:0:0:
320,344,19069,1,0,0:0:0:0:
276,332,19148,1,0,0:0:0:0:
320,252,19306,1,0,0:0:0:0:
300,212,19384,1,0,0:0:0:0:
260,192,19463,1,0,0:0:0:0:
236,152,19542,1,0,0:0:0:0:
196,128,19621,1,0,0:0:0:0:
168,92,19700,1,0,0:0:0:0:
128,68,19779,2,0,P|80:96|64:148,1,112.499996566773
128,212,20095,1,0,0:0:0:0:
308,344,20253,6,0,L|196:344,1,112.499996566773,4|0,0:0|0:0,0:0:0:0:
196,40,20569,2,0,L|308:40,1,112.499996566773,4|0,0:0|0:0,0:0:0:0:
308,304,20884,2,0,L|196:304,1,112.499996566773,4|0,0:0|0:0,0:0:0:0:
196,80,21200,2,0,L|308:80,1,112.499996566773,4|0,0:0|0:0,0:0:0:0:
392,204,21516,6,0,P|414:153|390:105,1,112.499996566773,0|0,0:0|0:0,0:0:0:0:
320,60,21832,1,0,0:0:0:0:
232,44,21990,1,0,0:0:0:0:
144,56,22148,1,0,0:0:0:0:
68,104,22306,2,0,P|44:152|68:204,1,112.499996566773,0|0,0:0|0:0,0:0:0:0:
64,292,22621,2,0,P|124:280|148:236,1,112.499996566773
152,148,22937,2,0,P|208:160|232:208,1,112.499996566773,0|0,0:0|0:0,0:0:0:0:
256,292,23253,1,0,0:0:0:0:
256,292,23332,1,0,0:0:0:0:
256,292,23411,1,0,0:0:0:0:
328,236,23569,1,0,0:0:0:0:
400,292,23727,1,0,0:0:0:0:
464,124,24042,5,4,0:0:0:0:
436,88,24121,1,0,0:0:0:0:
392,76,24200,1,0,0:0:0:0:
304,64,24358,2,0,P|256:36|212:64,1,112.499996566773,0|0,0:0|0:0,0:0:0:0:
120,76,24674,1,0,0:0:0:0:
76,88,24753,1,0,0:0:0:0:
44,120,24832,1,0,0:0:0:0:
36,164,24911,1,0,0:0:0:0:
48,208,24990,1,0,0:0:0:0:
124,160,25148,1,0,0:0:0:0:
208,192,25306,6,0,L|288:272,1,112.499996566773,4|0,0:0|0:0,0:0:0:0:
304,184,25621,2,0,L|384:104,1,112.499996566773,2|0,0:0|0:0,0:0:0:0:
400,192,25937,2,0,L|480:272,1,112.499996566773,2|0,0:0|0:0,0:0:0:0:
392,288,26253,2,0,L|312:368,1,112.499996566773,2|0,0:0|0:0,0:0:0:0:
256,296,26569,5,0,0:0:0:0:
56,192,26727,1,0,0:0:0:0:
256,96,26884,1,0,0:0:0:0:
460,192,27042,1,0,0:0:0:0:
256,264,27200,1,0,0:0:0:0:
88,192,27358,1,0,0:0:0:0:
256,128,27516,1,0,0:0:0:0:
428,192,27674,1,0,0:0:0:0:
336,192,27832,6,0,L|224:192,1,112.499996566773,4|0,0:0|0:0,0:0:0:0:
148,144,28148,2,0,P|124:192|148:244,1,112.499996566773,0|0,0:0|0:0,0:0:0:0:
212,304,28463,1,0,0:0:0:0:
296,340,28621,1,0,0:0:0:0:
380,304,28779,1,0,0:0:0:0:
444,240,28937,2,0,P|468:192|442:141,1,112.499996566773
368,192,29253,1,0,0:0:0:0:
276,192,29411,1,0,0:0:0:0:
256,104,29569,6,0,L|144:104,1,112.499996566773
92,176,29884,2,0,L|204:176,1,112.499996566773
256,252,30200,2,0,L|144:252,1,112.499996566773
96,332,30516,5,0,0:0:0:0:
188,332,30674,1,0,0:0:0:0:
280,332,30832,1,0,0:0:0:0:
372,332,30990,2,0,P|424:312|440:260,1,112.499996566773
440,172,31306,1,0,0:0:0:0:
440,84,31463,1,0,0:0:0:0:
256,212,31621,5,8,0:0:0:0:
104,48,31779,1,0,0:0:0:0:
284,184,31937,1,8,0:0:0:0:
84,80,32095,1,0,0:0:0:0:
300,148,32253,1,8,0:0:0:0:
76,124,32411,1,0,0:0:0:0:
300,116,32569,1,8,0:0:0:0:
80,160,32727,1,0,0:0:0:0:
292,84,32884,1,8,0:0:0:0:
96,192,33042,1,0,0:0:0:0:
272,52,33200,1,8,0:0:0:0:
116,216,33358,1,0,0:0:0:0:
248,32,33516,1,8,0:0:0:0:
212,256,33674,5,8,0:0:0:0:
224,300,33753,1,0,0:0:0:0:
240,344,33832,1,8,0:0:0:0:
300,276,33990,1,0,0:0:0:0:
476,136,34148,5,8,0:0:0:0:
256,192,34306,1,0,0:0:0:0:
88,44,34463,1,8,0:0:0:0:
304,112,34621,1,0,0:0:0:0:
384,324,34779,1,8,0:0:0:0:
176,236,34937,1,0,0:0:0:0:
20,76,35095,1,8,0:0:0:0:
244,40,35253,1,0,0:0:0:0:
388,212,35411,1,8,0:0:0:0:
192,320,35569,1,0,0:0:0:0:
84,120,35727,1,8,0:0:0:0:
296,188,35884,1,0,0:0:0:0:
108,308,36042,1,8,0:0:0:0:
156,88,36200,5,8,0:0:0:0:
192,112,36279,1,0,0:0:0:0:
232,136,36358,1,8,0:0:0:0:
152,180,36516,1,0,0:0:0:0:
312,340,36674,6,0,L|404:272,1,112.499996566773,4|0,0:0|0:0,0:0:0:0:
404,48,36990,1,0,0:0:0:0:
216,176,37148,1,0,0:0:0:0:
12,272,37306,2,0,L|104:340,1,112.499996566773,4|0,0:0|0:0,0:0:0:0:
288,208,37621,1,0,0:0:0:0:
128,48,37779,1,0,0:0:0:0:
340,120,37937,2,0,L|248:52,1,112.499996566773,4|0,0:0|0:0,0:0:0:0:
108,232,38253,2,0,L|200:300,1,112.499996566773,4|0,0:0|0:0,0:0:0:0:
60,120,38569,2,0,L|136:36,1,112.499996566773,4|0,0:0|0:0,0:0:0:0:
392,236,38884,2,0,L|324:332,1,112.499996566773,4|0,0:0|0:0,0:0:0:0:
196,144,39200,6,0,L|236:104,1,56.2499982833863,4|0,0:0|0:0,0:0:0:0:
284,208,39358,2,0,L|244:248,1,56.2499982833863,4|0,0:0|0:0,0:0:0:0:
132,236,39516,2,0,L|92:196,1,56.2499982833863,4|0,0:0|0:0,0:0:0:0:
108,84,39674,2,0,L|148:44,1,56.2499982833863,4|0,0:0|0:0,0:0:0:0:
260,32,39832,5,4,0:0:0:0:
304,48,39911,1,0,0:0:0:0:
340,72,39990,1,0,0:0:0:0:
372,104,40069,1,0,0:0:0:0:
396,140,40148,1,0,0:0:0:0:
412,180,40227,1,0,0:0:0:0:
420,224,40306,1,0,0:0:0:0:
376,304,40463,5,4,0:0:0:0:
196,304,40779,1,4,0:0:0:0:
92,156,41095,1,4,0:0:0:0:
304,100,41411,5,0,0:0:0:0:
284,300,41727,5,4,0:0:0:0:
272,252,41806,1,0,0:0:0:0:
228,228,41884,1,0,0:0:0:0:
184,252,41963,1,0,0:0:0:0:
176,300,42042,1,8,0:0:0:0:
88,256,42200,1,0,0:0:0:0:
92,156,42358,2,0,B|92:104|116:72|116:72|152:64,1,125,2|0,0:0|0:0,0:0:0:0:
360,64,42674,2,0,B|396:72|396:72|420:104|420:156,1,125,8|0,0:0|0:0,0:0:0:0:
256,192,42990,1,0,0:0:0:0:
256,120,43148,1,0,0:0:0:0:
256,264,43306,1,8,0:0:0:0:
352,232,43463,2,0,P|384:288|380:348,1,125,0|2,0:0|0:0,0:0:0:0:
160,232,43779,2,0,P|128:288|132:348,1,125,0|8,0:0|0:0,0:0:0:0:
256,336,44095,1,0,0:0:0:0:
256,192,44253,6,0,L|168:104,1,125,4|0,0:0|0:0,0:0:0:0:
256,192,44569,2,0,L|344:104,1,125,8|0,0:0|0:0,0:0:0:0:
256,60,44884,1,2,0:0:0:0:
160,36,45042,1,0,0:0:0:0:
88,104,45200,1,8,0:0:0:0:
132,196,45358,1,0,0:0:0:0:
48,248,45516,6,0,B|44:312|72:336|72:336|104:340,1,125
464,248,45832,2,0,B|468:312|440:336|440:336|408:340,1,125,8|0,0:0|0:0,0:0:0:0:
256,336,46148,1,2,0:0:0:0:
256,284,46227,1,0,0:0:0:0:
256,232,46306,1,0,0:0:0:0:
316,152,46463,2,0,P|256:128|200:152,1,125,8|0,0:0|0:0,0:0:0:0:
44,344,46779,5,4,0:0:0:0:
120,104,46937,1,0,0:0:0:0:
384,104,47095,1,8,0:0:0:0:
468,344,47253,1,0,0:0:0:0:
256,212,47411,2,0,L|256:88,1,125,2|0,0:0|0:0,0:0:0:0:
256,340,47727,1,8,0:0:0:0:
256,92,47884,1,0,0:0:0:0:
160,72,48042,6,0,P|104:88|72:144,1,125
72,192,48279,1,0,0:0:0:0:
72,244,48358,2,0,P|104:300|160:316,1,125,8|0,0:0|0:0,0:0:0:0:
352,316,48674,2,0,P|408:300|440:244,1,125,2|0,0:0|0:0,0:0:0:0:
440,192,48910,1,0,0:0:0:0:
440,144,48990,2,0,P|408:88|352:72,1,125,8|0,0:0|0:0,0:0:0:0:
256,92,49306,5,4,0:0:0:0:
204,176,49463,1,0,0:0:0:0:
304,176,49621,1,8,0:0:0:0:
168,264,49779,1,0,0:0:0:0:
344,264,49937,1,8,0:0:0:0:
132,344,50095,1,0,0:0:0:0:
380,344,50253,1,8,0:0:0:0:
256,348,50411,6,0,L|256:224,1,125
256,124,50727,1,0,0:0:0:0:
184,56,50884,1,8,0:0:0:0:
160,152,51042,1,0,0:0:0:0:
100,72,51200,5,8,0:0:0:0:
28,312,51358,1,8,0:0:0:0:
276,296,51516,1,8,0:0:0:0:
360,60,51674,1,0,0:0:0:0:
432,136,51832,5,4,0:0:0:0:
452,176,51911,1,0,0:0:0:0:
460,224,51990,1,0,0:0:0:0:
452,272,52069,1,0,0:0:0:0:
440,320,52148,1,8,0:0:0:0:
356,268,52306,1,0,0:0:0:0:
288,192,52463,2,0,B|264:232|220:244|220:244|184:232,1,125,2|0,0:0|0:0,0:0:0:0:
208,136,52779,2,0,B|232:96|276:84|276:84|312:96,1,125,8|0,0:0|0:0,0:0:0:0:
368,180,53095,5,8,0:0:0:0:
336,220,53174,1,0,0:0:0:0:
308,260,53253,1,0,0:0:0:0:
256,344,53411,1,8,0:0:0:0:
172,292,53569,1,0,0:0:0:0:
76,260,53727,1,2,0:0:0:0:
104,220,53806,1,0,0:0:0:0:
152,204,53884,1,0,0:0:0:0:
240,160,54042,2,0,P|208:104|152:92,1,125,8|0,0:0|0:0,0:0:0:0:
52,92,54358,6,0,L|52:216,1,125,4|0,0:0|0:0,0:0:0:0:
460,217,54674,2,0,L|460:92,1,125,4|0,0:0|0:0,0:0:0:0:
256,92,54990,2,0,L|256:216,1,125,4|0,0:0|0:0,0:0:0:0:
256,316,55306,1,8,0:0:0:0:
256,316,55384,1,0,0:0:0:0:
256,316,55463,1,8,0:0:0:0:
412,120,55621,6,0,B|388:64|388:64|328:44,1,125
100,264,55937,2,0,B|124:320|124:320|184:340,1,125,8|0,0:0|0:0,0:0:0:0:
412,264,56253,2,0,B|388:320|388:320|328:340,1,125,2|0,0:0|0:0,0:0:0:0:
100,120,56569,2,0,B|124:64|124:64|184:44,1,125,8|0,0:0|0:0,0:0:0:0:
256,112,56884,5,4,0:0:0:0:
256,164,56963,1,0,0:0:0:0:
256,216,57042,1,0,0:0:0:0:
256,268,57121,1,0,0:0:0:0:
256,320,57200,1,8,0:0:0:0:
352,288,57358,2,0,P|384:232|392:172,1,125,0|2,0:0|0:0,0:0:0:0:
160,288,57674,2,0,P|128:232|120:172,1,125,0|8,0:0|0:0,0:0:0:0:
256,36,57990,6,0,L|256:161,1,125
256,212,58227,1,0,0:0:0:0:
256,268,58306,1,0,0:0:0:0:
184,336,58463,2,0,P|120:324|88:276,1,125,8|0,0:0|0:0,0:0:0:0:
16,208,58779,2,0,P|68:172|128:184,1,125,2|0,0:0|0:0,0:0:0:0:
176,96,59095,2,0,L|300:72,1,125,8|0,0:0|0:0,0:0:0:0:
336,288,59411,6,0,L|212:312,1,125,4|0,0:0|0:0,0:0:0:0:
172,280,59648,1,0,0:0:0:0:
164,232,59727,1,8,0:0:0:0:
256,192,59884,2,0,L|320:192,2,62.5,0|0|2,0:0|0:0|0:0,0:0:0:0:
256,68,60200,1,2,0:0:0:0:
112,108,60358,1,2,0:0:0:0:
76,280,60516,1,2,0:0:0:0:
324,320,60674,6,0,B|380:316|408:288|408:288|412:256,1,125
288,36,60990,1,8,0:0:0:0:
68,152,61148,1,0,0:0:0:0:
320,156,61306,1,8,0:0:0:0:
104,276,61463,1,0,0:0:0:0:
152,32,61621,1,8,0:0:0:0:
240,268,61779,1,0,0:0:0:0:
480,192,61937,5,4,0:0:0:0:
32,192,62253,1,4,0:0:0:0:
256,32,62569,1,4,0:0:0:0:
256,192,62727,5,2,0:0:0:0:
256,352,62884,1,2,0:0:0:0:
144,192,63042,1,2,0:0:0:0:
368,192,63200,1,2,0:0:0:0:
256,112,63358,1,2,0:0:0:0:
256,272,63516,1,0,0:0:0:0:
184,248,63595,1,0,0:0:0:0:
144,312,63674,1,0,0:0:0:0:
76,284,63753,1,0,0:0:0:0:
44,352,63832,1,0,0:0:0:0:
256,192,64148,5,0,0:0:0:0:
76,192,64463,5,4,0:0:0:0:
88,148,64542,1,0,0:0:0:0:
108,108,64621,1,0,0:0:0:0:
136,72,64700,1,0,0:0:0:0:
168,40,64779,1,8,0:0:0:0:
256,32,64937,1,0,0:0:0:0:
344,40,65095,1,2,0:0:0:0:
376,72,65174,1,0,0:0:0:0:
404,108,65253,1,0,0:0:0:0:
424,148,65332,1,0,0:0:0:0:
436,192,65411,1,8,0:0:0:0:
256,344,65569,5,8,0:0:0:0:
256,300,65648,1,0,0:0:0:0:
256,256,65727,1,8,0:0:0:0:
256,40,65884,1,8,0:0:0:0:
256,84,65963,1,0,0:0:0:0:
256,128,66042,1,8,0:0:0:0:
40,192,66200,1,0,0:0:0:0:
472,192,66358,1,2,0:0:0:0:
68,260,66516,1,0,0:0:0:0:
444,124,66674,1,2,0:0:0:0:
256,192,66832,1,0,0:0:0:0:
204,268,66990,6,0,P|256:292|308:268,1,112.499996566773,4|0,0:0|0:0,0:0:0:0:
304,111,67306,2,0,P|256:92|204:116,1,112.499996566773,8|0,0:0|0:0,0:0:0:0:
156,192,67621,1,2,0:0:0:0:
112,192,67700,1,0,0:0:0:0:
68,192,67779,1,0,0:0:0:0:
112,272,67937,1,8,0:0:0:0:
172,340,68095,5,8,0:0:0:0:
216,348,68174,1,0,0:0:0:0:
260,340,68253,1,8,0:0:0:0:
340,296,68411,1,8,0:0:0:0:
376,272,68490,1,0,0:0:0:0:
404,236,68569,1,8,0:0:0:0:
376,200,68648,1,0,0:0:0:0:
400,164,68727,1,0,0:0:0:0:
416,120,68806,1,0,0:0:0:0:
384,88,68884,1,2,0:0:0:0:
308,36,69042,1,0,0:0:0:0:
256,112,69200,1,8,0:0:0:0:
80,68,69516,6,0,L|80:180,1,112.499996566773,4|0,0:0|0:0,0:0:0:0:
88,224,69753,1,0,0:0:0:0:
108,264,69832,1,0,0:0:0:0:
140,296,69911,1,0,0:0:0:0:
180,316,69990,1,0,0:0:0:0:
220,144,70148,5,4,0:0:0:0:
204,100,70227,1,0,0:0:0:0:
228,64,70306,1,0,0:0:0:0:
272,60,70384,1,0,0:0:0:0:
304,92,70463,1,0,0:0:0:0:
304,136,70542,1,0,0:0:0:0:
264,160,70621,1,0,0:0:0:0:
320,316,70779,5,4,0:0:0:0:
364,300,70858,1,0,0:0:0:0:
392,264,70937,1,0,0:0:0:0:
404,220,71016,1,0,0:0:0:0:
408,176,71095,1,0,0:0:0:0:
404,132,71174,1,0,0:0:0:0:
396,88,71253,1,0,0:0:0:0:
320,36,71411,1,2,0:0:0:0:
228,32,71569,1,0,0:0:0:0:
148,76,71727,1,8,0:0:0:0:
192,156,71884,2,0,P|188:212|152:252,1,112.499996566773
256,344,72200,5,8,0:0:0:0:
256,300,72279,1,0,0:0:0:0:
256,256,72358,1,8,0:0:0:0:
256,40,72516,1,8,0:0:0:0:
256,84,72595,1,0,0:0:0:0:
256,128,72674,1,8,0:0:0:0:
172,288,72832,1,0,0:0:0:0:
340,96,72990,1,8,0:0:0:0:
340,288,73148,1,0,0:0:0:0:
172,96,73306,5,0,0:0:0:0:
136,120,73384,1,0,0:0:0:0:
112,156,73463,1,0,0:0:0:0:
100,200,73542,1,0,0:0:0:0:
108,244,73621,1,0,0:0:0:0:
128,284,73700,1,0,0:0:0:0:
156,320,73779,1,0,0:0:0:0:
472,192,73937,5,4,0:0:0:0:
40,192,74253,1,4,0:0:0:0:
204,88,74411,6,0,P|256:68|308:88,1,112.499996566773,0|4,0:0|0:0,0:0:0:0:
306,296,74727,2,0,P|256:316|204:296,1,112.499996566773,0|0,0:0|0:0,0:0:0:0:
156,192,75042,1,0,0:0:0:0:
212,192,75121,1,0,0:0:0:0:
268,192,75200,1,0,0:0:0:0:
440,48,75358,1,0,0:0:0:0:
440,336,75516,1,0,0:0:0:0:
440,192,75674,6,0,L|328:192,1,112.499996566773
256,280,75990,2,0,L|144:280,1,112.499996566773,0|0,0:0|0:0,0:0:0:0:
143,280,76227,1,0,0:0:0:0:
143,280,76306,1,0,0:0:0:0:
76,192,76463,1,0,0:0:0:0:
256,56,76621,1,0,0:0:0:0:
436,192,76779,1,0,0:0:0:0:
256,328,76937,1,0,0:0:0:0:
120,148,77095,6,0,L|200:68,1,112.499996566773,4|0,0:0|0:0,0:0:0:0:
392,236,77411,2,0,L|312:316,1,112.499996566773,0|0,0:0|0:0,0:0:0:0:
392,148,77727,2,0,L|312:68,1,112.499996566773
120,236,78042,2,0,L|200:316,1,112.499996566773
199,315,78279,5,0,0:0:0:0:
199,315,78358,1,2,0:0:0:0:
256,192,78516,1,0,0:0:0:0:
256,80,78674,1,2,0:0:0:0:
256,304,78832,1,0,0:0:0:0:
356,252,78990,1,2,0:0:0:0:
408,228,79069,1,0,0:0:0:0:
428,176,79148,1,0,0:0:0:0:
324,136,79306,1,0,0:0:0:0:
120,40,79463,6,0,B|80:68|68:108|68:108|76:132,1,112.499996566773,0|4,0:0|0:0,0:0:0:0:
392,40,79779,2,0,B|432:68|444:108|444:108|436:132,1,112.499996566773
256,268,80095,2,0,L|256:156,1,112.499996566773
120,344,80411,2,0,B|80:316|68:276|68:276|76:252,1,112.499996566773
392,344,80727,2,0,B|432:316|444:276|444:276|436:252,1,112.499996566773
256,116,81042,1,0,0:0:0:0:
44,192,81200,1,0,0:0:0:0:
468,192,81358,1,0,0:0:0:0:
256,268,81516,1,0,0:0:0:0:
308,48,81674,2,0,P|256:28|204:48,2,112.499996566773,2|0|2,0:0|0:0|0:0,0:0:0:0:
404,108,82148,5,4,0:0:0:0:
292,128,82306,1,0,0:0:0:0:
364,212,82463,1,0,0:0:0:0:
256,248,82621,2,0,P|276:300|328:304,1,112.499996566773
256,248,82937,2,0,P|236:196|184:192,1,112.499996566773
168,304,83253,1,0,0:0:0:0:
68,248,83411,1,0,0:0:0:0:
72,360,83569,1,0,0:0:0:0:
168,184,83727,2,0,B|124:156|120:112|120:112|132:88,1,112.499996566773
344,184,84042,2,0,B|388:156|392:112|392:112|380:88,1,112.499996566773
256,36,84358,1,2,0:0:0:0:
256,36,84516,1,0,0:0:0:0:
208,256,84674,6,0,B|248:240|248:240|288:260|288:260|300:236,1,112.499996566773,4|0,0:0|0:0,0:0:0:0:
76,192,84990,1,8,0:0:0:0:
256,56,85148,1,0,0:0:0:0:
436,192,85306,1,0,0:0:0:0:
256,324,85463,1,0,0:0:0:0:
344,116,85621,1,8,0:0:0:0:
168,256,85779,1,0,0:0:0:0:
104,40,85937,5,0,0:0:0:0:
268,196,86095,2,0,L|356:272,1,112.499996566773,0|8,0:0|0:0,0:0:0:0:
353,269,86411,1,0,0:0:0:0:
136,332,86569,1,8,0:0:0:0:
88,308,86648,1,0,0:0:0:0:
72,252,86727,1,8,0:0:0:0:
216,84,86884,1,8,0:0:0:0:
408,200,87042,1,0,0:0:0:0:
184,168,87200,5,4,0:0:0:0:
404,112,87358,1,0,0:0:0:0:
228,252,87516,1,8,0:0:0:0:
332,52,87674,1,0,0:0:0:0:
332,52,87753,1,0,0:0:0:0:
332,52,87832,1,0,0:0:0:0:
324,276,87990,1,0,0:0:0:0:
100,276,88148,1,8,0:0:0:0:
104,52,88306,1,0,0:0:0:0:
216,192,88463,6,0,B|172:180|172:180|136:216|136:216|124:204,1,112.499996566773
296,192,88779,2,0,B|340:180|340:180|376:216|376:216|388:204,1,112.499996566773,8|0,0:0|0:0,0:0:0:0:
256,124,89095,1,8,0:0:0:0:
256,260,89253,1,8,0:0:0:0:
256,316,89332,1,0,0:0:0:0:
256,372,89411,1,8,0:0:0:0:
352,316,89569,1,0,0:0:0:0:
456,116,89727,6,0,P|404:132|356:104,1,112.499996566773,4|0,0:0|0:0,0:0:0:0:
56,116,90042,2,0,P|108:132|156:104,1,112.499996566773,8|0,0:0|0:0,0:0:0:0:
306,312,90358,2,0,P|256:328|200:312,1,112.499996566773
156,276,90595,1,0,0:0:0:0:
140,220,90674,1,8,0:0:0:0:
252,216,90832,5,8,0:0:0:0:
292,176,90911,1,0,0:0:0:0:
288,120,90990,1,8,0:0:0:0:
64,96,91148,1,0,0:0:0:0:
36,320,91306,1,0,0:0:0:0:
260,348,91463,1,8,0:0:0:0:
316,352,91542,1,0,0:0:0:0:
372,356,91621,1,8,0:0:0:0:
460,148,91779,1,0,0:0:0:0:
256,48,91937,1,8,0:0:0:0:
256,48,92095,1,0,0:0:0:0:
256,272,92253,5,4,0:0:0:0:
312,268,92332,1,0,0:0:0:0:
368,264,92411,1,0,0:0:0:0:
36,192,92569,2,0,P|56:136|96:104,1,112.499996566773,0|0,0:0|0:0,0:0:0:0:
476,192,92884,2,0,P|456:136|416:104,1,112.499996566773,4|0,0:0|0:0,0:0:0:0:
36,192,93200,2,0,P|56:248|96:280,1,112.499996566773,4|0,0:0|0:0,0:0:0:0:
476,192,93516,2,0,P|456:248|416:280,1,112.499996566773,4|0,0:0|0:0,0:0:0:0:
256,348,93832,2,0,L|256:236,1,112.499996566773,0|0,0:0|0:0,0:0:0:0:
256,36,94148,2,0,L|256:148,1,112.499996566773,2|0,0:0|0:0,0:0:0:0:
112,192,94463,1,0,0:0:0:0:
400,192,94621,5,0,0:0:0:0:
284,240,94779,2,0,P|256:252|228:240,1,62.5,4|0,0:0|0:0,0:0:0:0:
256,116,95095,1,0,0:0:0:0:
196,92,95174,1,0,0:0:0:0:
140,68,95253,2,0,B|108:76|108:76|104:108,1,62.5,0|8,0:0|0:0,0:0:0:0:
196,192,95569,1,0,0:0:0:0:
108,284,95727,6,0,B|111:313|111:313|143:321,1,62.5
204,300,95963,1,0,0:0:0:0:
256,264,96042,1,8,0:0:0:0:
344,180,96200,2,0,L|388:224,1,62.5
124,224,96516,2,0,L|168:180,1,62.5,0|8,0:0|0:0,0:0:0:0:
256,88,96832,1,0,0:0:0:0:
376,52,96990,6,0,P|428:84|440:144,1,125,0|8,0:0|0:0,0:0:0:0:
432,188,97384,1,0,0:0:0:0:
416,228,97463,1,0,0:0:0:0:
424,272,97542,1,0,0:0:0:0:
384,292,97621,1,0,0:0:0:0:
344,276,97700,1,0,0:0:0:0:
316,312,97779,1,0,0:0:0:0:
308,356,97858,1,0,0:0:0:0:
268,368,97937,1,8,0:0:0:0:
148,336,98095,6,0,P|116:328|96:304,1,62.5
188,220,98411,1,0,0:0:0:0:
304,172,98569,1,0,0:0:0:0:
284,132,98648,1,0,0:0:0:0:
252,104,98727,1,0,0:0:0:0:
212,88,98806,1,0,0:0:0:0:
168,92,98884,1,0,0:0:0:0:
44,80,99042,1,0,0:0:0:0:
56,124,99121,1,0,0:0:0:0:
76,164,99200,1,8,0:0:0:0:
188,220,99358,1,0,0:0:0:0:
368,332,99516,6,0,P|416:292|428:232,1,125,0|4,0:0|0:0,0:0:0:0:
296,44,99990,1,0,0:0:0:0:
124,196,100148,1,2,0:0:0:0:
360,236,100306,1,0,0:0:0:0:
196,36,100463,1,2,0:0:0:0:
236,280,100621,1,0,0:0:0:0:
96,84,100779,6,0,B|56:68|56:68|28:100|44:144,1,125
56,208,101174,1,0,0:0:0:0:
80,268,101253,1,0,0:0:0:0:
180,192,101411,1,0,0:0:0:0:
272,108,101569,2,0,B|304:120|304:120|316:148,1,62.5,0|8,0:0|0:0,0:0:0:0:
432,192,101884,1,0,0:0:0:0:
324,256,102042,1,0,0:0:0:0:
256,36,102200,5,0,0:0:0:0:
256,36,102279,1,0,0:0:0:0:
256,36,102358,2,0,L|256:160,1,125,4|0,0:0|0:0,0:0:0:0:
256,288,102832,1,0,0:0:0:0:
140,332,102990,1,0,0:0:0:0:
104,308,103069,1,0,0:0:0:0:
80,272,103148,1,0,0:0:0:0:
64,232,103227,1,0,0:0:0:0:
64,188,103306,1,0,0:0:0:0:
168,224,103463,1,0,0:0:0:0:
256,36,103621,5,2,0:0:0:0:
476,192,103937,1,2,0:0:0:0:
256,348,104253,1,2,0:0:0:0:
36,192,104569,1,2,0:0:0:0:
256,192,104727,5,0,0:0:0:0:
148,100,104884,1,0,0:0:0:0:
364,100,105042,1,0,0:0:0:0:
364,284,105200,1,0,0:0:0:0:
148,284,105358,1,0,0:0:0:0:
256,192,105516,1,0,0:0:0:0:
256,348,105674,6,0,L|256:284,1,62.5,0|4,0:0|0:0,0:0:0:0:
36,192,106148,6,0,L|160:192,1,125,4|0,0:0|0:0,0:0:0:0:
476,192,106463,2,0,L|352:192,1,125,8|0,0:0|0:0,0:0:0:0:
200,48,106779,2,0,P|256:28|316:48,1,125,2|0,0:0|0:0,0:0:0:0:
316,336,107095,2,0,P|256:356|200:336,1,125,8|0,0:0|0:0,0:0:0:0:
256,92,107411,1,0,0:0:0:0:
96,284,107569,1,0,0:0:0:0:
256,92,107727,1,8,0:0:0:0:
416,284,107884,1,0,0:0:0:0:
184,192,108042,2,0,B|128:176|148:136|148:136|104:112,1,125,2|0,0:0|0:0,0:0:0:0:
328,192,108358,2,0,B|384:208|364:248|364:248|408:272,1,125,8|0,0:0|0:0,0:0:0:0:
432,312,108595,1,0,0:0:0:0:
392,344,108674,6,8,P|336:360|272:348,1,125,0|0,0:0|0:0,0:0:0:0:
72,192,108990,1,8,0:0:0:0:
440,192,109148,1,0,0:0:0:0:
256,32,109306,2,0,L|256:156,1,125,2|0,0:0|0:0,0:0:0:0:
104,356,109621,1,8,0:0:0:0:
408,356,109779,1,0,0:0:0:0:
256,192,109937,1,0,0:0:0:0:
56,40,110095,1,0,0:0:0:0:
168,264,110253,1,8,0:0:0:0:
356,100,110411,1,8,0:0:0:0:
356,100,110490,1,0,0:0:0:0:
356,100,110569,2,0,B|388:140|328:168|388:196|368:220,1,125,2|0,0:0|0:0,0:0:0:0:
120,192,110884,2,0,L|120:68,1,125,8|0,0:0|0:0,0:0:0:0:
256,36,111200,5,4,0:0:0:0:
256,88,111279,1,0,0:0:0:0:
256,140,111358,1,0,0:0:0:0:
256,192,111437,1,0,0:0:0:0:
256,244,111516,1,8,0:0:0:0:
200,328,111674,2,0,P|256:352|312:328,1,125,0|2,0:0|0:0,0:0:0:0:
312,56,111990,2,0,P|256:32|200:56,1,125,0|8,0:0|0:0,0:0:0:0:
120,192,112306,1,0,0:0:0:0:
464,192,112463,6,0,L|376:280,1,125
168,140,112779,1,8,0:0:0:0:
36,352,112937,1,0,0:0:0:0:
284,324,113095,2,0,B|264:280|300:244|300:244|276:216,1,125,2|0,0:0|0:0,0:0:0:0:
80,60,113411,1,8,0:0:0:0:
332,60,113569,5,8,0:0:0:0:
332,60,113648,1,0,0:0:0:0:
332,60,113727,2,0,B|380:100|380:100|384:164,1,125
180,60,114042,2,0,B|132:100|132:100|128:164,1,125,8|0,0:0|0:0,0:0:0:0:
332,324,114358,2,0,B|380:284|380:284|384:220,1,125,2|0,0:0|0:0,0:0:0:0:
180,324,114674,2,0,B|132:284|132:284|128:220,1,125,8|0,0:0|0:0,0:0:0:0:
256,192,114990,1,0,0:0:0:0:
256,192,115148,1,0,0:0:0:0:
432,192,115306,5,0,0:0:0:0:
424,144,115384,1,0,0:0:0:0:
376,136,115463,1,0,0:0:0:0:
376,84,115542,1,0,0:0:0:0:
348,40,115621,1,0,0:0:0:0:
300,32,115700,1,0,0:0:0:0:
272,72,115779,1,0,0:0:0:0:
224,68,115858,1,0,0:0:0:0:
180,44,115937,1,0,0:0:0:0:
140,76,116016,1,0,0:0:0:0:
124,124,116095,1,0,0:0:0:0:
52,192,116253,6,0,B|48:244|76:276|76:276|112:284,1,125,4|0,0:0|0:0,0:0:0:0:
160,284,116490,1,0,0:0:0:0:
204,260,116569,1,8,0:0:0:0:
460,192,116727,2,0,B|464:244|436:276|436:276|400:284,1,125,0|2,0:0|0:0,0:0:0:0:
360,192,117042,2,0,B|356:140|384:108|384:108|420:100,1,125,0|8,0:0|0:0,0:0:0:0:
336,40,117358,2,0,P|224:68|156:176,1,250
256,192,117832,1,8,0:0:0:0:
464,328,117990,1,0,0:0:0:0:
476,80,118148,1,2,0:0:0:0:
232,32,118306,1,0,0:0:0:0:
208,280,118463,1,8,0:0:0:0:
348,176,118621,1,0,0:0:0:0:
56,140,118779,6,0,P|32:192|56:252,1,125,4|0,0:0|0:0,0:0:0:0:
456,252,119095,2,0,P|480:192|456:140,1,125,4|0,0:0|0:0,0:0:0:0:
256,36,119411,2,0,L|256:161,1,125,4|0,0:0|0:0,0:0:0:0:
256,348,119727,1,8,0:0:0:0:
208,332,119806,1,0,0:0:0:0:
172,300,119884,1,8,0:0:0:0:
76,332,120042,6,0,P|40:288|48:224,1,125
436,52,120358,2,0,P|472:96|464:160,1,125,8|0,0:0|0:0,0:0:0:0:
48,140,120674,2,0,P|40:76|76:32,1,125,2|0,0:0|0:0,0:0:0:0:
464,244,120990,2,0,P|472:308|436:352,1,125,8|0,0:0|0:0,0:0:0:0:
256,112,121306,5,4,0:0:0:0:
256,160,121384,1,0,0:0:0:0:
256,212,121463,1,0,0:0:0:0:
204,296,121621,2,0,P|256:328|304:296,1,125,8|0,0:0|0:0,0:0:0:0:
420,72,121937,1,2,0:0:0:0:
172,40,122095,1,0,0:0:0:0:
124,284,122253,1,8,0:0:0:0:
372,328,122411,1,0,0:0:0:0:
256,112,122569,6,0,L|140:164,1,125
256,272,122884,2,0,L|372:220,1,125,8|0,0:0|0:0,0:0:0:0:
370,220,123121,1,0,0:0:0:0:
370,220,123200,1,2,0:0:0:0:
124,284,123358,2,0,P|32:216|44:92,1,250
292,44,123832,6,0,B|324:48|324:48|360:68|360:68|380:52|408:60,1,125,4|0,0:0|0:0,0:0:0:0:
220,44,124148,2,0,B|188:48|188:48|152:68|152:68|132:52|104:60,1,125,8|0,0:0|0:0,0:0:0:0:
256,160,124463,2,0,L|256:284,1,125,2|0,0:0|0:0,0:0:0:0:
120,288,124779,1,8,0:0:0:0:
392,288,124937,1,8,0:0:0:0:
460,48,125095,2,0,L|356:120,1,125
316,240,125411,5,0,0:0:0:0:
280,276,125490,1,0,0:0:0:0:
232,292,125569,1,0,0:0:0:0:
204,248,125648,1,0,0:0:0:0:
156,252,125727,1,0,0:0:0:0:
116,224,125806,1,0,0:0:0:0:
84,188,125884,1,0,0:0:0:0:
76,140,125963,1,0,0:0:0:0:
124,124,126042,1,0,0:0:0:0:
124,72,126121,1,0,0:0:0:0:
168,52,126200,1,0,0:0:0:0:
256,32,126358,5,2,0:0:0:0:
480,192,126674,1,2,0:0:0:0:
256,352,126990,1,2,0:0:0:0:
168,304,127148,1,0,0:0:0:0:
84,252,127306,1,0,0:0:0:0:
168,200,127463,1,0,0:0:0:0:
256,152,127621,1,0,0:0:0:0:
256,252,127779,1,0,0:0:0:0:
344,204,127937,1,0,0:0:0:0:
380,240,128016,1,0,0:0:0:0:
396,288,128095,1,0,0:0:0:0:
420,332,128174,1,0,0:0:0:0:
468,344,128253,1,0,0:0:0:0:
256,36,128569,5,0,0:0:0:0:
416,104,128884,5,0,0:0:0:0:
408,136,128963,1,0,0:0:0:0:
396,164,129042,1,0,0:0:0:0:
384,192,129121,1,0,0:0:0:0:
368,220,129200,1,0,0:0:0:0:
352,248,129279,1,0,0:0:0:0:
328,268,129358,1,0,0:0:0:0:
304,292,129437,1,0,0:0:0:0:
280,312,129516,1,0,0:0:0:0:
248,320,129595,5,0,0:0:0:0:
232,292,129674,1,0,0:0:0:0:
200,292,129753,1,0,0:0:0:0:
188,320,129832,1,0,0:0:0:0:
156,328,129911,1,0,0:0:0:0:
124,320,129990,1,0,0:0:0:0:
100,300,130069,1,0,0:0:0:0:
80,276,130148,1,0,0:0:0:0:
64,252,130227,1,0,0:0:0:0:
48,224,130306,5,0,0:0:0:0:
40,192,130384,1,0,0:0:0:0:
32,160,130463,1,0,0:0:0:0:
24,128,130542,1,0,0:0:0:0:
36,100,130621,1,0,0:0:0:0:
56,76,130700,1,0,0:0:0:0:
88,84,130779,1,0,0:0:0:0:
108,60,130858,1,0,0:0:0:0:
136,52,130937,1,0,0:0:0:0:
168,44,131016,5,0,0:0:0:0:
200,48,131095,1,0,0:0:0:0:
228,60,131174,1,0,0:0:0:0:
256,76,131253,2,0,L|256:140,2,62.5
284,60,131490,1,0,0:0:0:0:
316,52,131569,1,0,0:0:0:0:
348,48,131648,1,0,0:0:0:0:
380,52,131727,1,0,0:0:0:0:
408,64,131806,1,0,0:0:0:0:
436,80,131884,5,0,0:0:0:0:
452,104,131963,1,0,0:0:0:0:
464,132,132042,1,0,0:0:0:0:
468,164,132121,1,0,0:0:0:0:
468,196,132200,1,0,0:0:0:0:
468,228,132279,1,0,0:0:0:0:
464,260,132358,1,0,0:0:0:0:
456,292,132437,1,0,0:0:0:0:
436,316,132516,1,0,0:0:0:0:
416,340,132595,5,0,0:0:0:0:
388,352,132674,1,0,0:0:0:0:
356,348,132753,1,0,0:0:0:0:
336,324,132832,1,0,0:0:0:0:
332,292,132911,1,0,0:0:0:0:
344,264,132990,1,0,0:0:0:0:
352,236,133069,1,0,0:0:0:0:
356,204,133148,1,0,0:0:0:0:
352,172,133227,1,0,0:0:0:0:
332,148,133306,5,0,0:0:0:0:
304,140,133384,1,0,0:0:0:0:
272,144,133463,1,0,0:0:0:0:
248,164,133542,1,0,0:0:0:0:
236,192,133621,1,0,0:0:0:0:
236,224,133700,1,0,0:0:0:0:
236,256,133779,1,0,0:0:0:0:
244,288,133858,1,0,0:0:0:0:
248,320,133937,1,0,0:0:0:0:
220,336,134016,5,0,0:0:0:0:
192,348,134095,1,0,0:0:0:0:
160,348,134174,1,0,0:0:0:0:
128,344,134253,1,0,0:0:0:0:
100,332,134332,1,0,0:0:0:0:
76,312,134411,1,0,0:0:0:0:
60,284,134490,1,0,0:0:0:0:
48,256,134569,1,0,0:0:0:0:
44,224,134648,1,0,0:0:0:0:
52,192,134727,5,0,0:0:0:0:
64,164,134806,1,0,0:0:0:0:
56,136,134884,1,0,0:0:0:0:
44,108,134963,1,0,0:0:0:0:
52,76,135042,1,0,0:0:0:0:
72,52,135121,1,0,0:0:0:0:
100,40,135200,1,0,0:0:0:0:
128,56,135279,1,0,0:0:0:0:
140,84,135358,1,0,0:0:0:0:
156,112,135437,5,0,0:0:0:0:
184,120,135516,1,0,0:0:0:0:
200,96,135595,1,0,0:0:0:0:
216,68,135674,1,0,0:0:0:0:
240,48,135753,1,0,0:0:0:0:
272,40,135832,1,0,0:0:0:0:
304,36,135911,1,0,0:0:0:0:
336,36,135990,1,0,0:0:0:0:
352,60,136069,1,0,0:0:0:0:
360,92,136148,5,0,0:0:0:0:
360,124,136227,1,0,0:0:0:0:
380,148,136306,1,0,0:0:0:0:
412,152,136384,1,0,0:0:0:0:
440,136,136463,1,0,0:0:0:0:
460,112,136542,1,0,0:0:0:0:
484,136,136621,1,0,0:0:0:0:
500,164,136700,1,0,0:0:0:0:
496,196,136779,1,0,0:0:0:0:
492,228,136858,5,0,0:0:0:0:
480,256,136937,1,0,0:0:0:0:
468,284,137016,1,0,0:0:0:0:
460,312,137095,1,0,0:0:0:0:
440,336,137174,1,0,0:0:0:0:
412,352,137253,1,0,0:0:0:0:
380,352,137332,1,0,0:0:0:0:
364,324,137411,1,0,0:0:0:0:
364,292,137490,1,0,0:0:0:0:
340,272,137569,5,0,0:0:0:0:
308,280,137648,1,0,0:0:0:0:
284,300,137727,1,0,0:0:0:0:
264,324,137806,1,0,0:0:0:0:
244,348,137884,1,0,0:0:0:0:
212,352,137963,1,0,0:0:0:0:
184,340,138042,1,0,0:0:0:0:
152,340,138121,1,0,0:0:0:0:
120,344,138200,1,0,0:0:0:0:
92,328,138279,5,0,0:0:0:0:
96,296,138358,1,0,0:0:0:0:
112,272,138437,1,0,0:0:0:0:
92,248,138516,1,0,0:0:0:0:
68,228,138595,1,0,0:0:0:0:
48,204,138674,1,0,0:0:0:0:
40,172,138753,1,0,0:0:0:0:
44,140,138832,1,0,0:0:0:0:
64,116,138911,1,0,0:0:0:0:
88,96,138990,5,0,0:0:0:0:
108,72,139069,1,0,0:0:0:0:
136,60,139148,1,0,0:0:0:0:
160,80,139227,1,0,0:0:0:0:
180,104,139306,1,0,0:0:0:0:
212,104,139384,1,0,0:0:0:0:
236,84,139463,1,0,0:0:0:0:
256,60,139542,1,0,0:0:0:0:
284,48,139621,1,0,0:0:0:0:
316,48,139700,5,0,0:0:0:0:
348,56,139779,1,0,0:0:0:0:
380,52,139858,1,0,0:0:0:0:
424,68,139937,2,0,L|456:156,1,93.7500035762788,2|0,0:0|0:0,0:0:0:0:
408,288,140095,2,0,L|324:328,1,93.7500035762788,0|0,0:0|0:0,0:0:0:0:
216,236,140253,2,0,L|184:148,1,93.7500035762788,2|0,0:0|0:0,0:0:0:0:
100,36,140411,2,0,L|16:76,1,93.7500035762788,0|0,0:0|0:0,0:0:0:0:
12,220,140569,2,0,L|44:308,1,93.7500035762788,2|0,0:0|0:0,0:0:0:0:
180,348,140727,5,0,0:0:0:0:
180,348,140806,1,0,0:0:0:0:
180,348,140884,2,0,L|264:308,1,93.7500035762788,2|0,0:0|0:0,0:0:0:0:
348,192,141042,1,0,0:0:0:0:
348,192,141121,1,0,0:0:0:0:
348,192,141200,2,0,L|264:152,1,93.7500035762788,2|0,0:0|0:0,0:0:0:0:
128,108,141358,1,0,0:0:0:0:
128,108,141437,1,0,0:0:0:0:
128,108,141516,2,0,L|96:196,1,93.7500035762788,2|0,0:0|0:0,0:0:0:0:
236,228,141674,6,0,L|316:276,1,93.7500035762788,0|0,0:0|0:0,0:0:0:0:
316,276,141832,1,0,0:0:0:0:
316,276,141911,1,0,0:0:0:0:
440,204,141990,2,0,L|416:112,1,93.7500035762788,2|0,0:0|0:0,0:0:0:0:
416,113,142148,1,0,0:0:0:0:
416,113,142227,1,0,0:0:0:0:
292,48,142306,2,0,L|212:96,1,93.7500035762788,0|0,0:0|0:0,0:0:0:0:
211,96,142463,1,0,0:0:0:0:
211,96,142542,1,0,0:0:0:0:
76,136,142621,6,0,P|40:160|32:208,1,93.7500035762788,2|0,0:0|0:0,0:0:0:0:
104,300,142779,2,0,P|140:284|156:244,1,78.125,0|0,0:0|0:0,0:0:0:0:
196,148,142937,2,0,P|232:160|248:200,1,78.125,2|0,0:0|0:0,0:0:0:0:
288,304,143095,2,0,P|320:284|336:248,1,78.125,0|0,0:0|0:0,0:0:0:0:
368,144,143253,2,0,L|316:84,1,78.125,2|0,0:0|0:0,0:0:0:0:
292,64,143411,1,0,0:0:0:0:
264,52,143490,1,0,0:0:0:0:
232,44,143569,1,0,0:0:0:0:
200,44,143648,1,0,0:0:0:0:
168,52,143727,5,0,0:0:0:0:
140,68,143806,2,0,L|88:127,1,78.125,0|0,0:0|0:0,0:0:0:0:
96,244,143963,2,0,L|147:184,1,78.125,0|2,0:0|0:0,0:0:0:0:
264,172,144121,2,0,L|212:231,1,78.125,0|0,0:0|0:0,0:0:0:0:
224,348,144279,2,0,L|275:288,1,78.125,0|2,0:0|0:0,0:0:0:0:
304,280,144437,1,0,0:0:0:0:
336,284,144516,1,0,0:0:0:0:
364,296,144595,1,0,0:0:0:0:
396,304,144674,1,0,0:0:0:0:
424,292,144753,5,0,0:0:0:0:
444,268,144832,1,0,0:0:0:0:
460,240,144911,1,0,0:0:0:0:
464,208,144990,1,0,0:0:0:0:
460,176,145069,1,0,0:0:0:0:
448,148,145148,1,0,0:0:0:0:
436,120,145227,1,0,0:0:0:0:
420,92,145306,2,0,L|348:128,1,78.125,2|0,0:0|0:0,0:0:0:0:
256,56,145463,5,0,0:0:0:0:
256,56,145542,1,0,0:0:0:0:
256,56,145621,2,0,L|176:56,1,78.125,2|0,0:0|0:0,0:0:0:0:
80,120,145779,1,0,0:0:0:0:
80,120,145858,1,0,0:0:0:0:
80,120,145937,2,0,L|144:168,1,78.125,2|0,0:0|0:0,0:0:0:0:
256,204,146095,1,0,0:0:0:0:
256,204,146174,1,0,0:0:0:0:
256,204,146253,2,0,L|240:280,1,78.125,2|0,0:0|0:0,0:0:0:0:
128,320,146411,6,0,L|200:352,1,78.125
312,352,146569,2,0,L|384:320,1,78.125,2|0,0:0|0:0,0:0:0:0:
388,200,146727,2,0,L|344:136,1,78.125
256,56,146884,2,0,L|180:36,1,78.125,2|0,0:0|0:0,0:0:0:0:
80,120,147042,2,0,L|48:192,1,78.125
64,216,147200,1,2,0:0:0:0:
84,240,147279,1,0,0:0:0:0:
112,252,147358,1,0,0:0:0:0:
140,244,147437,1,0,0:0:0:0:
156,216,147516,5,2,0:0:0:0:
160,184,147595,1,0,0:0:0:0:
176,156,147674,1,0,0:0:0:0:
204,144,147753,1,0,0:0:0:0:
236,152,147832,1,0,0:0:0:0:
260,172,147911,1,0,0:0:0:0:
276,200,147990,1,0,0:0:0:0:
304,216,148069,1,0,0:0:0:0:
336,236,148148,6,0,L|424:272,1,93.7500035762788
408,128,148306,2,0,L|321:92,1,93.7500035762788
216,184,148463,2,0,L|302:219,1,93.7500035762788
284,76,148621,2,0,L|197:40,1,93.7500035762788
160,48,148779,1,0,0:0:0:0:
124,60,148858,1,0,0:0:0:0:
92,80,148937,1,0,0:0:0:0:
64,192,149095,5,0,0:0:0:0:
144,296,149253,5,0,0:0:0:0:
180,292,149332,1,0,0:0:0:0:
216,288,149411,1,0,0:0:0:0:
436,332,149569,1,0,0:0:0:0:
384,112,149727,1,0,0:0:0:0:
160,136,149884,1,0,0:0:0:0:
256,340,150042,2,0,L|256:152,1,187.500007152558
404,36,150358,6,0,P|448:100|436:176,1,156.25,4|0,0:0|0:0,0:0:0:0:
108,348,150674,2,0,P|64:284|76:208,1,156.25,8|0,0:0|0:0,0:0:0:0:
256,40,150990,1,2,0:0:0:0:
256,344,151148,1,0,0:0:0:0:
256,192,151306,2,0,L|412:192,1,156.25,8|0,0:0|0:0,0:0:0:0:
256,192,151621,2,0,L|100:192,1,156.25
376,44,151937,1,8,0:0:0:0:
188,296,152095,1,0,0:0:0:0:
436,108,152253,1,2,0:0:0:0:
144,220,152411,1,0,0:0:0:0:
200,48,152569,1,8,0:0:0:0:
224,80,152648,1,0,0:0:0:0:
248,108,152727,1,0,0:0:0:0:
272,140,152806,1,0,0:0:0:0:
296,168,152884,6,0,B|352:224|348:296|348:296|332:304,1,156.25,4|0,0:0|0:0,0:0:0:0:
216,216,153200,2,0,B|160:160|164:88|164:88|180:80,1,156.25,8|0,0:0|0:0,0:0:0:0:
176,81,153437,1,0,0:0:0:0:
176,81,153516,1,2,0:0:0:0:
392,176,153674,1,0,0:0:0:0:
212,328,153832,1,8,0:0:0:0:
96,124,153990,1,0,0:0:0:0:
328,104,154148,1,0,0:0:0:0:
304,336,154306,1,0,0:0:0:0:
108,212,154463,1,8,0:0:0:0:
256,192,154621,1,8,0:0:0:0:
256,192,154700,1,0,0:0:0:0:
256,192,154779,2,0,L|256:36,1,156.25,2|0,0:0|0:0,0:0:0:0:
324,264,155095,2,0,P|256:300|188:264,1,156.25,8|0,0:0|0:0,0:0:0:0:
128,40,155411,6,0,L|156:112,2,78.125,4|0|0,0:0|0:0|0:0,0:0:0:0:
40,260,155727,1,8,0:0:0:0:
256,352,155884,1,0,0:0:0:0:
428,192,156042,1,2,0:0:0:0:
256,32,156200,1,0,0:0:0:0:
84,192,156358,2,0,B|144:228|144:228|160:276|212:264,1,156.25,8|0,0:0|0:0,0:0:0:0:
336,64,156674,2,0,B|312:160|312:160|380:228|268:292|380:336|380:336|388:332,1,312.5,0|8,0:0|0:0,0:0:0:0:
224,160,157148,1,8,0:0:0:0:
224,160,157227,1,0,0:0:0:0:
224,160,157306,1,2,0:0:0:0:
20,272,157463,2,0,P|40:340|116:364,1,156.25,0|8,0:0|0:0,0:0:0:0:
340,296,157779,1,0,0:0:0:0:
276,72,157937,6,0,B|184:56|184:56|124:72,1,156.25
236,312,158253,2,0,B|328:328|328:328|388:312,1,156.25,8|0,0:0|0:0,0:0:0:0:
488,192,158569,1,2,0:0:0:0:
332,192,158727,1,0,0:0:0:0:
176,192,158884,1,8,0:0:0:0:
20,192,159042,1,0,0:0:0:0:
148,100,159200,2,0,P|212:56|288:52,1,156.25
440,92,159516,5,8,0:0:0:0:
432,148,159595,1,0,0:0:0:0:
416,200,159674,1,0,0:0:0:0:
388,248,159753,1,0,0:0:0:0:
352,288,159832,1,0,0:0:0:0:
308,320,159911,1,0,0:0:0:0:
256,332,159990,1,0,0:0:0:0:
200,336,160069,1,0,0:0:0:0:
144,332,160148,1,0,0:0:0:0:
92,320,160227,1,0,0:0:0:0:
44,296,160306,1,0,0:0:0:0:
40,40,160463,6,0,L|168:128,1,156.25,4|0,0:0|0:0,0:0:0:0:
472,344,160779,2,0,L|344:256,1,156.25,8|0,0:0|0:0,0:0:0:0:
40,344,161095,2,0,L|168:256,1,156.25,2|0,0:0|0:0,0:0:0:0:
416,172,161411,1,8,0:0:0:0:
396,220,161490,1,0,0:0:0:0:
376,260,161569,2,0,B|332:364|176:364|124:260,1,312.5
256,68,162042,1,8,0:0:0:0:
56,192,162200,1,0,0:0:0:0:
256,312,162358,1,2,0:0:0:0:
456,192,162516,1,0,0:0:0:0:
220,192,162674,1,8,0:0:0:0:
408,52,162832,1,0,0:0:0:0:
172,52,162990,6,0,L|36:136,1,156.25,4|0,0:0|0:0,0:0:0:0:
340,332,163306,2,0,L|476:248,1,156.25,4|0,0:0|0:0,0:0:0:0:
184,252,163621,2,0,L|48:336,1,156.25,4|0,0:0|0:0,0:0:0:0:
256,192,163937,1,8,0:0:0:0:
444,52,164095,1,0,0:0:0:0:
436,288,164253,1,0,0:0:0:0:
208,336,164411,1,0,0:0:0:0:
208,100,164569,1,8,0:0:0:0:
24,248,164727,1,0,0:0:0:0:
116,32,164884,2,0,P|76:88|88:172,1,156.25,2|0,0:0|0:0,0:0:0:0:
396,32,165200,2,0,P|436:88|424:172,1,156.25,8|0,0:0|0:0,0:0:0:0:
256,336,165516,6,0,L|256:180,1,156.25,4|0,0:0|0:0,0:0:0:0:
256,179,165753,1,0,0:0:0:0:
256,179,165832,1,8,0:0:0:0:
60,308,165990,2,0,P|124:344|192:308,1,156.25,0|2,0:0|0:0,0:0:0:0:
452,308,166306,2,0,P|388:344|320:308,1,156.25,0|8,0:0|0:0,0:0:0:0:
256,84,166621,1,0,0:0:0:0:
24,108,166779,5,8,0:0:0:0:
48,140,166858,1,0,0:0:0:0:
72,168,166937,1,0,0:0:0:0:
256,312,167095,1,8,0:0:0:0:
456,192,167253,1,0,0:0:0:0:
256,68,167411,2,0,B|184:112|184:112|192:168|168:180,1,156.25,2|0,0:0|0:0,0:0:0:0:
256,316,167727,2,0,B|328:272|328:272|320:216|344:204,1,156.25,8|0,0:0|0:0,0:0:0:0:
124,288,168042,5,8,0:0:0:0:
88,56,168200,1,0,0:0:0:0:
200,260,168358,1,8,0:0:0:0:
28,100,168516,1,0,0:0:0:0:
244,192,168674,1,8,0:0:0:0:
12,172,168832,1,0,0:0:0:0:
220,68,168990,2,0,P|296:44|368:68,1,156.25,8|0,0:0|0:0,0:0:0:0:
440,292,169306,5,0,0:0:0:0:
408,312,169384,1,0,0:0:0:0:
372,300,169463,1,0,0:0:0:0:
344,272,169542,1,0,0:0:0:0:
308,284,169621,1,0,0:0:0:0:
284,312,169700,1,0,0:0:0:0:
244,308,169779,1,0,0:0:0:0:
212,332,169858,1,0,0:0:0:0:
176,352,169937,1,0,0:0:0:0:
148,324,170016,1,0,0:0:0:0:
112,308,170095,1,0,0:0:0:0:
76,292,170174,1,0,0:0:0:0:
72,252,170253,1,0,0:0:0:0:
84,216,170332,1,0,0:0:0:0:
64,184,170411,1,0,0:0:0:0:
256,192,170569,5,2,0:0:0:0:
472,192,170884,1,2,0:0:0:0:
256,192,171200,1,2,0:0:0:0:
40,192,171516,1,2,0:0:0:0:
256,192,171832,1,2,0:0:0:0:
256,344,172148,1,2,0:0:0:0:
256,192,172463,1,2,0:0:0:0:
256,40,172779,1,2,0:0:0:0:
256,192,173095,1,2,0:0:0:0:
256,344,173411,1,2,0:0:0:0:
256,192,173727,5,0,0:0:0:0:
108,240,173884,1,0,0:0:0:0:
220,348,174042,1,0,0:0:0:0:
368,304,174200,1,0,0:0:0:0:
412,152,174358,1,0,0:0:0:0:
400,116,174437,1,0,0:0:0:0:
380,84,174516,1,0,0:0:0:0:
348,60,174595,1,0,0:0:0:0:
316,40,174674,1,0,0:0:0:0:
276,32,174753,1,0,0:0:0:0:
236,40,174832,1,0,0:0:0:0:
200,60,174911,1,0,0:0:0:0:
176,92,174990,1,0,0:0:0:0:
256,228,175306,6,0,L|256:148,1,78.125,8|0,0:0|0:0,0:0:0:0:
44,192,175621,6,0,P|68:276|144:308,1,174.999994659424,4|0,0:0|0:0,0:0:0:0:
468,192,175937,2,0,P|444:108|368:76,1,174.999994659424,8|0,0:0|0:0,0:0:0:0:
256,316,176253,2,0,L|256:140,1,174.999994659424,2|0,0:0|0:0,0:0:0:0:
420,348,176569,1,8,0:0:0:0:
344,96,176727,5,8,0:0:0:0:
320,60,176806,1,0,0:0:0:0:
280,44,176884,1,8,0:0:0:0:
128,260,177042,1,8,0:0:0:0:
152,296,177121,1,0,0:0:0:0:
192,312,177200,1,8,0:0:0:0:
424,192,177358,1,0,0:0:0:0:
196,64,177516,1,2,0:0:0:0:
320,296,177674,1,0,0:0:0:0:
92,168,177832,1,8,0:0:0:0:
256,192,177990,1,0,0:0:0:0:
40,340,178148,6,0,L|20:164,1,174.999994659424,4|0,0:0|0:0,0:0:0:0:
256,52,178463,1,8,0:0:0:0:
296,64,178542,1,0,0:0:0:0:
328,92,178621,1,0,0:0:0:0:
356,124,178700,1,0,0:0:0:0:
372,164,178779,1,2,0:0:0:0:
256,344,178937,1,0,0:0:0:0:
256,344,179095,1,8,0:0:0:0:
48,184,179253,5,0,0:0:0:0:
64,144,179332,1,0,0:0:0:0:
92,108,179411,1,0,0:0:0:0:
168,148,179569,1,0,0:0:0:0:
176,192,179648,1,0,0:0:0:0:
192,232,179727,1,8,0:0:0:0:
216,268,179806,1,0,0:0:0:0:
252,296,179884,1,0,0:0:0:0:
292,312,179963,1,0,0:0:0:0:
336,316,180042,1,2,0:0:0:0:
376,84,180200,1,2,0:0:0:0:
148,36,180358,1,2,0:0:0:0:
440,192,180674,6,0,P|364:180|292:212,1,156.25,4|0,0:0|0:0,0:0:0:0:
272,244,180911,1,0,0:0:0:0:
252,276,180990,1,8,0:0:0:0:
228,308,181069,1,0,0:0:0:0:
196,332,181148,1,0,0:0:0:0:
156,332,181227,1,0,0:0:0:0:
120,312,181306,1,2,0:0:0:0:
100,156,181463,5,0,0:0:0:0:
120,124,181542,1,0,0:0:0:0:
160,116,181621,1,8,0:0:0:0:
192,140,181700,1,0,0:0:0:0:
220,168,181779,1,0,0:0:0:0:
260,160,181858,1,0,0:0:0:0:
276,124,181937,1,0,0:0:0:0:
420,60,182095,5,8,0:0:0:0:
440,96,182174,1,0,0:0:0:0:
452,132,182253,1,8,0:0:0:0:
256,260,182411,1,0,0:0:0:0:
84,60,182569,1,2,0:0:0:0:
256,260,182727,2,0,L|256:84,1,174.999994659424,0|8,0:0|0:0,0:0:0:0:
16,192,183042,1,0,0:0:0:0:
236,336,183200,6,0,P|324:324|376:260,1,174.999994659424,4|0,0:0|0:0,0:0:0:0:
276,48,183516,2,0,P|188:60|136:124,1,174.999994659424,4|0,0:0|0:0,0:0:0:0:
128,168,183753,1,0,0:0:0:0:
140,212,183832,1,0,0:0:0:0:
400,192,183990,1,0,0:0:0:0:
156,288,184148,1,8,0:0:0:0:
64,40,184306,1,0,0:0:0:0:
64,300,184463,5,0,0:0:0:0:
104,320,184542,1,0,0:0:0:0:
144,336,184621,1,0,0:0:0:0:
188,340,184700,1,0,0:0:0:0:
224,312,184779,1,0,0:0:0:0:
232,268,184858,1,0,0:0:0:0:
240,224,184937,1,0,0:0:0:0:
256,184,185016,1,0,0:0:0:0:
284,148,185095,1,0,0:0:0:0:
328,144,185174,1,0,0:0:0:0:
364,164,185253,1,0,0:0:0:0:
392,196,185332,1,0,0:0:0:0:
400,240,185411,1,0,0:0:0:0:
372,272,185490,1,0,0:0:0:0:
336,296,185569,1,0,0:0:0:0:
96,192,185727,6,0,B|124:124|124:124|164:92|168:36,1,174.999994659424,4|0,0:0|0:0,0:0:0:0:
416,192,186042,2,0,B|388:260|388:260|348:292|344:348,1,174.999994659424,8|0,0:0|0:0,0:0:0:0:
80,320,186358,2,0,L|244:260,1,174.999994659424,2|0,0:0|0:0,0:0:0:0:
432,64,186674,2,0,L|268:124,1,174.999994659424,8|0,0:0|0:0,0:0:0:0:
16,36,186990,5,0,0:0:0:0:
152,260,187148,1,0,0:0:0:0:
188,288,187227,1,0,0:0:0:0:
232,292,187306,1,8,0:0:0:0:
324,48,187463,1,0,0:0:0:0:
412,296,187621,1,2,0:0:0:0:
152,260,187779,2,0,L|152:84,1,174.999994659424,0|8,0:0|0:0,0:0:0:0:
360,124,188095,2,0,L|360:300,1,174.999994659424,0|4,0:0|0:0,0:0:0:0:
116,196,188411,5,8,0:0:0:0:
72,208,188490,1,0,0:0:0:0:
52,248,188569,1,8,0:0:0:0:
396,196,188727,1,8,0:0:0:0:
440,208,188806,1,0,0:0:0:0:
460,248,188885,1,8,0:0:0:0:
256,348,189042,2,0,L|256:172,1,174.999994659424
256,36,189358,1,0,0:0:0:0:
44,192,189516,5,2,0:0:0:0:
296,268,189674,1,0,0:0:0:0:
332,244,189753,1,0,0:0:0:0:
344,200,189832,1,8,0:0:0:0:
332,160,189911,1,0,0:0:0:0:
296,132,189990,1,0,0:0:0:0:
72,272,190148,2,0,P|148:228|168:148,1,174.999994659424,2|0,0:0|0:0,0:0:0:0:
440,272,190463,2,0,P|364:228|344:148,1,174.999994659424,8|0,0:0|0:0,0:0:0:0:
100,48,190779,5,4,0:0:0:0:
128,308,190937,1,0,0:0:0:0:
168,324,191016,1,0,0:0:0:0:
212,332,191095,2,0,L|388:352,1,174.999994659424,8|0,0:0|0:0,0:0:0:0:
432,92,191411,1,2,0:0:0:0:
392,72,191490,1,0,0:0:0:0:
348,64,191569,1,0,0:0:0:0:
304,60,191648,1,0,0:0:0:0:
260,64,191727,2,0,L|108:152,1,174.999994659424,8|0,0:0|0:0,0:0:0:0:
308,320,192042,6,0,P|400:308|440:240,1,174.999994659424
176,256,192358,2,0,L|56:124,1,174.999994659424,8|0,0:0|0:0,0:0:0:0:
80,88,192595,1,0,0:0:0:0:
112,60,192674,1,2,0:0:0:0:
340,192,192832,1,0,0:0:0:0:
84,248,192990,2,0,P|108:332|188:352,1,174.999994659424,8|0,0:0|0:0,0:0:0:0:
256,100,193306,5,2,0:0:0:0:
444,280,193463,1,8,0:0:0:0:
416,312,193542,1,0,0:0:0:0:
376,332,193621,1,8,0:0:0:0:
112,332,193779,1,0,0:0:0:0:
68,72,193937,1,2,0:0:0:0:
328,48,194095,2,0,L|416:48,2,87.499997329712,0|0|8,0:0|0:0|0:0,0:0:0:0:
256,304,194411,2,0,L|256:128,1,174.999994659424,0|0,0:0|0:0,0:0:0:0:
36,276,194727,5,8,0:0:0:0:
56,236,194806,1,0,0:0:0:0:
88,208,194884,1,8,0:0:0:0:
352,192,195042,1,0,0:0:0:0:
136,40,195200,1,8,0:0:0:0:
176,56,195279,1,0,0:0:0:0:
204,88,195358,1,8,0:0:0:0:
224,128,195437,1,0,0:0:0:0:
232,172,195516,2,0,L|232:216,8,43.749998664856
