osu file format v12

[General]
AudioFilename: O_T_Nver_.mp3
AudioLeadIn: 2000
PreviewTime: 41657
Countdown: 1
SampleSet: None
StackLeniency: 0.7
Mode: 0
LetterboxInBreaks: 1

[Editor]
Bookmarks: 37621
DistanceSpacing: 2
BeatDivisor: 4
GridSize: 4

[Metadata]
Title:Gigantic O.T.N
TitleUnicode:Gigantic O.T.N
Artist:Wotamin
ArtistUnicode:Wotamin
Creator:caren_sk
Version:Hazuki Watora AR10
Source:Nico Nico Douga
Tags:len nico douga vocaloid gigantic o.t.n Aqo
BeatmapID:240106
BeatmapSetID:79696

[Difficulty]
HPDrainRate:6
CircleSize:4
OverallDifficulty:7
ApproachRate:10
SliderMultiplier:2.3
SliderTickRate:1

[Events]
//Background and Video events
0,0,"BG.jpg",0,0
//Break Periods
2,64663,74119
//Storyboard Layer 0 (Background)
//Storyboard Layer 1 (Fail)
//Storyboard Layer 2 (Pass)
//Storyboard Layer 3 (Foreground)
//Storyboard Sound Samples
//Background Colour Transformations
3,100,163,162,255

[TimingPoints]
1306,315.789473684211,4,1,1,80,1,0
11411,-111.111111111111,4,2,1,100,0,0
41727,-100,4,1,1,90,0,1
64463,-111.111111111111,4,1,1,100,0,0
74411,-111.111111111111,4,2,1,100,0,0
94779,-200,4,1,1,80,0,0
106148,-100,4,1,1,90,0,1
128884,-100,4,1,1,90,0,0
139937,-66.6666666666667,4,1,1,90,0,0
142779,-80,4,1,1,90,0,0
148148,-66.6666666666667,4,1,1,90,0,0
149174,-66.6666666666667,4,2,0,70,0,0
150358,-80,4,1,1,90,0,1
170569,-80,4,1,1,90,0,0
170884,-80,4,1,1,90,0,1
171200,-80,4,1,1,90,0,0
171516,-80,4,1,1,90,0,1
171832,-80,4,1,1,90,0,0
172148,-80,4,1,1,90,0,1
172463,-80,4,1,1,90,0,0
172779,-80,4,1,1,90,0,1
173095,-80,4,1,1,90,0,0
173411,-80,4,1,1,90,0,1
173569,-80,4,1,1,90,0,0
175306,-80,4,1,1,90,0,1
175621,-71.4285714285714,4,1,1,80,0,0
180200,-80,4,1,1,80,0,0
182569,-71.4285714285714,4,1,1,90,0,0

[Colours]
Combo1 : 255,79,74
Combo2 : 15,255,15
Combo3 : 0,43,242
Combo4 : 255,40,255

[HitObjects]
96,344,674,6,0,B|136:344|136:344|129:308|129:308|213:296|263:201,1,230,0|0,0:0|0:0,0:0:0:0:
168,60,1306,5,4,0:0:0:0:
168,60,1463,2,0,P|128:40|100:8,1,57.5
116,80,1621,2,0,P|92:132|40:156,1,115,8|0,0:0|0:0,0:0:0:0:
72,192,1858,1,0,0:0:0:0:
72,192,1937,2,0,L|116:236,1,57.5
204,216,2095,2,0,L|160:172,1,57.5
252,152,2253,2,0,P|308:164|376:148,1,115,8|0,0:0|0:0,0:0:0:0:
400,124,2490,1,0,0:0:0:0:
408,80,2569,1,8,0:0:0:0:
424,252,2727,5,0,0:0:0:0:
388,288,2806,1,0,0:0:0:0:
388,340,2884,1,8,0:0:0:0:
216,344,3042,5,0,0:0:0:0:
168,316,3121,1,0,0:0:0:0:
112,300,3200,1,4,0:0:0:0:
56,308,3279,1,0,0:0:0:0:
12,272,3358,1,0,0:0:0:0:
0,216,3437,1,0,0:0:0:0:
36,172,3516,1,4,0:0:0:0:
92,160,3595,1,0,0:0:0:0:
136,196,3674,1,0,0:0:0:0:
184,192,3753,1,0,0:0:0:0:
228,156,3832,6,0,P|260:108|268:48,1,115,4|0,0:0|0:0,0:0:0:0:
304,84,4069,1,0,0:0:0:0:
304,84,4148,2,0,P|352:120|416:128,1,115,8|0,0:0|0:0,0:0:0:0:
484,176,4463,2,0,P|456:228|412:264,1,115
368,272,4700,1,0,0:0:0:0:
324,288,4779,2,0,L|264:328,1,57.5,8|0,0:0|0:0,0:0:0:0:
232,328,4937,2,0,L|160:328,1,57.5
188,284,5095,6,0,L|84:220,1,115,8|0,0:0|0:0,0:0:0:0:
72,52,5411,2,0,L|132:84,1,57.5,8|0,0:0|0:0,0:0:0:0:
72,152,5569,2,0,L|92:220,1,57.5
176,196,5727,2,0,P|232:220|288:212,1,115,8|0,0:0|0:0,0:0:0:0:
428,120,6042,1,8,0:0:0:0:
384,128,6121,1,0,0:0:0:0:
340,120,6200,1,0,0:0:0:0:
300,96,6279,1,0,0:0:0:0:
276,56,6358,6,0,P|224:24|164:16,1,115,8|0,0:0|0:0,0:0:0:0:
124,24,6595,1,0,0:0:0:0:
116,68,6674,2,0,P|100:128|56:176,1,115,8|0,0:0|0:0,0:0:0:0:
12,240,6990,1,2,0:0:0:0:
32,280,7069,1,0,0:0:0:0:
72,300,7148,1,0,0:0:0:0:
116,304,7227,1,2,0:0:0:0:
160,288,7306,1,2,0:0:0:0:
160,288,7463,1,8,0:0:0:0:
224,220,7621,5,2,0:0:0:0:
260,188,7700,1,0,0:0:0:0:
304,184,7779,1,0,0:0:0:0:
344,208,7858,1,0,0:0:0:0:
380,236,7937,2,0,P|436:240|500:204,2,115,8|0|8,0:0|0:0|0:0,0:0:0:0:
420,152,8411,2,0,L|448:96,1,57.5
400,104,8569,2,0,P|384:48|344:8,2,115
308,92,9042,5,0,0:0:0:0:
268,68,9121,1,0,0:0:0:0:
224,60,9200,1,8,0:0:0:0:
232,152,9358,5,0,0:0:0:0:
165,133,9437,1,0,0:0:0:0:
98,138,9516,1,8,0:0:0:0:
148,268,9674,6,0,P|200:304|264:320,2,115,0|8|0,0:0|0:0|0:0,0:0:0:0:
256,192,10069,12,0,11095,0:0:0:0:
256,192,11253,5,0,0:0:0:0:
256,192,11411,6,0,P|304:216|372:216,1,103.499996841431,4|0,0:0|0:0,0:0:0:0:
328,96,11727,2,0,P|280:72|212:72,1,103.499996841431,4|0,0:0|0:0,0:0:0:0:
132,156,12042,1,4,0:0:0:0:
152,76,12200,1,0,0:0:0:0:
180,228,12358,1,4,0:0:0:0:
160,308,12516,1,0,0:0:0:0:
260,188,12674,2,0,L|336:88,1,103.499996841431,4|0,0:0|0:0,0:0:0:0:
492,224,12990,2,0,L|416:324,1,103.499996841431,4|0,0:0|0:0,0:0:0:0:
368,248,13306,2,0,P|284:320|192:328,1,206.999993682861,4|4,0:0|0:0,0:0:0:0:
4,240,13779,1,0,0:0:0:0:
4,240,13937,6,0,P|48:208|76:148,1,103.499996841431,4|0,0:0|0:0,0:0:0:0:
228,184,14253,2,0,P|272:156|336:152,1,103.499996841431,4|0,0:0|0:0,0:0:0:0:
480,160,14569,2,0,P|472:112|440:64,1,103.499996841431,4|0,0:0|0:0,0:0:0:0:
400,68,14806,1,0,0:0:0:0:
376,36,14884,2,0,P|327:35|274:58,1,103.499996841431,4|0,0:0|0:0,0:0:0:0:
117,144,15200,2,0,P|168:136|212:108,1,103.499996841431,4|0,0:0|0:0,0:0:0:0:
324,232,15516,2,0,P|315:181|287:137,1,103.499996841431,4|0,0:0|0:0,0:0:0:0:
240,208,15832,2,0,P|212:252|168:284,1,103.499996841431,4|0,0:0|0:0,0:0:0:0:
164,300,16069,1,0,0:0:0:0:
156,320,16148,2,0,L|136:372,2,51.7499984207154,4|0|0,0:0|0:0|0:0,0:0:0:0:
288,308,16463,5,4,0:0:0:0:
304,144,16621,1,0,0:0:0:0:
156,72,16779,1,4,0:0:0:0:
8,144,16937,1,0,0:0:0:0:
160,212,17095,2,0,P|208:236|236:280,1,103.499996841431,4|0,0:0|0:0,0:0:0:0:
244,316,17332,1,0,0:0:0:0:
276,340,17411,2,0,L|336:364,1,51.7499984207154,4|0,0:0|0:0,0:0:0:0:
332,320,17569,2,0,L|388:312,1,51.7499984207154
356,280,17727,2,0,P|408:192|412:76,2,206.999993682861,4|4|4,0:0|0:0|0:0,0:0:0:0:
496,140,18516,1,0,0:0:0:0:
312,216,18674,1,4,0:0:0:0:
132,140,18832,1,0,0:0:0:0:
312,216,18990,6,0,P|368:220|428:204,1,103.499996841431,4|0,0:0|0:0,0:0:0:0:
452,196,19227,1,0,0:0:0:0:
476,164,19306,1,4,0:0:0:0:
476,124,19384,1,0,0:0:0:0:
452,92,19463,1,0,0:0:0:0:
412,76,19542,1,0,0:0:0:0:
372,88,19621,2,0,P|268:96|168:68,1,206.999993682861,4|4,0:0|0:0,0:0:0:0:
170,68,20095,1,0,0:0:0:0:
80,196,20253,5,6,0:0:0:0:
176,320,20411,1,2,0:0:0:0:
172,164,20569,1,6,0:0:0:0:
92,296,20727,1,2,0:0:0:0:
104,112,20884,5,6,0:0:0:0:
240,240,21042,1,2,0:0:0:0:
192,60,21200,1,6,0:0:0:0:
152,240,21358,1,2,0:0:0:0:
280,76,21516,6,0,P|316:44|376:28,1,103.499996841431,10|0,0:0|0:0,0:0:0:0:
232,308,21832,2,0,P|196:340|136:356,1,103.499996841431,10|0,0:0|0:0,0:0:0:0:
24,184,22148,2,0,P|80:188|128:212,1,103.499996841431,10|0,0:0|0:0,0:0:0:0:
488,200,22463,2,0,P|432:196|384:172,1,103.499996841431,10|0,0:0|0:0,0:0:0:0:
192,116,22779,2,0,P|248:120|296:144,1,103.499996841431,10|0,0:0|0:0,0:0:0:0:
228,196,23095,2,0,P|264:236|280:292,1,103.499996841431,10|2,0:0|0:0,0:0:0:0:
268,324,23332,1,2,0:0:0:0:
232,348,23411,2,0,P|180:352|128:328,1,103.499996841431,2|0,0:0|0:0,0:0:0:0:
280,36,23727,2,0,P|332:32|384:56,1,103.499996841431,2|0,0:0|0:0,0:0:0:0:
192,116,24042,6,0,P|196:168|172:220,1,103.499996841431,4|0,0:0|0:0,0:0:0:0:
28,268,24358,1,2,0:0:0:0:
28,268,24437,1,2,0:0:0:0:
28,268,24516,2,0,P|64:308|120:332,1,103.499996841431,2|2,0:0|0:0,0:0:0:0:
148,320,24753,1,2,0:0:0:0:
184,296,24832,1,2,0:0:0:0:
224,292,24911,1,2,0:0:0:0:
264,300,24990,2,0,P|316:316|376:316,1,103.499996841431,4|8,0:0|0:0,0:0:0:0:
488,264,25306,5,10,0:0:0:0:
356,232,25463,1,10,0:0:0:0:
444,132,25621,1,10,0:0:0:0:
312,112,25779,1,10,0:0:0:0:
412,292,25937,5,10,0:0:0:0:
184,296,26095,1,10,0:0:0:0:
312,112,26253,1,10,0:0:0:0:
96,108,26411,1,10,0:0:0:0:
208,184,26569,6,0,P|264:200|316:192,1,103.499996841431,4|0,0:0|0:0,0:0:0:0:
356,352,26884,2,0,P|372:296|364:244,1,103.499996841431,4|0,0:0|0:0,0:0:0:0:
156,32,27200,2,0,P|140:88|148:140,1,103.499996841431,4|0,0:0|0:0,0:0:0:0:
366,132,27516,2,0,P|372:88|356:32,1,103.499996841431,4|0,0:0|0:0,0:0:0:0:
316,192,27832,5,10,0:0:0:0:
172,108,27990,1,10,0:0:0:0:
332,64,28148,1,10,0:0:0:0:
472,156,28306,1,10,0:0:0:0:
268,120,28463,5,10,0:0:0:0:
72,192,28621,1,10,0:0:0:0:
228,52,28779,1,10,0:0:0:0:
136,240,28937,1,10,0:0:0:0:
332,168,29095,6,0,P|372:136|404:80,1,103.499996841431,4|0,0:0|0:0,0:0:0:0:
256,200,29411,1,10,0:0:0:0:
168,100,29569,1,10,0:0:0:0:
168,100,29727,2,0,P|128:56|116:12,1,103.499996841431,4|0,0:0|0:0,0:0:0:0:
344,284,30042,2,0,P|384:328|396:372,1,103.499996841431,4|0,0:0|0:0,0:0:0:0:
416,236,30358,5,2,0:0:0:0:
448,160,30516,1,2,0:0:0:0:
424,80,30674,1,2,0:0:0:0:
356,32,30832,1,2,0:0:0:0:
276,60,30990,1,2,0:0:0:0:
200,24,31148,1,2,0:0:0:0:
140,80,31306,2,0,P|80:132|0:148,1,155.249995262146,2|0,0:0|0:0,0:0:0:0:
44,172,31621,6,0,P|84:212|100:264,1,103.499996841431,4|14,0:0|0:0,0:0:0:0:
108,340,31937,1,0,0:0:0:0:
268,300,32095,1,14,0:0:0:0:
268,300,32174,2,0,P|296:292|332:260,1,51.7499984207154
396,148,32411,2,0,P|316:120|256:56,1,155.249995262146,14|0,0:0|0:0,0:0:0:0:
304,52,32727,2,0,P|356:44|404:16,1,103.499996841431,14|0,0:0|0:0,0:0:0:0:
300,152,33042,5,14,0:0:0:0:
300,152,33121,1,0,0:0:0:0:
300,152,33200,2,0,P|248:160|200:188,1,103.499996841431,0|14,0:0|0:0,0:0:0:0:
68,280,33516,2,0,P|108:216|112:120,1,155.249995262146,14|4,0:0|0:0,0:0:0:0:
115,137,33832,1,0,0:0:0:0:
115,137,33990,1,0,0:0:0:0:
232,256,34148,6,0,P|280:296|336:304,1,103.499996841431,0|14,0:0|0:0,0:0:0:0:
484,288,34463,1,0,0:0:0:0:
384,156,34621,1,14,0:0:0:0:
384,156,34700,2,0,P|356:124|344:100,1,51.7499984207154
492,28,34937,2,0,P|408:36|336:16,1,155.249995262146,14|0,0:0|0:0,0:0:0:0:
300,12,35253,2,0,P|248:16|192:44,1,103.499996841431,14|0,0:0|0:0,0:0:0:0:
80,148,35569,5,14,0:0:0:0:
80,148,35648,1,0,0:0:0:0:
80,148,35727,2,0,P|132:144|188:116,1,103.499996841431,0|14,0:0|0:0,0:0:0:0:
300,12,36042,2,0,P|324:80|392:128,1,155.249995262146,14|4,0:0|0:0,0:0:0:0:
389,127,36358,1,4,0:0:0:0:
389,127,36516,1,0,0:0:0:0:
240,196,36674,6,0,P|192:220|160:272,1,103.499996841431,10|0,0:0|0:0,0:0:0:0:
172,344,36990,2,0,P|220:320|252:268,1,103.499996841431
324,312,37306,6,0,P|376:284|440:276,1,103.499996841431,10|0,0:0|0:0,0:0:0:0:
512,164,37621,2,0,P|460:192|396:200,1,103.499996841431
284,100,37937,6,0,P|336:72|400:64,1,103.499996841431,10|0,0:0|0:0,0:0:0:0:
228,284,38253,2,0,P|176:312|112:320,1,103.499996841431,10|0,0:0|0:0,0:0:0:0:
340,308,38569,6,0,P|396:320|444:348,1,103.499996841431,10|0,0:0|0:0,0:0:0:0:
172,76,38884,2,0,P|116:64|68:36,1,103.499996841431,10|0,0:0|0:0,0:0:0:0:
136,164,39200,5,10,0:0:0:0:
128,328,39358,1,10,0:0:0:0:
224,192,39516,1,10,0:0:0:0:
60,212,39674,1,10,0:0:0:0:
172,76,39832,5,0,0:0:0:0:
204,52,39911,1,10,0:0:0:0:
244,40,39990,1,10,0:0:0:0:
284,40,40069,1,10,0:0:0:0:
316,64,40148,1,10,0:0:0:0:
336,100,40227,1,10,0:0:0:0:
336,140,40306,1,10,0:0:0:0:
304,168,40384,1,10,0:0:0:0:
300,208,40463,2,0,B|288:292|336:348|416:356|472:312|488:252|472:180|412:148|336:176|348:248|400:268,1,413.999987365723,4|4,0:0|0:0,0:0:0:0:
374,247,41411,5,2,0:0:0:0:
374,247,41727,5,4,0:0:0:0:
374,247,42042,2,0,P|312:228|276:192,1,115,0|0,0:0|0:0,0:0:0:0:
136,12,42358,2,0,P|124:72|88:120,1,115,4|0,0:0|0:0,0:0:0:0:
48,112,42595,1,0,0:0:0:0:
48,112,42674,2,0,L|92:232,1,115
300,308,42990,1,4,0:0:0:0:
300,308,43069,1,0,0:0:0:0:
300,308,43148,2,0,L|260:200,1,115
208,36,43463,1,0,0:0:0:0:
436,16,43621,2,0,L|312:28,1,115,4|0,0:0|0:0,0:0:0:0:
156,188,43937,2,0,L|280:176,1,115,4|0,0:0|0:0,0:0:0:0:
440,336,44253,6,0,L|316:348,1,115,4|0,0:0|0:0,0:0:0:0:
284,328,44490,1,0,0:0:0:0:
240,312,44569,2,0,L|116:324,1,115,4|0,0:0|0:0,0:0:0:0:
232,216,44884,2,0,P|296:140|312:48,1,172.5,4|0,0:0|0:0,0:0:0:0:
344,104,45200,2,0,P|388:144|456:160,1,115
440,336,45516,2,0,P|480:292|496:224,1,115,8|0,0:0|0:0,0:0:0:0:
324,228,45832,2,0,P|260:248|200:240,1,115,8|0,0:0|0:0,0:0:0:0:
48,188,46148,2,0,P|112:168|172:176,1,115,8|2,0:0|0:0,0:0:0:0:
200,152,46384,1,2,0:0:0:0:
248,152,46463,2,0,P|312:132|372:140,1,115,2|8,0:0|0:0,0:0:0:0:
424,204,46779,6,0,L|500:116,2,115,4|0|0,0:0|0:0|0:0,0:0:0:0:
332,224,47253,2,0,P|276:252|240:300,1,115,4|0,0:0|0:0,0:0:0:0:
280,320,47490,1,0,0:0:0:0:
280,320,47569,2,0,L|160:320,1,115
48,192,47884,1,0,0:0:0:0:
220,164,48042,2,0,P|296:104|328:28,1,172.5,4|0,0:0|0:0,0:0:0:0:
284,52,48358,2,0,P|224:44|176:16,1,115,4|0,0:0|0:0,0:0:0:0:
372,48,48674,1,0,0:0:0:0:
428,212,48832,1,0,0:0:0:0:
428,212,48911,1,0,0:0:0:0:
428,212,48990,2,0,P|400:268|360:312,1,115
196,352,49306,5,8,0:0:0:0:
52,260,49463,1,0,0:0:0:0:
36,216,49542,1,0,0:0:0:0:
52,172,49621,2,0,P|76:120|120:80,1,115,8|0,0:0|0:0,0:0:0:0:
428,212,49937,2,0,P|404:264|360:304,2,115,8|0|8,0:0|0:0|0:0,0:0:0:0:
336,212,50411,2,0,P|360:128|344:40,1,172.5,4|0,0:0|0:0,0:0:0:0:
320,84,50727,2,0,P|240:116|152:96,1,172.5,4|0,0:0|0:0,0:0:0:0:
120,72,51042,1,4,0:0:0:0:
52,192,51200,5,12,0:0:0:0:
460,192,51358,1,12,0:0:0:0:
256,192,51516,1,12,0:0:0:0:
100,268,51832,6,0,P|160:280|220:268,1,115,8|0,0:0|0:0,0:0:0:0:
412,116,52148,2,0,P|352:104|292:116,1,115,8|0,0:0|0:0,0:0:0:0:
108,156,52463,1,8,0:0:0:0:
252,288,52621,1,0,0:0:0:0:
252,288,52700,1,0,0:0:0:0:
252,288,52779,2,0,P|304:312|368:312,1,115,8|0,0:0|0:0,0:0:0:0:
508,180,53095,2,0,P|432:220|376:296,1,172.5,4|0,0:0|0:0,0:0:0:0:
372,240,53411,2,0,P|360:184|324:136,1,115,4|0,0:0|0:0,0:0:0:0:
176,112,53727,1,4,0:0:0:0:
116,44,53884,1,0,0:0:0:0:
128,280,54042,1,4,0:0:0:0:
68,212,54199,1,0,0:0:0:0:
224,284,54358,6,0,P|280:304|340:304,1,115,4|0,0:0|0:0,0:0:0:0:
376,324,54595,1,0,0:0:0:0:
376,324,54674,2,0,L|472:240,1,115,4|0,0:0|0:0,0:0:0:0:
444,88,54990,2,0,P|424:168|356:240,1,172.5,4|0,0:0|0:0,0:0:0:0:
364,188,55306,2,0,P|324:152|264:136,1,115,4|0,0:0|0:0,0:0:0:0:
36,164,55621,5,4,0:0:0:0:
148,296,55779,1,0,0:0:0:0:
188,320,55858,1,0,0:0:0:0:
232,332,55937,1,8,0:0:0:0:
276,320,56016,1,0,0:0:0:0:
320,300,56095,2,0,P|376:280|440:288,1,115,0|8,0:0|0:0,0:0:0:0:
460,56,56411,1,0,0:0:0:0:
432,92,56490,1,0,0:0:0:0:
388,104,56569,2,0,P|332:120|272:108,1,115,8|0,0:0|0:0,0:0:0:0:
124,32,56884,5,4,0:0:0:0:
256,220,57042,1,0,0:0:0:0:
52,112,57200,1,8,0:0:0:0:
280,132,57358,2,0,L|416:152,1,115,0|8,0:0|0:0,0:0:0:0:
372,192,57595,1,0,0:0:0:0:
372,192,57674,2,0,P|344:248|344:304,2,115,0|8|0,0:0|0:0|0:0,0:0:0:0:
220,280,58148,2,0,P|140:308|40:288,1,172.5,4|0,0:0|0:0,0:0:0:0:
80,256,58463,2,0,P|116:208|128:144,1,115,4|0,0:0|0:0,0:0:0:0:
432,128,58779,2,0,P|396:176|384:240,1,115,4|0,0:0|0:0,0:0:0:0:
348,196,59016,1,4,0:0:0:0:
348,196,59095,2,0,P|304:152|256:132,2,115,0|0|4,0:0|0:0|0:0,0:0:0:0:
332,288,59569,5,4,0:0:0:0:
188,324,59727,1,4,0:0:0:0:
244,188,59884,1,4,0:0:0:0:
96,188,60042,1,8,0:0:0:0:
68,40,60200,1,8,0:0:0:0:
68,40,60358,1,8,0:0:0:0:
68,40,60516,1,8,0:0:0:0:
68,40,60674,6,0,P|124:60|184:52,1,115,2|2,0:0|0:0,0:0:0:0:
220,36,60911,1,2,0:0:0:0:
264,52,60990,2,0,P|320:72|380:64,1,115,2|2,0:0|0:0,0:0:0:0:
416,64,61227,1,2,0:0:0:0:
444,92,61306,2,0,P|456:148|432:216,1,115,2|0,0:0|0:0,0:0:0:0:
68,292,61621,2,0,P|56:236|80:168,1,115,2|0,0:0|0:0,0:0:0:0:
256,40,61937,6,0,L|256:296,1,230,2|2,0:0|0:0,0:0:0:0:
72,200,62569,1,2,0:0:0:0:
256,270,62727,1,2,0:0:0:0:
440,200,62885,1,2,0:0:0:0:
256,336,63042,1,2,0:0:0:0:
72,200,63200,1,2,0:0:0:0:
440,200,63358,1,2,0:0:0:0:
256,64,63516,1,2,0:0:0:0:
256,108,63595,1,2,0:0:0:0:
256,152,63674,1,2,0:0:0:0:
256,200,63753,1,2,0:0:0:0:
256,248,63832,1,2,0:0:0:0:
256,64,64148,5,14,0:0:0:0:
256,64,64463,5,4,0:0:0:0:
92,84,74569,6,0,L|208:88,1,103.499996841431,2|0,0:0|0:0,0:0:0:0:
376,184,74884,2,0,L|272:184,1,103.499996841431,2|0,0:0|0:0,0:0:0:0:
232,192,75121,1,0,0:0:0:0:
200,220,75200,2,0,P|168:264|156:316,1,103.499996841431,2|0,0:0|0:0,0:0:0:0:
312,164,75516,2,0,P|344:120|356:68,2,103.499996841431,2|0|2,0:0|0:0|0:0,0:0:0:0:
128,260,75990,1,0,0:0:0:0:
320,332,76148,1,2,0:0:0:0:
360,348,76227,1,2,0:0:0:0:
400,348,76306,1,2,0:0:0:0:
436,328,76384,1,2,0:0:0:0:
460,296,76463,2,0,P|480:244|472:184,1,103.499996841431,2|0,0:0|0:0,0:0:0:0:
52,88,76779,2,0,P|32:140|40:200,1,103.499996841431,2|0,0:0|0:0,0:0:0:0:
120,32,77095,5,6,0:0:0:0:
200,44,77253,1,0,0:0:0:0:
284,44,77411,2,0,P|340:40|388:16,2,103.499996841431,6|0|6,0:0|0:0|0:0,0:0:0:0:
120,32,77884,1,0,0:0:0:0:
44,180,78042,1,6,0:0:0:0:
160,296,78200,1,0,0:0:0:0:
324,272,78358,2,0,L|444:244,1,103.499996841431,0|2,0:0|0:0,0:0:0:0:
424,248,78595,1,2,0:0:0:0:
424,248,78674,1,2,0:0:0:0:
288,156,78832,1,2,0:0:0:0:
288,156,78911,1,2,0:0:0:0:
288,156,78990,2,0,P|240:132|208:84,1,103.499996841431,2|0,0:0|0:0,0:0:0:0:
52,148,79306,2,0,P|76:100|124:68,1,103.499996841431,2|0,0:0|0:0,0:0:0:0:
460,236,79621,6,0,P|436:284|388:316,1,103.499996841431,2|0,0:0|0:0,0:0:0:0:
240,260,79937,2,0,L|180:372,1,103.499996841431,2|0,0:0|0:0,0:0:0:0:
136,192,80253,2,0,L|196:80,1,103.499996841431,2|0,0:0|0:0,0:0:0:0:
380,24,80569,2,0,L|320:136,1,103.499996841431,2|0,0:0|0:0,0:0:0:0:
264,64,80884,2,0,P|212:88|152:84,1,103.499996841431,0|2,0:0|0:0,0:0:0:0:
128,76,81121,1,2,0:0:0:0:
88,76,81200,1,2,0:0:0:0:
56,104,81279,1,2,0:0:0:0:
40,144,81358,1,2,0:0:0:0:
48,184,81437,1,2,0:0:0:0:
84,208,81516,2,0,L|180:264,1,103.499996841431,2|0,0:0|0:0,0:0:0:0:
428,176,81832,2,0,L|332:120,1,103.499996841431,2|0,0:0|0:0,0:0:0:0:
172,248,82148,6,0,P|124:272|64:276,1,103.499996841431,6|0,0:0|0:0,0:0:0:0:
340,136,82463,2,0,P|388:112|448:108,1,103.499996841431,6|0,0:0|0:0,0:0:0:0:
256,192,82779,1,8,0:0:0:0:
96,76,82937,1,8,0:0:0:0:
156,160,83095,1,8,0:0:0:0:
204,68,83253,1,8,0:0:0:0:
308,60,83411,2,0,P|364:64|412:88,1,103.499996841431,8|0,0:0|0:0,0:0:0:0:
352,172,83727,2,0,L|384:216,1,51.7499984207154,8|0,0:0|0:0,0:0:0:0:
340,220,83884,2,0,P|320:276|284:312,1,103.499996841431,0|8,0:0|0:0,0:0:0:0:
172,164,84200,2,0,P|192:108|228:72,2,103.499996841431,0|8|0,0:0|0:0|0:0,0:0:0:0:
252,324,84674,6,0,L|152:364,1,103.499996841431,10|0,0:0|0:0,0:0:0:0:
260,60,84990,2,0,L|360:20,1,103.499996841431,2|0,0:0|0:0,0:0:0:0:
248,160,85306,2,0,P|208:196|140:220,1,103.499996841431,2|2,0:0|0:0,0:0:0:0:
136,184,85542,1,2,0:0:0:0:
136,184,85621,2,0,L|68:272,1,103.499996841431,2|2,0:0|0:0,0:0:0:0:
4,124,85937,5,10,0:0:0:0:
148,60,86095,1,10,0:0:0:0:
60,188,86253,1,10,0:0:0:0:
72,32,86411,1,10,0:0:0:0:
60,240,86569,5,10,0:0:0:0:
216,104,86727,1,10,0:0:0:0:
264,304,86884,1,10,0:0:0:0:
180,212,87042,1,10,0:0:0:0:
300,180,87200,6,0,P|352:148|384:104,2,103.499996841431,2|0|0,0:0|0:0|0:0,0:0:0:0:
192,52,87674,1,2,0:0:0:0:
152,56,87753,1,2,0:0:0:0:
116,80,87832,2,2,P|64:112|32:156,1,103.499996841431
116,304,88148,2,0,P|64:272|32:228,1,103.499996841431,2|0,0:0|0:0,0:0:0:0:
152,192,88463,2,0,P|204:160|236:116,1,103.499996841431,8|0,0:0|0:0,0:0:0:0:
296,20,88779,2,0,P|364:48|464:40,1,155.249995262146,8|0,0:0|0:0,0:0:0:0:
416,76,89095,2,0,P|384:120|368:180,1,103.499996841431,8|0,0:0|0:0,0:0:0:0:
368,208,89332,1,0,0:0:0:0:
384,248,89411,2,0,L|408:300,2,51.7499984207154,8|0|0,0:0|0:0|0:0,0:0:0:0:
292,124,89727,6,0,P|248:92|224:44,1,103.499996841431,6|0,0:0|0:0,0:0:0:0:
164,192,90042,2,0,L|136:296,1,103.499996841431,6|0,0:0|0:0,0:0:0:0:
288,248,90358,2,0,P|320:296|364:320,1,103.499996841431,6|2,0:0|0:0,0:0:0:0:
400,320,90595,1,2,0:0:0:0:
424,288,90674,2,0,P|444:236|488:200,1,103.499996841431,2|0,0:0|0:0,0:0:0:0:
352,116,90990,2,0,P|292:104|244:80,1,103.499996841431,2|0,0:0|0:0,0:0:0:0:
116,16,91306,1,0,0:0:0:0:
112,172,91463,1,2,0:0:0:0:
112,172,91542,1,2,0:0:0:0:
112,172,91621,2,0,P|100:232|64:276,1,103.499996841431,2|2,0:0|0:0,0:0:0:0:
116,272,91858,1,2,0:0:0:0:
116,272,91937,2,0,L|224:256,1,103.499996841431,2|0,0:0|0:0,0:0:0:0:
424,232,92253,5,12,0:0:0:0:
344,208,92411,1,0,0:0:0:0:
300,140,92569,2,0,P|280:96|288:32,1,103.499996841431,12|0,0:0|0:0,0:0:0:0:
212,244,92884,2,0,P|232:288|224:352,1,103.499996841431,12|0,0:0|0:0,0:0:0:0:
72,328,93200,2,0,P|52:284|60:220,1,103.499996841431,12|0,0:0|0:0,0:0:0:0:
256,192,93437,12,6,94463,0:0:0:0:
312,284,94779,6,0,B|344:276|344:276|368:280|368:280|416:264,1,86.25,6|0,0:0|0:0,0:0:0:0:
412,256,95095,1,8,0:0:0:0:
384,180,95253,1,0,0:0:0:0:
320,132,95411,2,0,B|296:116|296:116|260:108|260:108|236:92|236:92|200:84,1,115,0|8,0:0|0:0,0:0:0:0:
136,104,95884,1,0,0:0:0:0:
136,184,96042,2,0,B|136:208|136:208|116:216|124:240|124:240|100:260|100:308,1,115,0|8,0:0|0:0,0:0:0:0:
376,200,96674,2,0,B|376:176|376:176|396:168|388:144|388:144|412:124|412:76,1,115,0|8,0:0|0:0,0:0:0:0:
410,98,97148,1,0,0:0:0:0:
324,84,97306,6,0,B|288:76|288:76|288:92|288:92|268:76|268:76|268:92|268:92|248:76|248:76|248:92|248:92|200:88,1,172.5
128,68,97937,1,8,0:0:0:0:
64,124,98095,1,0,0:0:0:0:
64,212,98253,1,8,0:0:0:0:
128,268,98411,1,0,0:0:0:0:
212,260,98569,2,0,B|304:264|280:296|280:296|328:292|328:292|320:328|416:304,1,230,4|8,0:0|0:0,0:0:0:0:
400,307,99516,1,4,0:0:0:0:
448,84,99832,5,4,0:0:0:0:
392,148,99990,1,0,0:0:0:0:
308,140,100148,2,0,B|276:140|276:140|236:148,1,57.5,8|0,0:0|0:0,0:0:0:0:
41,53,100463,2,0,B|92:84|72:96|72:96|112:116|112:116|96:128|164:144,1,172.5
204,220,101095,2,0,L|224:280,1,57.5
296,228,101411,2,0,L|340:280,1,57.5
376,196,101727,2,0,B|404:188|404:188|396:208|396:208|432:196|432:196|476:208|508:164,1,172.5,8|0,0:0|0:0,0:0:0:0:
472,56,102358,5,0,0:0:0:0:
388,32,102516,1,0,0:0:0:0:
304,52,102674,1,0,0:0:0:0:
260,124,102832,1,0,0:0:0:0:
264,212,102990,1,0,0:0:0:0:
256,240,103069,1,0,0:0:0:0:
240,264,103148,1,0,0:0:0:0:
220,284,103227,1,0,0:0:0:0:
192,296,103306,1,0,0:0:0:0:
164,296,103384,1,0,0:0:0:0:
136,296,103463,1,0,0:0:0:0:
112,280,103542,1,0,0:0:0:0:
92,260,103621,5,2,0:0:0:0:
256,100,103937,1,2,0:0:0:0:
420,260,104253,1,2,0:0:0:0:
316,56,104569,1,2,0:0:0:0:
196,56,104727,1,2,0:0:0:0:
256,152,104884,1,2,0:0:0:0:
256,208,105042,1,2,0:0:0:0:
256,264,105200,1,2,0:0:0:0:
256,320,105358,1,2,0:0:0:0:
256,376,105516,1,2,0:0:0:0:
144,356,105674,5,2,0:0:0:0:
108,344,105753,1,2,0:0:0:0:
84,316,105832,1,2,0:0:0:0:
84,316,105990,1,2,0:0:0:0:
44,172,106148,6,0,P|92:136|112:80,1,115,4|0,0:0|0:0,0:0:0:0:
148,112,106384,1,0,0:0:0:0:
148,112,106463,2,0,P|192:152|248:164,1,115
457,206,106779,2,0,P|400:144|320:112,1,172.5,4|0,0:0|0:0,0:0:0:0:
332,156,107095,2,0,P|336:216|320:276,1,115,4|0,0:0|0:0,0:0:0:0:
256,48,107411,1,8,0:0:0:0:
132,240,107569,1,2,0:0:0:0:
108,280,107648,1,0,0:0:0:0:
68,304,107727,1,0,0:0:0:0:
132,240,107884,1,0,0:0:0:0:
200,304,108042,2,0,P|256:320|304:352,1,115,10|0,0:0|0:0,0:0:0:0:
312,80,108358,2,0,P|256:64|208:32,1,115,10|0,0:0|0:0,0:0:0:0:
16,160,108674,6,0,P|64:84|144:52,1,172.5,4|0,0:0|0:0,0:0:0:0:
132,100,108990,2,0,P|144:152|200:200,1,115,4|0,0:0|0:0,0:0:0:0:
420,208,109306,1,4,0:0:0:0:
412,252,109384,1,0,0:0:0:0:
384,288,109463,1,0,0:0:0:0:
344,312,109542,1,0,0:0:0:0:
300,308,109621,2,0,P|236:300|184:312,1,115
60,120,109937,2,0,P|112:152|168:160,1,115,4|0,0:0|0:0,0:0:0:0:
208,144,110174,1,0,0:0:0:0:
240,176,110253,2,0,P|292:208|348:216,1,115,4|0,0:0|0:0,0:0:0:0:
332,124,110569,2,0,P|392:100|432:48,1,115,8|0,0:0|0:0,0:0:0:0:
180,260,110884,2,0,P|120:284|80:336,1,115,8|0,0:0|0:0,0:0:0:0:
164,104,111200,6,0,L|244:12,2,115,4|0|0,0:0|0:0|0:0,0:0:0:0:
392,148,111674,2,0,L|276:280,1,172.5,4|0,0:0|0:0,0:0:0:0:
324,288,111990,2,0,L|196:344,1,115,4|0,0:0|0:0,0:0:0:0:
48,304,112306,1,0,0:0:0:0:
136,156,112463,2,0,P|192:116|216:64,1,115,8|0,0:0|0:0,0:0:0:0:
232,120,112700,1,0,0:0:0:0:
232,120,112779,2,0,P|280:156|336:164,1,115,8|0,0:0|0:0,0:0:0:0:
352,72,113095,2,0,P|440:156|456:280,1,230,8|0,0:0|0:0,0:0:0:0:
459,258,113569,1,4,0:0:0:0:
368,240,113727,6,0,P|312:248|264:284,1,115,4|0,0:0|0:0,0:0:0:0:
232,312,113963,1,0,0:0:0:0:
188,320,114042,2,0,L|124:328,1,57.5,4|0,0:0|0:0,0:0:0:0:
116,372,114200,2,0,L|56:340,1,57.5
64,300,114358,2,0,P|44:240|48:188,1,115,4|0,0:0|0:0,0:0:0:0:
448,84,114674,2,0,P|468:144|464:196,1,115,4|0,0:0|0:0,0:0:0:0:
300,252,114990,2,0,L|264:364,1,115,8|8,0:0|0:0,0:0:0:0:
212,132,115306,2,0,L|248:20,1,115,8|8,0:0|0:0,0:0:0:0:
448,84,115621,1,6,0:0:0:0:
256,316,115779,1,6,0:0:0:0:
104,84,115937,1,6,0:0:0:0:
348,328,116253,6,0,P|388:252|460:200,1,172.5,4|0,0:0|0:0,0:0:0:0:
412,196,116569,2,0,P|356:176|312:132,1,115,4|0,0:0|0:0,0:0:0:0:
320,24,116884,2,0,P|260:44|200:40,1,115,4|0,0:0|0:0,0:0:0:0:
60,32,117200,1,0,0:0:0:0:
128,204,117358,2,0,P|184:128|200:48,1,172.5,8|0,0:0|0:0,0:0:0:0:
228,92,117674,2,0,L|296:188,1,115,8|0,0:0|0:0,0:0:0:0:
392,332,117990,1,8,0:0:0:0:
224,292,118148,2,0,P|164:288|108:312,1,115,12|0,0:0|0:0,0:0:0:0:
288,92,118463,2,0,P|348:96|404:72,1,115,12|0,0:0|0:0,0:0:0:0:
232,24,118779,6,0,P|144:48|80:112,1,172.5,12|0,0:0|0:0,0:0:0:0:
132,116,119095,2,0,P|180:152|200:208,1,115,12|0,0:0|0:0,0:0:0:0:
192,364,119411,1,12,0:0:0:0:
236,352,119490,1,0,0:0:0:0:
276,332,119569,1,0,0:0:0:0:
308,300,119648,1,0,0:0:0:0:
332,260,119727,2,0,P|360:200|368:136,1,115,12|0,0:0|0:0,0:0:0:0:
380,28,120042,1,12,0:0:0:0:
260,72,120200,1,0,0:0:0:0:
220,92,120279,1,0,0:0:0:0:
176,100,120358,2,0,P|116:96|64:72,1,115,12|0,0:0|0:0,0:0:0:0:
108,220,120674,2,0,P|160:256|188:300,1,115,12|0,0:0|0:0,0:0:0:0:
404,164,120990,2,0,P|352:128|324:84,1,115,12|0,0:0|0:0,0:0:0:0:
188,24,121306,5,4,0:0:0:0:
68,112,121463,1,8,0:0:0:0:
188,204,121621,1,8,0:0:0:0:
336,192,121779,2,0,P|400:204|452:240,1,115,4|0,0:0|0:0,0:0:0:0:
408,264,122016,1,0,0:0:0:0:
408,264,122095,2,0,P|360:304|336:352,1,115
336,350,122411,1,4,0:0:0:0:
200,368,122569,2,0,P|144:360|88:324,1,115,12|0,0:0|0:0,0:0:0:0:
76,192,122884,2,0,P|124:232|152:288,1,115,12|0,0:0|0:0,0:0:0:0:
224,188,123200,2,0,P|312:208|408:184,1,172.5,4|0,0:0|0:0,0:0:0:0:
344,160,123516,2,0,P|296:120|272:68,1,115,4|0,0:0|0:0,0:0:0:0:
420,40,123832,5,8,0:0:0:0:
284,100,123990,1,8,0:0:0:0:
428,64,124148,1,8,0:0:0:0:
280,76,124306,1,8,0:0:0:0:
368,196,124463,5,8,0:0:0:0:
184,220,124621,1,8,0:0:0:0:
368,236,124779,1,8,0:0:0:0:
192,180,124937,1,8,0:0:0:0:
268,308,125095,5,4,0:0:0:0:
120,304,125253,1,4,0:0:0:0:
84,276,125332,1,4,0:0:0:0:
64,236,125411,2,0,P|64:176|84:120,1,115,4|0,0:0|0:0,0:0:0:0:
448,148,125727,2,0,P|448:208|428:264,1,115,4|0,0:0|0:0,0:0:0:0:
256,196,126042,2,0,L|256:72,2,115,4|0|4,0:0|0:0|0:0,0:0:0:0:
256,196,126674,5,6,0:0:0:0:
144,124,126990,1,2,0:0:0:0:
144,124,127148,1,2,0:0:0:0:
368,124,127306,1,2,0:0:0:0:
368,124,127463,1,2,0:0:0:0:
80,192,127621,5,2,0:0:0:0:
432,192,127779,1,2,0:0:0:0:
256,36,127937,1,2,0:0:0:0:
256,72,128016,1,2,0:0:0:0:
256,108,128095,1,2,0:0:0:0:
256,144,128174,1,2,0:0:0:0:
256,180,128253,1,2,0:0:0:0:
256,320,128569,1,2,0:0:0:0:
120,316,128884,5,4,0:0:0:0:
92,296,128963,1,0,0:0:0:0:
80,264,129042,1,0,0:0:0:0:
76,232,129121,1,0,0:0:0:0:
80,192,129200,1,8,0:0:0:0:
96,160,129279,1,0,0:0:0:0:
120,136,129358,1,0,0:0:0:0:
152,120,129437,1,0,0:0:0:0:
192,116,129516,5,8,0:0:0:0:
232,128,129595,1,0,0:0:0:0:
268,148,129674,1,0,0:0:0:0:
292,180,129753,1,0,0:0:0:0:
304,220,129832,1,8,0:0:0:0:
324,256,129911,1,0,0:0:0:0:
356,272,129990,1,0,0:0:0:0:
396,276,130069,1,0,0:0:0:0:
432,260,130148,5,8,0:0:0:0:
456,228,130227,1,0,0:0:0:0:
468,192,130306,1,0,0:0:0:0:
456,152,130384,1,0,0:0:0:0:
444,116,130463,1,8,0:0:0:0:
412,92,130542,1,0,0:0:0:0:
372,84,130621,1,0,0:0:0:0:
332,92,130700,1,0,0:0:0:0:
300,120,130779,5,8,0:0:0:0:
268,148,130858,1,0,0:0:0:0:
228,156,130937,1,0,0:0:0:0:
188,156,131016,1,0,0:0:0:0:
152,136,131095,1,8,0:0:0:0:
112,128,131174,1,0,0:0:0:0:
72,136,131253,1,0,0:0:0:0:
36,148,131332,1,0,0:0:0:0:
12,188,131411,5,8,0:0:0:0:
4,228,131490,1,0,0:0:0:0:
24,276,131569,1,0,0:0:0:0:
52,304,131648,1,0,0:0:0:0:
92,316,131727,1,8,0:0:0:0:
132,308,131806,1,0,0:0:0:0:
172,300,131884,1,0,0:0:0:0:
212,304,131963,1,0,0:0:0:0:
252,308,132042,6,0,L|319:334,1,57.5,8|0,0:0|0:0,0:0:0:0:
420,308,132200,2,0,L|352:281,1,57.5
292,196,132358,2,0,L|359:222,1,57.5,8|0,0:0|0:0,0:0:0:0:
456,184,132516,2,0,L|388:157,1,57.5
364,152,132674,5,8,0:0:0:0:
332,128,132753,1,0,0:0:0:0:
304,100,132832,1,0,0:0:0:0:
284,64,132911,1,0,0:0:0:0:
248,84,132990,1,8,0:0:0:0:
212,104,133069,1,0,0:0:0:0:
172,104,133148,1,0,0:0:0:0:
132,96,133227,1,0,0:0:0:0:
92,92,133306,5,8,0:0:0:0:
56,104,133384,1,0,0:0:0:0:
32,136,133463,1,0,0:0:0:0:
32,176,133542,1,0,0:0:0:0:
44,216,133621,1,8,0:0:0:0:
84,236,133700,1,0,0:0:0:0:
124,236,133779,1,0,0:0:0:0:
160,220,133858,1,0,0:0:0:0:
192,196,133937,6,0,L|260:204,1,57.5,8|0,0:0|0:0,0:0:0:0:
420,240,134095,2,0,L|352:232,1,57.5,0|0,0:0|0:0,0:0:0:0:
328,108,134253,2,0,L|320:176,1,57.5,8|0,0:0|0:0,0:0:0:0:
284,336,134411,2,0,L|292:268,1,57.5,0|0,0:0|0:0,0:0:0:0:
300,232,134569,5,8,0:0:0:0:
320,192,134648,1,0,0:0:0:0:
352,160,134727,1,0,0:0:0:0:
392,140,134806,1,0,0:0:0:0:
436,132,134884,2,0,L|496:128,3,57.5,8|0|0|0,0:0|0:0|0:0|0:0,0:0:0:0:
452,52,135200,6,0,L|400:28,1,57.5,8|0,0:0|0:0,0:0:0:0:
356,12,135358,1,0,0:0:0:0:
312,12,135437,1,0,0:0:0:0:
268,20,135516,1,8,0:0:0:0:
224,28,135595,1,0,0:0:0:0:
192,60,135674,1,0,0:0:0:0:
180,104,135753,1,0,0:0:0:0:
192,148,135832,6,0,P|172:204|116:236,1,115,8|0,0:0|0:0,0:0:0:0:
100,196,136069,1,0,0:0:0:0:
100,196,136148,2,0,L|80:256,1,57.5,8|0,0:0|0:0,0:0:0:0:
8,296,136306,2,0,L|40:344,1,57.5
124,324,136463,6,0,L|188:344,1,57.5,8|0,0:0|0:0,0:0:0:0:
184,264,136621,2,0,L|240:240,1,57.5
276,320,136779,2,0,L|340:340,1,57.5,8|0,0:0|0:0,0:0:0:0:
336,260,136937,2,0,L|392:236,1,57.5
424,160,137095,5,8,0:0:0:0:
380,156,137174,1,0,0:0:0:0:
336,136,137253,1,0,0:0:0:0:
300,108,137332,1,0,0:0:0:0:
272,72,137411,1,8,0:0:0:0:
228,92,137490,1,0,0:0:0:0:
188,112,137569,1,0,0:0:0:0:
144,116,137648,1,0,0:0:0:0:
108,104,137727,6,0,L|56:76,1,57.5,8|0,0:0|0:0,0:0:0:0:
60,180,137884,2,0,L|112:208,1,57.5
136,104,138042,2,0,L|84:76,1,57.5,8|0,0:0|0:0,0:0:0:0:
88,180,138199,2,0,L|140:208,1,57.5
188,112,138358,5,8,0:0:0:0:
228,132,138437,1,0,0:0:0:0:
272,136,138516,1,0,0:0:0:0:
316,124,138595,1,0,0:0:0:0:
352,96,138674,2,0,P|400:52|424:8,1,115,8|0,0:0|0:0,0:0:0:0:
468,92,138990,5,8,0:0:0:0:
432,120,139069,1,0,0:0:0:0:
404,156,139148,1,0,0:0:0:0:
396,200,139227,1,0,0:0:0:0:
396,244,139306,1,8,0:0:0:0:
420,284,139384,1,0,0:0:0:0:
376,280,139463,1,0,0:0:0:0:
332,284,139542,1,0,0:0:0:0:
288,300,139621,6,0,P|256:308|228:324,1,57.5,8|0,0:0|0:0,0:0:0:0:
148,272,139779,2,0,P|180:264|208:248,1,57.5
236,224,139937,1,8,0:0:0:0:
264,192,140016,1,0,0:0:0:0:
272,136,140095,1,0,0:0:0:0:
260,96,140174,1,0,0:0:0:0:
232,64,140253,6,0,P|156:24|56:48,1,172.500006580353,8|0,0:0|0:0,0:0:0:0:
36,56,140490,1,0,0:0:0:0:
36,100,140569,2,0,P|56:140|96:168,1,86.2500032901765,8|0,0:0|0:0,0:0:0:0:
192,164,140727,2,0,P|172:124|132:96,1,86.2500032901765
232,64,140884,5,8,0:0:0:0:
268,44,140963,1,0,0:0:0:0:
308,32,141042,1,0,0:0:0:0:
352,36,141121,1,0,0:0:0:0:
392,52,141200,1,8,0:0:0:0:
424,80,141279,1,0,0:0:0:0:
448,116,141358,1,0,0:0:0:0:
452,160,141437,1,0,0:0:0:0:
440,200,141516,5,8,0:0:0:0:
420,236,141595,1,0,0:0:0:0:
412,280,141674,1,0,0:0:0:0:
412,324,141753,1,0,0:0:0:0:
428,364,141832,1,8,0:0:0:0:
388,352,141911,1,0,0:0:0:0:
344,348,141990,1,0,0:0:0:0:
300,352,142069,1,0,0:0:0:0:
260,368,142148,5,8,0:0:0:0:
220,380,142227,1,0,0:0:0:0:
176,372,142306,1,0,0:0:0:0:
140,352,142384,1,0,0:0:0:0:
120,312,142463,1,8,0:0:0:0:
120,268,142542,1,0,0:0:0:0:
136,228,142621,1,0,0:0:0:0:
168,200,142700,1,0,0:0:0:0:
212,196,142779,5,8,0:0:0:0:
252,216,142858,1,0,0:0:0:0:
280,248,142937,1,0,0:0:0:0:
320,268,143016,1,0,0:0:0:0:
364,276,143095,1,8,0:0:0:0:
408,280,143174,1,0,0:0:0:0:
444,256,143253,1,0,0:0:0:0:
472,224,143332,1,0,0:0:0:0:
488,184,143411,5,8,0:0:0:0:
484,140,143490,1,0,0:0:0:0:
472,100,143569,1,0,0:0:0:0:
444,68,143648,1,0,0:0:0:0:
404,52,143727,1,8,0:0:0:0:
360,48,143806,1,0,0:0:0:0:
320,56,143884,1,0,0:0:0:0:
276,52,143963,1,0,0:0:0:0:
212,36,144042,5,8,0:0:0:0:
148,24,144121,1,0,0:0:0:0:
84,36,144200,1,0,0:0:0:0:
40,84,144279,1,0,0:0:0:0:
32,148,144358,1,8,0:0:0:0:
68,204,144437,1,0,0:0:0:0:
124,236,144516,1,0,0:0:0:0:
188,224,144595,1,0,0:0:0:0:
228,172,144674,6,0,P|256:148|300:132,1,71.875,8|0,0:0|0:0,0:0:0:0:
364,180,144832,2,0,P|336:204|292:220,1,71.875
288,132,144990,2,0,P|316:108|360:92,1,71.875,8|8,0:0|0:0,0:0:0:0:
424,140,145148,2,0,P|396:164|352:180,1,71.875
347,94,145306,5,0,0:0:0:0:
388,56,145384,1,0,0:0:0:0:
444,60,145463,1,0,0:0:0:0:
480,104,145542,1,0,0:0:0:0:
484,160,145621,1,8,0:0:0:0:
464,212,145700,1,0,0:0:0:0:
420,252,145779,1,0,0:0:0:0:
364,252,145858,1,0,0:0:0:0:
312,228,145937,5,8,0:0:0:0:
256,224,146016,1,0,0:0:0:0:
204,248,146095,1,0,0:0:0:0:
184,300,146174,1,0,0:0:0:0:
196,356,146253,2,0,P|148:284|96:260,1,143.75,8|0,0:0|0:0,0:0:0:0:
40,264,146490,1,0,0:0:0:0:
68,212,146569,6,0,L|104:144,1,71.875,8|0,0:0|0:0,0:0:0:0:
228,76,146727,2,0,L|192:144,1,71.875
112,256,146884,2,0,L|148:188,1,71.875,8|0,0:0|0:0,0:0:0:0:
272,120,147042,2,0,L|236:188,1,71.875
216,236,147200,5,8,0:0:0:0:
224,292,147279,1,0,0:0:0:0:
268,328,147358,1,0,0:0:0:0:
324,336,147437,1,0,0:0:0:0:
380,320,147516,1,8,0:0:0:0:
420,280,147595,1,0,0:0:0:0:
432,224,147674,1,0,0:0:0:0:
416,168,147753,1,0,0:0:0:0:
368,136,147832,6,0,P|336:116|312:80,1,71.875,8|0,0:0|0:0,0:0:0:0:
180,140,147990,2,0,P|200:108|236:84,1,71.875
136,236,148148,2,0,P|116:268|80:292,1,71.875,8|0,0:0|0:0,0:0:0:0:
4,104,148306,2,0,P|24:72|60:48,1,71.875
100,40,148463,5,8,0:0:0:0:
144,44,148542,1,0,0:0:0:0:
184,64,148621,1,0,0:0:0:0:
212,96,148700,1,0,0:0:0:0:
224,136,148779,1,8,0:0:0:0:
224,180,148858,1,0,0:0:0:0:
212,220,148937,1,0,0:0:0:0:
192,260,149016,1,0,0:0:0:0:
160,292,149095,5,10,0:0:0:0:
320,360,149253,1,2,0:0:0:0:
396,320,149332,1,2,0:0:0:0:
388,236,149411,2,0,P|438:163|510:114,1,172.500006580353,2|2,0:0|0:0,0:0:0:0:
124,148,149727,2,0,P|73:220|1:269,1,172.500006580353,2|2,0:0|0:0,0:0:0:0:
256,192,150042,1,2,0:0:0:0:
256,192,150358,5,4,0:0:0:0:
256,192,150674,2,0,P|324:160|360:96,1,143.75,8|0,0:0|0:0,0:0:0:0:
376,216,150990,2,8,P|400:288|460:336,1,143.75,8|0,0:0|0:0,0:0:0:0:
392,316,151227,1,0,0:0:0:0:
392,316,151306,2,0,P|316:304|256:328,1,143.75,8|0,0:0|0:0,0:0:0:0:
116,356,151621,1,4,0:0:0:0:
68,324,151700,1,0,0:0:0:0:
64,268,151779,2,0,P|60:196|92:120,1,143.75,0|4,0:0|0:0,0:0:0:0:
256,20,152095,1,0,0:0:0:0:
352,108,152253,2,0,P|412:148|492:152,1,143.75,4|0,0:0|0:0,0:0:0:0:
160,276,152569,2,0,P|100:236|20:232,1,143.75,4|0,0:0|0:0,0:0:0:0:
136,156,152884,6,0,P|244:120|308:28,1,215.625,4|0,0:0|0:0,0:0:0:0:
303,41,153200,2,0,P|340:140|436:192,1,215.625,4|0,0:0|0:0,0:0:0:0:
432,191,153516,1,8,0:0:0:0:
384,312,153674,1,0,0:0:0:0:
384,312,153753,1,0,0:0:0:0:
384,312,153832,2,0,P|308:328|248:304,1,143.75,8|0,0:0|0:0,0:0:0:0:
28,176,154148,1,8,0:0:0:0:
236,124,154306,1,0,0:0:0:0:
236,124,154384,1,0,0:0:0:0:
236,124,154463,2,0,L|380:80,1,143.75,8|0,0:0|0:0,0:0:0:0:
276,260,154779,2,0,L|132:304,1,143.75,8|0,0:0|0:0,0:0:0:0:
316,176,155095,2,0,L|172:220,1,143.75,8|0,0:0|0:0,0:0:0:0:
364,104,155411,6,0,P|436:84|492:40,2,143.75,4|0|0,0:0|0:0|0:0,0:0:0:0:
148,92,155884,2,0,P|88:176|92:292,1,215.625,4|0,0:0|0:0,0:0:0:0:
89,284,156200,2,0,P|160:256|236:264,1,143.75,4|0,0:0|0:0,0:0:0:0:
436,324,156516,1,4,0:0:0:0:
364,152,156674,2,0,P|312:100|244:80,1,143.75,4|0,0:0|0:0,0:0:0:0:
244,140,156911,1,0,0:0:0:0:
244,140,156990,2,0,P|208:208|152:248,1,143.75,4|0,0:0|0:0,0:0:0:0:
44,252,157306,1,4,0:0:0:0:
155,246,157463,2,0,P|228:252|308:216,1,143.75,0|4,0:0|0:0,0:0:0:0:
292,227,157700,1,0,0:0:0:0:
292,227,157779,2,0,P|252:164|256:84,1,143.75,0|8,0:0|0:0,0:0:0:0:
372,260,158095,5,0,0:0:0:0:
372,260,158174,1,0,0:0:0:0:
372,260,158253,2,0,L|280:376,1,143.75,8|0,0:0|0:0,0:0:0:0:
80,368,158569,2,0,L|172:252,1,143.75,8|0,0:0|0:0,0:0:0:0:
0,144,158884,2,0,L|92:28,1,143.75,8|0,0:0|0:0,0:0:0:0:
376,76,159200,1,8,0:0:0:0:
376,76,159279,1,0,0:0:0:0:
376,76,159358,2,0,L|284:192,1,143.75,0|8,0:0|0:0,0:0:0:0:
286,188,159674,1,4,0:0:0:0:
16,288,159832,1,4,0:0:0:0:
256,128,159990,1,4,0:0:0:0:
496,288,160148,1,4,0:0:0:0:
216,228,160463,5,4,0:0:0:0:
92,304,160621,1,0,0:0:0:0:
132,228,160779,2,0,P|156:160|148:80,1,143.75,4|0,0:0|0:0,0:0:0:0:
320,176,161095,2,0,P|400:256|516:288,1,215.625,4|0,0:0|0:0,0:0:0:0:
448,308,161411,2,0,L|300:352,1,143.75,4|0,0:0|0:0,0:0:0:0:
310,348,161727,1,8,0:0:0:0:
388,180,161884,1,0,0:0:0:0:
388,180,161963,1,0,0:0:0:0:
388,180,162041,2,0,P|448:132|476:64,1,143.75,8|0,0:0|0:0,0:0:0:0:
284,76,162358,2,0,P|212:72|144:36,1,143.75,8|0,0:0|0:0,0:0:0:0:
228,308,162674,2,0,P|300:312|368:348,1,143.75,8|0,0:0|0:0,0:0:0:0:
228,308,162990,6,0,B|188:264|140:256|140:256|116:208|56:184,1,215.625,8|0,0:0|0:0,0:0:0:0:
57,184,163306,2,0,P|176:168|232:96,1,215.625,8|0,0:0|0:0,0:0:0:0:
236,52,163621,1,8,0:0:0:0:
376,196,163779,1,0,0:0:0:0:
376,196,163858,1,0,0:0:0:0:
376,196,163937,2,0,L|496:288,1,143.75,8|0,0:0|0:0,0:0:0:0:
208,340,164253,2,0,P|248:276|252:204,1,143.75,4|0,0:0|0:0,0:0:0:0:
244,172,164490,1,0,0:0:0:0:
268,144,164569,2,0,P|328:98|357:32,1,143.75,4|0,0:0|0:0,0:0:0:0:
404,236,164884,2,0,L|440:376,1,143.75,4|0,0:0|0:0,0:0:0:0:
108,148,165200,2,0,L|72:8,1,143.75,4|0,0:0|0:0,0:0:0:0:
64,300,165516,5,4,0:0:0:0:
256,200,165674,1,0,0:0:0:0:
124,372,165832,1,0,0:0:0:0:
172,160,165990,2,0,P|236:72|344:48,1,215.625,4|0,0:0|0:0,0:0:0:0:
336,92,166306,2,0,P|356:164|408:224,1,143.75,4|0,0:0|0:0,0:0:0:0:
398,216,166621,1,8,0:0:0:0:
240,340,166779,5,8,0:0:0:0:
280,308,166858,1,0,0:0:0:0:
320,276,166937,1,0,0:0:0:0:
360,244,167016,1,0,0:0:0:0:
400,216,167095,1,8,0:0:0:0:
208,152,167253,1,0,0:0:0:0:
208,152,167332,1,0,0:0:0:0:
208,152,167411,2,0,P|100:112|48:20,1,215.625,8|0,0:0|0:0,0:0:0:0:
52,80,167727,2,0,L|60:256,1,143.75,8|0,0:0|0:0,0:0:0:0:
58,223,168042,5,4,0:0:0:0:
264,284,168200,5,4,0:0:0:0:
320,296,168279,1,0,0:0:0:0:
376,308,168358,1,0,0:0:0:0:
336,96,168516,5,4,0:0:0:0:
280,84,168595,1,0,0:0:0:0:
224,72,168674,1,0,0:0:0:0:
48,136,168832,5,4,0:0:0:0:
104,148,168911,1,0,0:0:0:0:
160,160,168990,1,0,0:0:0:0:
208,172,169069,1,0,0:0:0:0:
256,184,169148,2,0,L|404:224,1,143.75
124,312,169463,5,0,0:0:0:0:
176,316,169542,1,0,0:0:0:0:
224,300,169621,2,0,P|288:260|328:200,1,143.75
380,24,169937,2,0,L|408:60,15,35.9375
432,88,170569,5,2,0:0:0:0:
80,88,170884,1,2,0:0:0:0:
439,196,171200,2,0,P|356:240|304:356,1,215.625,2|0,0:0|0:0,0:0:0:0:
284,292,171516,2,0,P|236:236|156:208,1,143.75,2|0,0:0|0:0,0:0:0:0:
72,196,171832,1,2,0:0:0:0:
72,196,171990,1,0,0:0:0:0:
440,196,172148,1,2,0:0:0:0:
440,196,172306,1,0,0:0:0:0:
384,96,172463,1,2,0:0:0:0:
128,96,172621,1,0,0:0:0:0:
412,148,172779,1,2,0:0:0:0:
100,148,172937,1,0,0:0:0:0:
256,336,173095,5,2,0:0:0:0:
256,92,173253,1,0,0:0:0:0:
256,264,173411,1,2,0:0:0:0:
256,92,173569,1,0,0:0:0:0:
72,196,173727,5,2,0:0:0:0:
100,148,173884,1,0,0:0:0:0:
440,196,174042,1,2,0:0:0:0:
412,148,174200,1,0,0:0:0:0:
256,72,174358,5,2,0:0:0:0:
256,92,174437,1,2,0:0:0:0:
256,112,174516,1,2,0:0:0:0:
256,132,174595,1,2,0:0:0:0:
256,152,174674,1,2,0:0:0:0:
256,172,174753,1,2,0:0:0:0:
256,192,174832,1,2,0:0:0:0:
256,212,174911,1,2,0:0:0:0:
256,232,174990,1,2,0:0:0:0:
256,52,175306,5,8,0:0:0:0:
256,52,175384,1,8,0:0:0:0:
256,52,175463,1,8,0:0:0:0:
36,104,175621,6,0,P|68:180|144:228,1,160.99999508667,4|0,0:0|0:0,0:0:0:0:
144,184,175858,1,0,0:0:0:0:
144,184,175937,2,0,L|184:344,1,160.99999508667
292,180,176253,2,0,P|352:120|424:96,1,160.99999508667,4|0,0:0|0:0,0:0:0:0:
422,96,176490,1,0,0:0:0:0:
422,96,176569,2,0,P|428:176|460:256,1,160.99999508667
472,268,176806,1,0,0:0:0:0:
492,284,176884,1,8,0:0:0:0:
296,212,177042,5,0,0:0:0:0:
308,268,177121,1,0,0:0:0:0:
340,316,177200,1,8,0:0:0:0:
340,316,177358,1,0,0:0:0:0:
276,116,177516,2,0,P|208:60|116:48,1,160.99999508667,8|0,0:0|0:0,0:0:0:0:
236,268,177832,2,0,P|304:324|396:336,1,160.99999508667,8|0,0:0|0:0,0:0:0:0:
112,256,178148,6,0,P|112:144|40:40,1,241.499992630005,4|0,0:0|0:0,0:0:0:0:
80,52,178463,2,0,L|256:96,1,160.99999508667,4|0,0:0|0:0,0:0:0:0:
428,212,178779,2,0,L|252:168,2,160.99999508667,4|0|0,0:0|0:0|0:0,0:0:0:0:
220,304,179253,5,0,0:0:0:0:
180,316,179332,1,0,0:0:0:0:
140,324,179411,1,8,0:0:0:0:
172,100,179569,5,8,0:0:0:0:
208,120,179648,1,0,0:0:0:0:
244,140,179727,1,8,0:0:0:0:
280,160,179806,1,0,0:0:0:0:
316,180,179884,1,8,0:0:0:0:
352,200,179963,1,0,0:0:0:0:
388,216,180042,5,12,0:0:0:0:
296,20,180200,1,4,0:0:0:0:
80,40,180358,1,4,0:0:0:0:
80,40,180674,5,4,0:0:0:0:
136,248,180832,1,0,0:0:0:0:
176,288,180911,1,0,0:0:0:0:
232,300,180990,2,0,P|308:312|388:288,1,143.75,8|0,0:0|0:0,0:0:0:0:
484,128,181306,1,4,0:0:0:0:
428,140,181384,1,0,0:0:0:0:
372,144,181463,1,0,0:0:0:0:
316,124,181542,1,0,0:0:0:0:
268,96,181621,2,0,P|200:80|124:100,1,143.75,8|0,0:0|0:0,0:0:0:0:
56,272,181937,5,4,0:0:0:0:
104,256,182016,1,0,0:0:0:0:
152,240,182095,1,0,0:0:0:0:
200,224,182174,1,0,0:0:0:0:
248,208,182253,2,0,L|392:156,1,143.75,8|0,0:0|0:0,0:0:0:0:
383,159,182569,1,0,0:0:0:0:
192,128,182727,2,0,P|116:100|48:32,2,160.99999508667
380,76,183200,5,4,0:0:0:0:
400,268,183358,5,0,0:0:0:0:
368,324,183437,1,0,0:0:0:0:
312,352,183516,1,8,0:0:0:0:
156,240,183674,5,0,0:0:0:0:
88,216,183753,1,0,0:0:0:0:
56,152,183832,1,8,0:0:0:0:
276,128,183990,5,0,0:0:0:0:
328,68,184069,1,0,0:0:0:0:
408,68,184148,1,8,0:0:0:0:
268,324,184306,5,4,0:0:0:0:
456,104,184463,5,4,0:0:0:0:
480,164,184542,1,0,0:0:0:0:
480,228,184621,1,0,0:0:0:0:
456,288,184700,1,0,0:0:0:0:
392,304,184779,1,4,0:0:0:0:
328,288,184858,1,0,0:0:0:0:
304,228,184937,1,0,0:0:0:0:
264,176,185016,1,0,0:0:0:0:
200,176,185095,5,4,0:0:0:0:
148,344,185253,1,8,0:0:0:0:
112,24,185411,1,8,0:0:0:0:
384,104,185727,6,0,P|328:44|232:24,1,160.99999508667,4|0,0:0|0:0,0:0:0:0:
128,280,186042,2,0,P|184:340|280:360,1,160.99999508667,0|0,0:0|0:0,0:0:0:0:
424,164,186358,2,0,P|316:228|268:368,1,241.499992630005,4|0,0:0|0:0,0:0:0:0:
252,276,186674,2,0,P|240:192|184:128,1,160.99999508667,4|0,0:0|0:0,0:0:0:0:
496,72,186990,1,4,0:0:0:0:
432,84,187069,1,0,0:0:0:0:
368,96,187148,1,0,0:0:0:0:
304,112,187227,1,0,0:0:0:0:
240,128,187306,2,0,L|72:160,1,160.99999508667,8|0,0:0|0:0,0:0:0:0:
292,276,187621,2,0,P|360:324|464:328,1,160.99999508667,8|0,0:0|0:0,0:0:0:0:
220,108,187937,2,0,P|152:60|48:56,1,160.99999508667,8|0,0:0|0:0,0:0:0:0:
320,52,188253,6,0,L|484:28,1,160.99999508667,4|0,0:0|0:0,0:0:0:0:
432,60,188490,1,0,0:0:0:0:
432,60,188569,2,0,P|380:132|368:220,1,160.99999508667,4|0,0:0|0:0,0:0:0:0:
143,316,188884,2,0,P|231:312|292:276,1,160.99999508667,8|0,0:0|0:0,0:0:0:0:
188,40,189200,2,0,P|214:123|266:173,1,160.99999508667,8|0,0:0|0:0,0:0:0:0:
500,288,189516,5,4,0:0:0:0:
256,76,189674,1,0,0:0:0:0:
300,112,189753,1,0,0:0:0:0:
344,148,189832,1,8,0:0:0:0:
164,16,189990,1,4,0:0:0:0:
24,192,190148,1,4,0:0:0:0:
164,16,190306,1,8,0:0:0:0:
224,232,190463,1,4,0:0:0:0:
228,248,190542,1,0,0:0:0:0:
232,264,190621,1,0,0:0:0:0:
236,280,190700,1,0,0:0:0:0:
240,296,190779,6,0,L|408:296,1,160.99999508667,4|0,0:0|0:0,0:0:0:0:
376,264,191016,1,0,0:0:0:0:
376,264,191095,2,0,P|332:196|324:96,1,160.99999508667,4|0,0:0|0:0,0:0:0:0:
176,220,191411,1,4,0:0:0:0:
152,240,191490,1,0,0:0:0:0:
128,260,191569,1,0,0:0:0:0:
100,280,191648,1,0,0:0:0:0:
76,300,191727,2,0,L|52:136,1,160.99999508667,4|0,0:0|0:0,0:0:0:0:
256,12,192042,6,0,L|272:100,1,80.499997543335,8|0,0:0|0:0,0:0:0:0:
314,310,192200,2,0,L|344:236,1,80.499997543335
347,75,192358,2,0,L|344:235,1,160.99999508667,8|0,0:0|0:0,0:0:0:0:
124,132,192674,1,8,0:0:0:0:
100,108,192753,1,0,0:0:0:0:
76,84,192832,1,0,0:0:0:0:
56,60,192911,1,0,0:0:0:0:
36,36,192990,2,0,L|8:204,1,160.99999508667,8|0,0:0|0:0,0:0:0:0:
9,194,193306,5,4,0:0:0:0:
192,328,193463,5,0,0:0:0:0:
256,344,193542,1,0,0:0:0:0:
320,328,193621,1,8,0:0:0:0:
432,148,193779,5,0,0:0:0:0:
368,112,193858,1,0,0:0:0:0:
356,40,193937,1,8,0:0:0:0:
144,156,194095,5,0,0:0:0:0:
76,200,194174,1,0,0:0:0:0:
72,280,194253,2,0,P|124:336|220:356,1,160.99999508667,8|4,0:0|0:0,0:0:0:0:
460,260,194569,6,0,L|384:296,1,80.499997543335
248,284,194727,2,0,L|324:248,1,80.499997543335
400,136,194884,2,0,L|324:172,1,80.499997543335
188,160,195042,2,0,L|264:124,1,80.499997543335
380,16,195200,6,0,L|356:56,15,40.2499987716675
