osu file format v12

[General]
AudioFilename: O_T_Nver_.mp3
AudioLeadIn: 2000
PreviewTime: 41647
Countdown: 0
SampleSet: None
StackLeniency: 0.2
Mode: 0
LetterboxInBreaks: 0

[Editor]
Bookmarks: 989,11252,20252,21515,31305,31778,39041,41094,41410,94778,105831,149094
DistanceSpacing: 0.4
BeatDivisor: 4
GridSize: 8

[Metadata]
Title:Gigantic O.T.N
TitleUnicode:Gigantic O.T.N
Artist:Wotamin
ArtistUnicode:Wotamin
Creator:caren_sk
Version:Art AR10
Source:Nico Nico Douga
Tags:len nico douga vocaloid gigantic o.t.n Aqo
BeatmapID:229851
BeatmapSetID:79696

[Difficulty]
HPDrainRate:5
CircleSize:4
OverallDifficulty:7
ApproachRate:10
SliderMultiplier:2.8
SliderTickRate:4

[Events]
//Background and Video events
0,0,"BG.jpg",0,0
//Break Periods
//Storyboard Layer 0 (Background)
//Storyboard Layer 1 (Fail)
//Storyboard Layer 2 (Pass)
//Storyboard Layer 3 (Foreground)
//Storyboard Sound Samples
//Background Colour Transformations
3,100,0,0,0

[TimingPoints]
1305,315.789473684211,4,1,1,80,1,0
3989,-83.3333333333333,4,1,1,80,0,0
4778,-100,4,1,1,80,0,0
7936,-83.3333333333333,4,1,1,80,0,0
8252,-133.333333333333,4,1,1,80,0,0
10936,-83.3333333333333,4,1,1,80,0,0
11252,-100,4,2,1,80,0,0
12199,-71.4285714285714,4,2,1,80,0,0
20252,-133.333333333333,4,2,1,80,0,0
21515,-83.3333333333333,4,2,1,80,0,0
31305,-66.6666666666667,4,2,1,80,0,0
40462,-100,4,2,1,80,0,0
41726,-83.3333333333333,4,2,1,90,0,1
41726,-100,4,2,1,90,0,1
48673,-83.3333333333333,4,2,1,90,0,1
64462,-100,4,1,1,80,0,0
73936,-66.6666666666667,4,2,1,80,0,0
74410,-100,4,2,1,80,0,0
75673,-66.6666666666667,4,2,1,80,0,0
76147,-133.333333333333,4,2,1,80,0,0
76778,-83.3333333333333,4,2,1,80,0,0
95252,-166.666666666667,4,2,1,80,0,0
106147,-100,4,2,1,90,0,1
128883,-100,4,1,1,80,0,0
133936,-133.333333333333,4,1,1,80,0,0
136462,-200,4,1,1,80,0,0
141515,-133.333333333333,4,1,1,80,0,0
144120,-100,4,1,1,80,0,0
150357,-100,4,2,1,90,0,1
175620,-100,4,1,1,80,0,0
195831,-100,4,1,1,80,0,0

[Colours]
Combo1 : 255,79,74
Combo2 : 15,255,15
Combo3 : 0,43,242
Combo4 : 255,40,255

[HitObjects]
256,96,989,1,4,0:0:0:0:
361,143,1305,2,0,B|418:162|418:162|466:112|523:199,1,140
285,342,1620,1,0,0:0:0:0:
244,329,1699,1,0,0:0:0:0:
202,337,1778,1,0,0:0:0:0:
173,306,1857,1,0,0:0:0:0:
146,273,1936,5,0,0:0:0:0:
14,58,2094,1,0,0:0:0:0:
146,273,2252,1,0,0:0:0:0:
14,58,2410,1,0,0:0:0:0:
54,69,2489,1,0,0:0:0:0:
95,62,2568,1,0,0:0:0:0:
367,208,2726,1,0,0:0:0:0:
327,197,2805,1,0,0:0:0:0:
286,204,2884,1,0,0:0:0:0:
64,240,3041,5,0,0:0:0:0:
448,144,3199,1,0,0:0:0:0:
144,48,3357,1,0,0:0:0:0:
368,336,3515,1,0,0:0:0:0:
368,336,3594,2,0,L|300:253,1,70
361,84,3831,5,0,0:0:0:0:
144,146,3989,2,0,B|171:120|171:120|197:147|197:147|159:184|216:231,1,167.999994873047
235,270,4226,1,0,0:0:0:0:
278,295,4305,1,0,0:0:0:0:
327,292,4383,1,0,0:0:0:0:
373,271,4462,2,0,B|417:240|367:225|367:225|353:173|414:138,1,167.999994873047
333,28,4778,6,0,L|297:90,1,70
65,332,4936,2,0,L|106:266,1,70
87,99,5094,5,0,0:0:0:0:
402,236,5252,1,0,0:0:0:0:
242,43,5410,5,0,0:0:0:0:
206,86,5489,1,0,0:0:0:0:
235,133,5568,1,0,0:0:0:0:
198,175,5647,1,0,0:0:0:0:
206,230,5726,5,0,0:0:0:0:
352,114,5883,1,0,0:0:0:0:
47,143,6041,1,0,0:0:0:0:
507,208,6199,1,0,0:0:0:0:
300,319,6357,5,0,0:0:0:0:
416,93,6515,1,0,0:0:0:0:
360,84,6594,1,0,0:0:0:0:
305,97,6673,1,0,0:0:0:0:
112,58,6831,1,0,0:0:0:0:
144,278,6989,5,0,0:0:0:0:
198,265,7068,1,0,0:0:0:0:
218,212,7147,1,0,0:0:0:0:
268,188,7226,1,0,0:0:0:0:
323,190,7305,1,0,0:0:0:0:
485,156,7462,1,0,0:0:0:0:
312,26,7620,5,0,0:0:0:0:
261,49,7699,1,0,0:0:0:0:
204,49,7778,1,0,0:0:0:0:
194,104,7857,1,0,0:0:0:0:
151,144,7936,2,0,B|114:174|84:150|84:150|55:193|102:259,1,167.999994873047
319,314,8252,6,0,L|274:269,1,52.5000020027161
193,70,8410,2,0,L|238:115,1,52.5000020027161
142,344,8568,2,0,L|182:272,1,52.5000020027161
370,40,8726,2,0,L|330:112,1,52.5000020027161
256,192,8883,1,8,0:0:0:0:
96,154,9041,5,0,0:0:0:0:
96,154,9120,2,0,L|159:183,1,52.5000020027161
352,305,9357,1,0,0:0:0:0:
352,305,9436,2,0,L|394:262,1,52.5000020027161,0|8,0:0|0:0,0:0:0:0:
428,144,9673,1,0,0:0:0:0:
211,364,9831,1,0,0:0:0:0:
128,67,9989,1,0,0:0:0:0:
338,90,10147,5,8,0:0:0:0:
129,147,10305,1,0,0:0:0:0:
132,209,10383,1,0,0:0:0:0:
169,259,10462,1,8,0:0:0:0:
442,342,10620,1,0,0:0:0:0:
439,280,10698,1,0,0:0:0:0:
402,230,10777,1,8,0:0:0:0:
422,169,10857,1,8,0:0:0:0:
434,111,10936,2,0,B|360:132|375:60|375:60|295:44,1,167.999994873047,8|8,0:0|0:0,0:0:0:0:
191,50,11252,5,0,0:0:0:0:
28,243,11410,1,0,0:0:0:0:
258,140,11568,1,0,0:0:0:0:
504,192,11726,1,0,0:0:0:0:
258,140,11883,1,0,0:0:0:0:
88,122,12041,5,0,0:0:0:0:
88,122,12199,2,0,B|149:168|120:175|120:175|146:182|146:182|94:206|194:274,1,195.999994018555
165,253,12515,1,0,0:0:0:0:
255,357,12673,1,0,0:0:0:0:
318,235,12831,1,0,0:0:0:0:
169,107,12989,1,0,0:0:0:0:
352,36,13147,1,0,0:0:0:0:
169,107,13305,5,0,0:0:0:0:
400,138,13462,1,0,0:0:0:0:
382,372,13620,1,0,0:0:0:0:
147,354,13778,1,0,0:0:0:0:
108,309,13857,1,0,0:0:0:0:
124,252,13936,5,0,0:0:0:0:
75,144,14094,1,0,0:0:0:0:
192,145,14252,1,0,0:0:0:0:
245,249,14410,1,0,0:0:0:0:
134,41,14568,1,0,0:0:0:0:
366,76,14726,1,0,0:0:0:0:
498,268,14883,1,0,0:0:0:0:
329,251,15041,5,0,0:0:0:0:
270,241,15120,1,0,0:0:0:0:
232,195,15199,1,0,0:0:0:0:
115,182,15357,1,0,0:0:0:0:
181,84,15515,1,0,0:0:0:0:
297,102,15673,1,0,0:0:0:0:
115,182,15831,1,0,0:0:0:0:
447,208,15989,1,0,0:0:0:0:
115,182,16147,1,0,0:0:0:0:
124,300,16305,6,0,B|163:344|163:344|184:286|238:291|282:331,1,195.999994018555
432,125,16620,1,0,0:0:0:0:
274,324,16778,1,0,0:0:0:0:
353,237,16936,1,0,0:0:0:0:
239,207,17094,1,0,0:0:0:0:
160,119,17252,1,0,0:0:0:0:
353,237,17410,2,0,B|450:233|429:216|429:216|455:205|445:186|445:186|392:171|415:120,1,195.999994018555
278,30,17726,5,0,0:0:0:0:
228,61,17805,1,0,0:0:0:0:
170,50,17883,1,0,0:0:0:0:
111,56,17962,1,0,0:0:0:0:
69,97,18041,2,0,B|34:125|34:125|106:144|50:165|106:176|106:176|84:204|179:278,1,195.999994018555
166,328,18357,5,0,0:0:0:0:
322,325,18515,1,0,0:0:0:0:
239,207,18673,1,0,0:0:0:0:
316,70,18831,1,0,0:0:0:0:
55,158,18989,1,0,0:0:0:0:
316,70,19147,1,0,0:0:0:0:
456,175,19305,5,0,0:0:0:0:
430,227,19383,1,0,0:0:0:0:
376,252,19462,1,0,0:0:0:0:
346,200,19541,1,0,0:0:0:0:
287,206,19620,1,0,0:0:0:0:
232,227,19699,2,0,P|195:262|138:253,1,97.9999970092774
103,244,19857,1,0,0:0:0:0:
123,199,19936,2,0,P|137:157|109:108,1,97.9999970092774
120,62,20094,1,0,0:0:0:0:
138,344,20252,6,0,L|178:288,1,52.5000020027161
63,192,20410,2,0,L|132:189,1,52.5000020027161
137,40,20568,2,0,L|181:93,1,52.5000020027161
301,5,20726,2,0,L|288:72,1,52.5000020027161
431,113,20883,2,0,L|369:143,1,52.5000020027161
426,281,21041,2,0,L|364:252,1,52.5000020027161
290,381,21199,2,0,L|275:314,1,52.5000020027161
256,192,21357,1,0,0:0:0:0:
105,113,21515,5,0,0:0:0:0:
144,82,21594,1,0,0:0:0:0:
193,70,21673,1,0,0:0:0:0:
428,79,21831,1,0,0:0:0:0:
193,70,21989,1,0,0:0:0:0:
186,172,22147,5,0,0:0:0:0:
18,284,22305,1,0,0:0:0:0:
216,308,22462,1,0,0:0:0:0:
383,196,22620,1,0,0:0:0:0:
99,61,22778,5,0,0:0:0:0:
352,282,22936,1,0,0:0:0:0:
99,61,23094,1,0,0:0:0:0:
101,250,23252,1,0,0:0:0:0:
146,227,23331,1,0,0:0:0:0:
191,205,23410,1,0,0:0:0:0:
237,61,23568,1,0,0:0:0:0:
351,159,23726,1,0,0:0:0:0:
237,357,23883,6,0,L|150:316,2,83.9999974365235
381,307,24199,1,0,0:0:0:0:
453,174,24357,1,0,0:0:0:0:
301,180,24515,1,0,0:0:0:0:
83,106,24673,6,0,L|154:41,1,83.9999974365235
144,109,24831,2,0,L|244:116,1,83.9999974365235
185,153,24989,2,0,L|255:207,1,83.9999974365235
251,204,25147,1,0,0:0:0:0:
66,193,25305,5,0,0:0:0:0:
227,104,25462,1,0,0:0:0:0:
224,288,25620,1,0,0:0:0:0:
383,194,25778,1,0,0:0:0:0:
144,37,25936,5,0,0:0:0:0:
368,346,26094,1,0,0:0:0:0:
294,67,26252,1,0,0:0:0:0:
218,317,26410,1,0,0:0:0:0:
151,122,26568,5,0,0:0:0:0:
116,286,26726,1,0,0:0:0:0:
283,284,26883,1,0,0:0:0:0:
346,128,27041,1,0,0:0:0:0:
199,45,27199,1,0,0:0:0:0:
167,140,27357,1,0,0:0:0:0:
216,146,27436,1,0,0:0:0:0:
262,166,27515,1,0,0:0:0:0:
342,226,27673,1,0,0:0:0:0:
183,268,27831,5,0,0:0:0:0:
329,116,27989,1,0,0:0:0:0:
158,342,28147,1,0,0:0:0:0:
354,42,28305,1,0,0:0:0:0:
92,374,28462,1,0,0:0:0:0:
420,10,28620,1,0,0:0:0:0:
53,308,28778,1,0,0:0:0:0:
459,76,28936,1,0,0:0:0:0:
84,239,29094,5,0,0:0:0:0:
428,145,29252,1,0,0:0:0:0:
151,216,29410,1,0,0:0:0:0:
361,168,29568,1,0,0:0:0:0:
174,148,29726,1,0,0:0:0:0:
338,236,29883,1,0,0:0:0:0:
143,83,30041,1,0,0:0:0:0:
369,301,30199,1,0,0:0:0:0:
175,21,30357,5,0,0:0:0:0:
337,363,30515,1,0,0:0:0:0:
242,0,30673,1,0,0:0:0:0:
270,383,30831,1,0,0:0:0:0:
297,43,30989,1,0,0:0:0:0:
215,341,31147,1,0,0:0:0:0:
254,125,31305,2,0,B|231:107|231:107|211:118|203:139|203:139|211:154|229:159|229:159|248:150|256:138|256:138|256:192|256:192|282:182|301:202|301:202|296:229|279:234|279:234|263:227|255:212|255:212|228:223|225:242|225:242|237:259|257:258|257:258|256:287,1,420.000016021729,0|8,0:0|0:0,0:0:0:0:
256,224,31778,5,0,0:0:0:0:
287,196,31936,1,0,0:0:0:0:
256,232,32094,1,0,0:0:0:0:
224,196,32252,1,0,0:0:0:0:
256,240,32410,1,0,0:0:0:0:
318,168,32568,1,0,0:0:0:0:
256,248,32726,1,0,0:0:0:0:
192,168,32883,1,0,0:0:0:0:
256,256,33041,1,0,0:0:0:0:
349,140,33199,1,0,0:0:0:0:
256,264,33357,1,0,0:0:0:0:
160,140,33515,1,0,0:0:0:0:
256,272,33673,1,0,0:0:0:0:
380,112,33831,1,0,0:0:0:0:
256,280,33989,1,0,0:0:0:0:
128,112,34147,1,0,0:0:0:0:
256,288,34305,1,0,0:0:0:0:
412,84,34462,1,0,0:0:0:0:
256,296,34620,1,0,0:0:0:0:
96,84,34778,1,0,0:0:0:0:
256,304,34936,1,0,0:0:0:0:
444,57,35094,1,0,0:0:0:0:
256,312,35252,1,0,0:0:0:0:
64,56,35410,1,0,0:0:0:0:
256,320,35568,1,0,0:0:0:0:
476,30,35726,1,0,0:0:0:0:
256,328,35883,1,0,0:0:0:0:
32,29,36041,1,0,0:0:0:0:
56,192,36199,5,0,0:0:0:0:
192,136,36357,1,0,0:0:0:0:
192,256,36515,1,0,0:0:0:0:
384,192,36673,5,0,0:0:0:0:
256,304,36831,1,0,0:0:0:0:
256,88,36989,1,0,0:0:0:0:
96,192,37147,5,0,0:0:0:0:
288,112,37305,1,0,0:0:0:0:
288,272,37462,1,0,0:0:0:0:
424,192,37620,5,0,0:0:0:0:
208,336,37778,1,0,0:0:0:0:
216,48,37936,1,0,0:0:0:0:
136,192,38094,5,0,0:0:0:0:
352,88,38252,1,0,0:0:0:0:
344,296,38410,1,0,0:0:0:0:
464,192,38568,5,0,0:0:0:0:
144,368,38726,1,0,0:0:0:0:
152,16,38883,1,0,0:0:0:0:
32,192,39041,5,0,0:0:0:0:
88,168,39199,1,0,0:0:0:0:
144,192,39357,1,0,0:0:0:0:
200,168,39515,1,0,0:0:0:0:
256,200,39673,1,0,0:0:0:0:
319,200,39831,5,0,0:0:0:0:
372,232,39910,1,0,0:0:0:0:
430,256,39989,1,0,0:0:0:0:
473,210,40068,1,0,0:0:0:0:
479,147,40147,1,0,0:0:0:0:
417,133,40226,1,0,0:0:0:0:
388,76,40305,1,0,0:0:0:0:
359,20,40383,1,0,0:0:0:0:
303,12,40462,2,0,B|244:41|244:41|164:16|98:86|98:86|4:109|2:230|2:230|99:185|152:266|152:266|129:300,1,560
256,354,41410,1,8,0:0:0:0:
204,94,41726,6,0,B|170:92|94:80|95:134|158:108|158:108|161:182|57:146|55:229,1,280
33,309,42041,1,0,0:0:0:0:
310,265,42199,1,0,0:0:0:0:
33,309,42357,1,0,0:0:0:0:
200,175,42515,2,0,L|261:110,1,83.9999974365235
451,78,42673,2,0,L|389:144,1,83.9999974365235
353,170,42831,1,0,0:0:0:0:
383,210,42910,1,0,0:0:0:0:
388,260,42989,1,0,0:0:0:0:
388,260,43147,1,0,0:0:0:0:
214,316,43305,5,0,0:0:0:0:
138,249,43462,1,0,0:0:0:0:
235,221,43620,1,0,0:0:0:0:
153,90,43778,1,0,0:0:0:0:
307,89,43936,2,0,B|271:27|248:68|248:68|169:23,1,140
74,216,44252,6,0,L|159:181,1,70
296,165,44410,2,0,L|198:214,1,70
134,311,44568,2,0,L|216:275,1,70
204,280,44726,1,0,0:0:0:0:
358,334,44883,2,0,B|335:288|290:259|290:259|344:219|395:241|401:179|401:179|391:133,1,280
339,43,45357,2,0,P|313:43|271:79,1,70
199,69,45515,5,0,0:0:0:0:
39,120,45673,1,0,0:0:0:0:
156,240,45831,1,0,0:0:0:0:
319,199,45989,1,0,0:0:0:0:
357,85,46147,6,0,L|294:122,1,70
243,58,46305,2,0,L|219:139,1,70
250,202,46462,2,0,B|300:181|348:187|388:225,1,140
393,244,46699,1,0,0:0:0:0:
394,271,46778,5,0,0:0:0:0:
214,328,46936,2,0,B|181:300|130:321|130:321|97:208,1,167.999994873047
89,60,47252,1,0,0:0:0:0:
267,108,47410,1,0,0:0:0:0:
89,60,47568,1,0,0:0:0:0:
138,238,47726,2,0,B|168:193|202:239|202:239|304:184,1,167.999994873047
439,71,48041,5,0,0:0:0:0:
386,91,48120,1,0,0:0:0:0:
335,116,48199,1,0,0:0:0:0:
50,137,48357,1,0,0:0:0:0:
103,153,48436,1,0,0:0:0:0:
156,168,48515,1,0,0:0:0:0:
278,268,48673,2,0,B|329:280|357:355|357:355|421:270,1,167.999994873047
308,48,48989,6,0,B|257:67|210:43|210:43|186:108|165:119|165:119|126:88|99:107,1,251.999992309571
76,236,49305,1,0,0:0:0:0:
171,329,49462,1,0,0:0:0:0:
236,312,49541,1,0,0:0:0:0:
301,295,49620,1,0,0:0:0:0:
463,188,49778,2,0,L|378:241,1,83.9999974365235
277,213,49936,2,0,L|355:167,1,83.9999974365235
412,51,50094,2,0,L|325:108,1,83.9999974365235
185,116,50252,2,0,L|271:73,1,83.9999974365235
155,31,50410,6,0,B|125:110|35:127|35:127|98:165|106:214,1,251.999992309571
69,304,50726,2,0,B|88:217|189:327|213:214,1,167.999994873047
428,286,51041,5,0,0:0:0:0:
163,178,51199,1,0,0:0:0:0:
446,211,51357,1,0,0:0:0:0:
242,10,51515,1,0,0:0:0:0:
49,129,51673,5,0,0:0:0:0:
95,234,51831,2,0,B|155:245|156:316|156:316|248:260,1,167.999994873047
440,329,52147,1,0,0:0:0:0:
401,284,52226,1,0,0:0:0:0:
363,238,52305,1,0,0:0:0:0:
172,216,52462,1,0,0:0:0:0:
286,92,52620,1,0,0:0:0:0:
344,89,52699,1,0,0:0:0:0:
402,84,52778,1,0,0:0:0:0:
483,193,52936,2,0,B|401:169|401:169|319:210|306:254|306:254|231:252,1,251.999992309571
250,192,53252,2,0,B|168:239|168:239|182:310|182:310|97:267|62:283|62:282|62:282|16:221,1,335.999989746094
95,82,53726,5,0,0:0:0:0:
394,104,53883,1,0,0:0:0:0:
97,162,54041,1,0,0:0:0:0:
345,334,54199,1,0,0:0:0:0:
128,287,54357,5,0,0:0:0:0:
181,263,54436,1,0,0:0:0:0:
237,246,54515,1,0,0:0:0:0:
312,25,54673,1,0,0:0:0:0:
258,49,54752,1,0,0:0:0:0:
210,83,54831,1,0,0:0:0:0:
59,223,54989,6,0,L|146:193,1,83.9999974365235
453,161,55147,2,0,L|366:191,1,83.9999974365235
113,123,55305,2,0,L|219:150,1,83.9999974365235
398,261,55462,2,0,L|293:234,1,83.9999974365235
256,192,55620,5,0,0:0:0:0:
352,88,55778,1,0,0:0:0:0:
220,58,55936,1,0,0:0:0:0:
53,246,56094,1,0,0:0:0:0:
288,336,56252,2,0,B|250:294|250:294|310:262|316:198|316:198|356:197|376:160|376:160|338:124|380:81,1,335.999989746094
107,61,56726,5,0,0:0:0:0:
123,240,56883,1,0,0:0:0:0:
178,219,56962,1,0,0:0:0:0:
234,235,57041,1,0,0:0:0:0:
431,285,57199,1,0,0:0:0:0:
397,126,57357,2,0,P|351:50|269:75,1,167.999994873047
260,73,57594,1,0,0:0:0:0:
238,85,57673,1,0,0:0:0:0:
148,142,57831,1,0,0:0:0:0:
300,273,57989,1,0,0:0:0:0:
51,274,58147,6,0,B|115:268|115:268|144:319|180:271|218:261,1,167.999994873047
219,206,58383,2,0,B|246:158|246:158|279:203|314:157|314:157|344:129|391:162|391:162|415:207,1,251.999992309571
426,231,58699,2,0,B|503:224|503:224|464:147|447:148|447:148|492:102|459:54,1,251.999992309571
439,34,59015,2,0,B|380:24|379:87|379:87|329:104|291:100|264:68|263:18,1,251.999992309571
209,35,59331,2,0,B|159:39|190:89|190:89|114:113|113:112|113:112|96:167|148:203,1,251.999992309571
209,338,59726,6,0,L|267:269,1,83.9999974365235
179,204,59883,2,0,L|276:182,1,83.9999974365235
341,320,60041,2,0,L|361:226,1,83.9999974365235
503,55,60120,2,0,L|444:161,1,83.9999974365235
258,112,60278,2,0,L|345:144,1,83.9999974365235
463,340,60436,2,0,L|437:241,1,83.9999974365235
362,49,60673,5,0,0:0:0:0:
145,77,60831,1,0,0:0:0:0:
168,294,60989,1,0,0:0:0:0:
257,94,61147,1,0,0:0:0:0:
376,277,61305,2,0,B|293:284|293:235|293:235|226:221,2,167.999994873047
400,273,61699,1,0,0:0:0:0:
423,264,61778,1,0,0:0:0:0:
59,88,61936,5,0,0:0:0:0:
395,79,62252,1,0,0:0:0:0:
70,166,62568,1,0,0:0:0:0:
334,373,62726,1,0,0:0:0:0:
331,38,62883,1,0,0:0:0:0:
260,366,63041,1,0,0:0:0:0:
469,103,63199,1,0,0:0:0:0:
144,192,63357,1,0,0:0:0:0:
454,212,63515,5,0,0:0:0:0:
396,223,63594,1,0,0:0:0:0:
338,234,63673,1,0,0:0:0:0:
294,194,63752,1,0,0:0:0:0:
238,207,63831,1,0,0:0:0:0:
36,205,64147,1,8,0:0:0:0:
139,33,64462,6,0,B|194:91|194:91|237:71|285:106,1,140
444,112,64778,2,0,L|378:160,1,70
252,242,64936,2,0,L|302:176,1,70
348,57,65094,2,0,L|321:134,1,70
364,286,65252,2,0,L|357:194,1,70
204,114,65410,5,0,0:0:0:0:
84,159,65568,1,0,0:0:0:0:
84,159,65607,2,0,L|123:211,1,35
68,329,65726,1,0,0:0:0:0:
294,94,65883,1,0,0:0:0:0:
294,94,65922,2,0,L|333:146,1,35
278,264,66041,1,0,0:0:0:0:
131,58,66199,1,0,0:0:0:0:
333,208,66357,1,0,0:0:0:0:
95,122,66515,1,0,0:0:0:0:
111,373,66673,1,0,0:0:0:0:
300,0,66831,1,0,0:0:0:0:
468,164,66989,6,0,B|432:136|432:136|427:90|385:80|385:80|338:108,1,140
329,125,67226,1,0,0:0:0:0:
273,118,67305,1,0,0:0:0:0:
230,82,67383,1,0,0:0:0:0:
174,79,67462,1,0,0:0:0:0:
138,122,67541,1,0,0:0:0:0:
90,151,67620,1,0,0:0:0:0:
257,339,67778,5,0,0:0:0:0:
416,117,67936,1,0,0:0:0:0:
177,37,68094,1,0,0:0:0:0:
177,37,68173,2,0,L|209:113,1,70
240,268,68410,1,0,0:0:0:0:
177,169,68568,5,0,0:0:0:0:
335,214,68647,5,0,0:0:0:0:
229,112,68726,5,0,0:0:0:0:
283,272,68805,5,0,0:0:0:0:
198,321,68883,5,0,0:0:0:0:
60,169,69041,1,0,0:0:0:0:
246,40,69199,2,0,L|210:107,1,70
338,152,69357,2,0,L|230:197,1,70
69,302,69515,5,0,0:0:0:0:
360,322,69673,1,0,0:0:0:0:
378,269,69752,1,0,0:0:0:0:
399,217,69831,1,0,0:0:0:0:
365,19,69989,1,0,0:0:0:0:
111,88,70147,2,0,L|190:93,1,70
307,131,70305,2,0,L|212:142,1,70
119,205,70462,2,0,L|208:189,1,70
325,208,70620,1,0,0:0:0:0:
235,35,70778,5,8,0:0:0:0:
206,82,70857,1,0,0:0:0:0:
235,129,70936,1,0,0:0:0:0:
247,183,71015,1,0,0:0:0:0:
193,198,71094,1,0,0:0:0:0:
163,245,71173,1,0,0:0:0:0:
193,291,71252,1,0,0:0:0:0:
458,253,71410,6,0,B|420:213|420:213|453:183|415:128,1,140,8|0,0:0|0:0,0:0:0:0:
412,115,71647,1,0,0:0:0:0:
402,96,71726,1,0,0:0:0:0:
266,3,71883,2,0,B|214:33|171:17|171:17|104:82,1,140,0|8,0:0|0:0,0:0:0:0:
90,193,72199,1,0,0:0:0:0:
90,193,72278,2,0,L|182:204,1,70,0|8,0:0|0:0,0:0:0:0:
289,322,72515,1,0,0:0:0:0:
289,322,72594,2,8,L|247:249,1,70,0|8,0:0|0:0,0:0:0:0:
279,64,72831,5,0,0:0:0:0:
435,296,72989,1,8,0:0:0:0:
221,114,73147,1,0,0:0:0:0:
48,335,73305,1,8,0:0:0:0:
362,262,73462,1,0,0:0:0:0:
365,206,73541,1,0,0:0:0:0:
410,173,73620,1,8,0:0:0:0:
391,120,73699,1,8,0:0:0:0:
351,79,73778,1,8,0:0:0:0:
296,64,73857,1,8,0:0:0:0:
247,90,73936,2,0,B|196:141|196:141|144:113|103:162|103:162|139:225|43:225|139:225|68:283|68:283|180:324,1,420.000016021729,8|0,0:1|0:0,0:0:0:0:
297,252,74410,5,0,0:0:0:0:
101,70,74568,1,0,0:0:0:0:
338,190,74726,1,0,0:0:0:0:
48,335,74883,1,0,0:0:0:0:
154,200,75041,1,0,0:0:0:0:
200,157,75120,1,0,0:0:0:0:
251,120,75199,5,0,0:0:0:0:
390,107,75357,1,0,0:0:0:0:
351,327,75515,1,0,0:0:0:0:
184,324,75673,2,0,B|229:339|267:311|267:311|219:312|219:312|174:304|138:272,1,210.000008010865
70,137,75989,5,0,0:0:0:0:
172,59,76147,2,0,L|219:100,1,52.5000020027161
159,213,76305,2,0,L|219:173,1,52.5000020027161
279,35,76462,2,0,L|288:98,1,52.5000020027161
273,257,76620,2,0,L|288:192,1,52.5000020027161
405,147,76778,2,0,B|455:159|409:195|409:195|457:213|385:215|411:276,1,167.999994873047
236,337,77094,5,0,0:0:0:0:
74,247,77252,1,0,0:0:0:0:
175,92,77410,1,0,0:0:0:0:
346,161,77568,1,0,0:0:0:0:
354,323,77726,5,0,0:0:0:0:
78,165,77883,1,0,0:0:0:0:
397,163,78041,1,0,0:0:0:0:
310,22,78199,5,0,0:0:0:0:
193,139,78357,1,0,0:0:0:0:
242,171,78436,1,0,0:0:0:0:
291,203,78515,1,0,0:0:0:0:
447,264,78673,1,0,0:0:0:0:
291,348,78831,1,0,0:0:0:0:
233,336,78910,1,0,0:0:0:0:
174,326,78989,1,0,0:0:0:0:
63,216,79147,1,0,0:0:0:0:
447,264,79305,1,0,0:0:0:0:
149,38,79462,5,0,0:0:0:0:
149,38,79541,2,0,L|185:129,1,83.9999974365235
111,270,79778,1,0,0:0:0:0:
269,325,79936,1,0,0:0:0:0:
254,157,80094,1,0,0:0:0:0:
488,65,80252,1,0,0:0:0:0:
254,157,80410,1,0,0:0:0:0:
459,302,80568,1,0,0:0:0:0:
352,73,80726,5,0,0:0:0:0:
143,212,80883,1,0,0:0:0:0:
394,198,81041,1,0,0:0:0:0:
194,43,81199,1,0,0:0:0:0:
271,282,81357,1,0,0:0:0:0:
174,140,81515,2,0,B|214:109|226:154|226:154|267:152|267:152|288:192|317:189|331:166,1,167.999994873047
74,289,81831,6,0,L|161:251,1,83.9999974365235
305,238,81989,2,0,L|191:243,1,83.9999974365235
55,187,82147,2,0,L|167:189,1,83.9999974365235
289,151,82305,2,0,L|187:180,1,83.9999974365235
141,45,82462,2,0,L|164:141,1,83.9999974365235
219,384,82620,2,0,L|198:298,1,83.9999974365235
177,216,82778,5,0,0:0:0:0:
350,33,82936,1,0,0:0:0:0:
177,216,83094,1,0,0:0:0:0:
427,185,83252,1,0,0:0:0:0:
177,216,83410,1,0,0:0:0:0:
385,357,83568,1,0,0:0:0:0:
276,117,83726,5,0,0:0:0:0:
276,117,83805,2,0,L|188:79,1,83.9999974365235
62,126,84041,1,0,0:0:0:0:
247,296,84199,1,0,0:0:0:0:
482,204,84357,1,0,0:0:0:0:
182,29,84515,6,0,L|264:59,1,83.9999974365235
419,43,84673,2,0,L|330:74,1,83.9999974365235
285,154,84831,1,0,0:0:0:0:
100,163,84989,1,0,0:0:0:0:
270,235,85147,1,0,0:0:0:0:
438,313,85305,5,0,0:0:0:0:
411,261,85383,1,0,0:0:0:0:
386,207,85462,1,0,0:0:0:0:
222,88,85620,1,0,0:0:0:0:
20,96,85778,1,0,0:0:0:0:
140,258,85936,1,0,0:0:0:0:
194,280,86015,1,0,0:0:0:0:
247,304,86094,1,0,0:0:0:0:
400,65,86252,6,0,L|328:126,1,83.9999974365235
187,147,86410,2,0,L|263:88,1,83.9999974365235
178,51,86568,1,0,0:0:0:0:
69,130,86726,1,0,0:0:0:0:
69,263,86883,1,0,0:0:0:0:
237,99,87041,1,0,0:0:0:0:
461,169,87199,1,0,0:0:0:0:
410,199,87278,1,0,0:0:0:0:
360,231,87357,1,0,0:0:0:0:
248,343,87515,5,0,0:0:0:0:
120,105,87673,1,0,0:0:0:0:
373,13,87831,2,0,B|310:18|310:18|324:62|222:65,1,167.999994873047
137,262,88147,5,0,0:0:0:0:
137,262,88186,2,0,L|196:237,1,41.9999987182618
188,154,88305,1,0,0:0:0:0:
302,271,88462,1,0,0:0:0:0:
302,271,88501,2,0,L|309:207,1,41.9999987182618
374,140,88620,1,0,0:0:0:0:
269,31,88778,1,0,0:0:0:0:
269,31,88817,2,0,L|289:91,1,41.9999987182618
286,181,88936,1,0,0:0:0:0:
160,56,89094,5,0,0:0:0:0:
76,311,89252,1,0,0:0:0:0:
228,89,89410,1,0,0:0:0:0:
381,309,89568,1,0,0:0:0:0:
228,89,89726,1,0,0:0:0:0:
144,343,89883,1,0,0:0:0:0:
390,236,90041,1,0,0:0:0:0:
144,343,90199,1,0,0:0:0:0:
130,172,90357,6,0,B|78:168|53:145|53:145|75:112|129:101,1,167.999994873047
359,178,90673,2,0,B|410:182|435:205|435:205|413:238|359:249,2,167.999994873047
316,171,91068,1,0,0:0:0:0:
274,166,91147,1,0,0:0:0:0:
109,131,91305,1,0,0:0:0:0:
241,232,91462,1,0,0:0:0:0:
186,255,91541,1,0,0:0:0:0:
131,276,91620,1,0,0:0:0:0:
109,131,91778,1,0,0:0:0:0:
265,31,91936,1,0,0:0:0:0:
433,160,92094,5,0,0:0:0:0:
433,160,92173,2,0,L|381:265,1,83.9999974365235
291,335,92410,1,0,0:0:0:0:
144,221,92568,1,0,0:0:0:0:
186,41,92726,1,0,0:0:0:0:
186,41,92805,2,0,L|266:91,1,83.9999974365235
441,96,93041,1,0,0:0:0:0:
406,277,93199,1,0,0:0:0:0:
221,295,93357,1,0,0:0:0:0:
221,295,93436,2,0,L|132:289,1,83.9999974365235
57,115,93673,5,0,0:0:0:0:
245,137,93831,1,0,0:0:0:0:
309,157,93910,1,0,0:0:0:0:
373,177,93989,1,0,0:0:0:0:
359,342,94147,1,0,0:0:0:0:
91,241,94305,1,0,0:0:0:0:
309,59,94462,2,0,B|295:99|295:99|226:95|192:132|192:132|250:180|233:226|233:226|206:250|161:246,1,335.999989746094
400,238,94936,6,0,B|411:272|448:263|448:263|462:300|447:339|388:330,1,167.999994873047
352,309,95252,2,0,P|329:282|264:289,1,83.9999974365235
252,292,95489,2,0,L|175:302,1,41.9999987182618
179,311,95647,1,0,0:0:0:0:
147,294,95726,1,0,0:0:0:0:
76,148,95883,1,0,0:0:0:0:
218,38,96041,2,0,B|175:78|228:77|228:77|238:109,1,83.9999974365235
248,98,96357,2,0,P|277:68|317:93,1,83.9999974365235
382,126,96673,1,0,0:0:0:0:
381,193,96752,1,0,0:0:0:0:
378,260,96831,1,0,0:0:0:0:
257,362,96989,1,0,0:0:0:0:
253,193,97147,6,0,L|214:219,1,41.9999987182618
193,184,97305,2,0,L|137:187,1,41.9999987182618
165,138,97463,2,0,L|124:94,1,41.9999987182618
175,90,97620,2,0,L|190:38,1,41.9999987182618
225,68,97778,2,0,P|239:103|297:108,1,83.9999974365235
321,102,98094,1,0,0:0:0:0:
360,115,98252,2,0,P|398:125|416:177,1,83.9999974365235
419,204,98568,1,0,0:0:0:0:
295,257,98726,1,0,0:0:0:0:
223,369,98883,1,0,0:0:0:0:
118,284,99041,1,0,0:0:0:0:
173,161,99199,1,0,0:0:0:0:
69,75,99357,1,0,0:0:0:0:
196,32,99515,5,0,0:0:0:0:
196,32,99594,2,0,L|264:57,1,41.9999987182618
414,84,99831,1,0,0:0:0:0:
414,84,99910,2,0,L|374:141,1,41.9999987182618
378,136,100068,1,0,0:0:0:0:
365,153,100147,2,0,B|348:163|348:163|345:177|345:177|360:184|360:184|368:173|368:173|365:153,1,83.9999974365235
302,319,100462,1,0,0:0:0:0:
94,160,100620,1,0,0:0:0:0:
302,319,100778,1,0,0:0:0:0:
289,49,100936,5,0,0:0:0:0:
135,103,101094,1,0,0:0:0:0:
151,163,101173,1,0,0:0:0:0:
164,224,101252,1,0,0:0:0:0:
289,49,101410,1,0,0:0:0:0:
357,197,101568,1,0,0:0:0:0:
411,229,101647,1,0,0:0:0:0:
465,260,101726,1,0,0:0:0:0:
374,333,101883,5,0,0:0:0:0:
274,197,102041,1,0,0:0:0:0:
160,320,102199,1,0,0:0:0:0:
63,182,102357,1,0,0:0:0:0:
177,58,102515,1,0,0:0:0:0:
343,83,102673,1,0,0:0:0:0:
459,158,102831,5,0,0:0:0:0:
459,158,102989,1,0,0:0:0:0:
399,177,103068,1,0,0:0:0:0:
364,230,103147,1,0,0:0:0:0:
301,239,103226,1,0,0:0:0:0:
241,218,103305,1,0,0:0:0:0:
191,255,103383,1,0,0:0:0:0:
145,292,103462,1,0,0:0:0:0:
88,274,103541,1,0,0:0:0:0:
85,215,103620,5,0,0:0:0:0:
187,3,103936,1,0,0:0:0:0:
368,152,104252,1,0,0:0:0:0:
382,337,104568,5,8,0:1:0:0:
308,297,104726,1,8,0:1:0:0:
309,213,104883,1,8,0:1:0:0:
235,172,105041,1,8,0:1:0:0:
151,162,105199,1,8,0:1:0:0:
151,77,105357,1,8,0:1:0:0:
168,1,105515,1,8,0:1:0:0:
332,78,105673,2,2,L|344:86,7,10.4999996795654
340,83,105831,2,0,B|349:85|349:85|347:92|347:92|356:90|356:90|356:97|356:97|364:94|364:94|363:102|363:102|371:98|371:98|371:107|371:107|379:102|379:102|379:111,1,83.9999974365235
64,113,106147,5,0,0:0:0:0:
49,167,106226,1,0,0:0:0:0:
32,220,106305,1,0,0:0:0:0:
180,342,106462,1,0,0:0:0:0:
64,113,106620,1,0,0:0:0:0:
240,43,106778,2,0,B|267:37|285:13|285:13|294:36|283:56|283:56|246:93|221:111|204:132|214:160|214:160|263:176|263:176,1,280
451,302,107252,2,0,L|369:306,1,70
315,256,107410,2,0,L|349:178,2,70
170,204,107726,6,0,L|87:180,1,70
34,97,107883,2,0,L|114:119,1,70
212,87,108041,2,0,L|130:58,1,70
56,26,108199,1,0,0:0:0:0:
321,44,108357,5,0,0:0:0:0:
480,194,108515,1,0,0:0:0:0:
237,258,108673,2,0,L|181:309,3,70
116,278,108989,2,0,L|41:234,1,70
35,145,109147,2,0,L|95:186,1,70
167,168,109305,6,0,B|161:114|161:114|121:93|146:49|146:49|212:27|227:93|301:71,1,280
321,164,109778,1,0,0:0:0:0:
321,164,109857,2,0,L|400:194,1,70
449,323,110094,1,0,0:0:0:0:
449,323,110173,2,0,L|375:299,1,70
222,333,110410,2,0,L|180:260,1,70
170,241,110568,1,0,0:0:0:0:
154,209,110647,1,0,0:0:0:0:
137,178,110726,1,0,0:0:0:0:
59,17,110883,1,0,0:0:0:0:
198,102,111041,5,0,0:0:0:0:
387,34,111199,1,0,0:0:0:0:
198,102,111357,1,0,0:0:0:0:
355,236,111515,1,0,0:0:0:0:
403,263,111594,1,0,0:0:0:0:
451,290,111673,1,0,0:0:0:0:
250,297,111831,2,0,L|171:301,1,70
87,229,111989,2,0,L|161:222,1,70
315,177,112305,6,0,B|338:180|349:166|349:166|338:142|329:113|396:82,1,140
256,31,112620,1,0,0:0:0:0:
131,95,112778,1,0,0:0:0:0:
157,264,112936,1,0,0:0:0:0:
204,293,113015,1,0,0:0:0:0:
259,297,113094,1,0,0:0:0:0:
288,249,113173,1,0,0:0:0:0:
343,255,113252,1,0,0:0:0:0:
395,274,113331,1,0,0:0:0:0:
444,247,113410,2,0,B|407:230|407:230|408:196|378:212|378:212|338:190|390:171|390:171|356:147|386:117|386:117|418:119|459:131,1,280
495,98,113805,1,0,0:0:0:0:
468,49,113883,1,0,0:0:0:0:
416,70,113962,1,0,0:0:0:0:
363,49,114041,1,0,0:0:0:0:
308,34,114120,1,0,0:0:0:0:
290,87,114199,1,0,0:0:0:0:
244,119,114278,1,0,0:0:0:0:
187,117,114357,1,0,0:0:0:0:
57,247,114515,5,0,0:0:0:0:
57,247,114594,2,0,L|130:261,1,70
240,324,114831,2,0,L|191:259,1,70
139,138,114989,2,0,L|176:224,1,70
228,95,115147,2,0,L|231:200,1,70
312,271,115305,2,0,L|249:226,1,70
379,151,115462,2,0,L|289:179,2,70
435,150,115699,1,0,0:0:0:0:
463,93,115778,1,0,0:0:0:0:
413,53,115857,1,0,0:0:0:0:
364,93,115936,1,0,0:0:0:0:
302,78,116015,1,0,0:0:0:0:
247,46,116094,1,0,0:0:0:0:
42,93,116252,6,0,L|69:163,1,70
67,158,116410,1,0,0:0:0:0:
46,325,116568,1,0,0:0:0:0:
312,237,116726,1,0,0:0:0:0:
33,238,116883,1,0,0:0:0:0:
312,237,117041,1,0,0:0:0:0:
155,4,117199,1,0,0:0:0:0:
140,126,117357,6,0,L|210:145,1,70
312,135,117515,2,0,L|245:202,1,70
172,208,117673,2,0,L|246:256,1,70
318,274,117831,2,0,L|238:323,1,70
169,344,117989,2,0,L|253:382,1,70
378,369,118147,5,0,0:0:0:0:
478,168,118305,1,0,0:0:0:0:
295,40,118462,1,0,0:0:0:0:
478,168,118620,1,0,0:0:0:0:
255,193,118778,5,0,0:0:0:0:
44,152,118936,1,0,0:0:0:0:
55,213,119015,1,0,0:0:0:0:
66,274,119094,1,0,0:0:0:0:
468,232,119252,1,0,0:0:0:0:
457,171,119331,1,0,0:0:0:0:
446,110,119410,1,0,0:0:0:0:
264,34,119568,2,0,B|254:73|254:73|210:73|287:109|287:109|321:113|362:94|362:94|402:124|393:173,1,280
393,203,119962,1,0,0:0:0:0:
390,237,120041,1,0,0:0:0:0:
141,267,120199,6,0,L|211:309,1,70
212,235,120357,2,0,L|269:175,1,70
189,168,120515,2,0,L|134:107,1,70
223,105,120673,2,0,L|278:51,1,70
311,115,120831,2,0,L|389:135,2,70
388,327,121147,5,0,0:0:0:0:
178,247,121305,2,0,L|254:276,2,70
137,236,121541,1,0,0:0:0:0:
96,223,121620,1,0,0:0:0:0:
28,93,121778,1,0,0:0:0:0:
229,42,121936,5,0,0:0:0:0:
146,309,122094,1,0,0:0:0:0:
297,73,122252,1,0,0:0:0:0:
146,309,122410,1,0,0:0:0:0:
424,278,122568,1,0,0:0:0:0:
202,153,122726,5,0,0:0:0:0:
310,231,122883,1,0,0:0:0:0:
249,272,123041,1,0,0:0:0:0:
263,112,123199,2,0,B|278:130|304:134|304:134|319:121|304:109|304:109|325:95|348:103|363:127,1,140
459,183,123515,2,0,L|400:244,1,70
456,282,123673,2,0,L|372:320,1,70
345,261,123831,2,0,L|289:199,1,70
210,207,123989,5,0,0:0:0:0:
53,324,124147,1,0,0:0:0:0:
155,156,124305,1,0,0:0:0:0:
255,322,124462,1,0,0:0:0:0:
155,156,124620,1,0,0:0:0:0:
301,25,124778,1,0,0:0:0:0:
405,190,124936,2,0,B|367:174|367:174|345:198|387:225|387:225|339:259|279:255,1,210
221,273,125252,5,0,0:0:0:0:
52,172,125410,1,0,0:0:0:0:
246,144,125568,1,0,0:0:0:0:
413,50,125726,1,0,0:0:0:0:
387,107,125805,1,0,0:0:0:0:
367,166,125883,1,0,0:0:0:0:
442,325,126041,2,0,B|394:291|394:291|343:323|302:274,1,140
231,340,126357,5,0,0:0:0:0:
88,131,126673,1,0,0:0:0:0:
314,21,126989,1,0,0:0:0:0:
252,78,127147,1,0,0:0:0:0:
296,149,127305,1,0,0:0:0:0:
226,194,127462,1,0,0:0:0:0:
240,276,127620,1,0,0:0:0:0:
163,309,127778,1,0,0:0:0:0:
47,209,127936,5,0,0:0:0:0:
103,182,128015,1,0,0:0:0:0:
162,204,128094,1,0,0:0:0:0:
224,212,128173,1,0,0:0:0:0:
281,186,128252,1,0,0:0:0:0:
470,190,128568,1,8,0:0:0:0:
449,40,128883,5,4,0:0:0:0:
407,33,128962,1,0,0:0:0:0:
377,62,129041,1,0,0:0:0:0:
336,73,129120,1,0,0:0:0:0:
296,60,129199,1,0,0:0:0:0:
256,44,129278,1,0,0:0:0:0:
214,46,129357,1,0,0:0:0:0:
172,48,129436,1,0,0:0:0:0:
130,50,129515,1,4,0:0:0:0:
91,65,129594,1,0,0:0:0:0:
56,88,129673,1,0,0:0:0:0:
48,129,129752,1,0,0:0:0:0:
57,169,129831,1,0,0:0:0:0:
97,179,129910,1,0,0:0:0:0:
138,171,129989,1,0,0:0:0:0:
159,134,130068,1,0,0:0:0:0:
132,101,130147,5,4,0:0:0:0:
144,60,130226,1,0,0:0:0:0:
181,41,130305,1,0,0:0:0:0:
221,51,130383,1,0,0:0:0:0:
254,75,130462,1,0,0:0:0:0:
270,113,130541,1,0,0:0:0:0:
262,154,130620,1,0,0:0:0:0:
233,185,130699,1,0,0:0:0:0:
190,185,130778,1,4,0:0:0:0:
153,164,130857,1,0,0:0:0:0:
111,166,130936,1,0,0:0:0:0:
76,190,131015,1,0,0:0:0:0:
57,227,131094,1,0,0:0:0:0:
60,268,131173,1,0,0:0:0:0:
91,295,131252,1,0,0:0:0:0:
120,324,131331,1,0,0:0:0:0:
174,337,131410,5,4,0:0:0:0:
229,326,131489,1,0,0:0:0:0:
283,340,131568,1,0,0:0:0:0:
337,352,131647,1,0,0:0:0:0:
390,336,131726,1,0,0:0:0:0:
442,317,131805,1,0,0:0:0:0:
476,273,131883,1,0,0:0:0:0:
470,217,131962,1,0,0:0:0:0:
422,186,132041,1,4,0:0:0:0:
380,223,132120,1,0,0:0:0:0:
359,275,132199,1,0,0:0:0:0:
303,283,132278,1,0,0:0:0:0:
249,266,132357,1,0,0:0:0:0:
201,236,132436,1,0,0:0:0:0:
155,203,132515,1,0,0:0:0:0:
103,224,132594,1,0,0:0:0:0:
47,228,132673,5,4,0:0:0:0:
29,174,132752,1,0,0:0:0:0:
30,117,132831,1,0,0:0:0:0:
60,70,132910,1,0,0:0:0:0:
112,49,132989,1,0,0:0:0:0:
168,50,133068,1,0,0:0:0:0:
206,90,133147,1,0,0:0:0:0:
245,129,133226,1,0,0:0:0:0:
300,121,133305,1,4,0:0:0:0:
342,85,133383,1,0,0:0:0:0:
398,83,133462,1,0,0:0:0:0:
444,114,133541,1,0,0:0:0:0:
475,160,133620,1,0,0:0:0:0:
461,214,133699,1,0,0:0:0:0:
440,266,133778,1,0,0:0:0:0:
401,306,133857,1,0,0:0:0:0:
361,318,133936,6,0,L|294:335,1,52.5000020027161,4|0,0:0|0:0,0:0:0:0:
269,344,134094,2,0,L|194:315,1,52.5000020027161
181,306,134252,2,0,L|160:251,1,52.5000020027161
146,217,134410,2,0,L|91:207,1,52.5000020027161
52,200,134568,2,0,L|41:128,1,52.5000020027161,4|0,0:0|0:0,0:0:0:0:
36,106,134726,2,0,L|73:55,1,52.5000020027161
91,29,134883,2,0,L|151:52,1,52.5000020027161
179,64,135041,2,0,L|169:125,1,52.5000020027161
164,157,135199,6,0,L|222:176,1,52.5000020027161,4|0,0:0|0:0,0:0:0:0:
254,185,135357,2,0,L|289:119,1,52.5000020027161
297,100,135515,2,0,L|340:62,1,52.5000020027161
367,36,135673,2,0,L|440:58,1,52.5000020027161
457,65,135831,2,0,L|437:135,1,52.5000020027161,4|0,0:0|0:0,0:0:0:0:
430,156,135989,2,0,L|463:213,1,52.5000020027161
478,237,136147,2,0,L|452:296,1,52.5000020027161
440,324,136305,2,0,L|369:312,1,52.5000020027161
347,303,136462,6,0,L|299:321,3,35,4|0|0|0,0:0|0:0|0:0|0:0,0:0:0:0:
274,330,136778,2,0,L|225:295,3,35
210,284,137094,2,0,L|146:303,3,35,4|0|0|0,0:0|0:0|0:0|0:0,0:0:0:0:
135,305,137410,2,0,L|92:261,3,35
85,245,137726,6,0,L|122:194,3,35,4|0|0|0,0:0|0:0|0:0|0:0,0:0:0:0:
130,182,138041,2,0,L|182:188,3,35
207,190,138357,2,0,L|224:139,3,35,4|0|0|0,0:0|0:0|0:0|0:0,0:0:0:0:
231,116,138673,2,0,L|194:80,3,35
247,64,138989,5,4,0:0:0:0:
294,51,139068,2,0,L|350:40,2,35
282,99,139305,1,0,0:0:0:0:
329,90,139383,2,0,L|373:103,2,35
313,137,139620,1,4,0:0:0:0:
361,138,139699,2,0,L|414:168,2,35
336,180,139936,1,0,0:0:0:0:
384,188,140015,2,0,L|428:225,2,35
352,226,140252,5,4,0:0:0:0:
303,216,140331,2,0,L|248:233,2,35
313,264,140568,1,0,0:0:0:0:
265,250,140647,2,0,L|205:278,2,35
271,298,140883,1,4,0:0:0:0:
224,282,140962,2,0,L|181:293,2,35
233,330,141199,1,0,0:0:0:0:
185,316,141278,2,0,L|134:328,2,35
168,271,141515,5,4,0:0:0:0:
121,265,141594,2,0,L|22:262,1,52.5000020027161
27,238,141752,1,0,0:0:0:0:
27,190,141831,2,0,L|72:125,1,52.5000020027161
58,98,141989,1,0,0:0:0:0:
99,75,142068,2,0,L|174:55,1,52.5000020027161,0|4,0:0|0:0,0:0:0:0:
197,64,142226,1,0,0:0:0:0:
244,68,142305,2,0,L|326:85,1,52.5000020027161
341,89,142462,1,0,0:0:0:0:
388,89,142541,2,0,L|445:80,1,52.5000020027161
484,98,142699,1,0,0:0:0:0:
496,143,142778,6,0,L|496:205,1,52.5000020027161,4|0,0:0|0:0,0:0:0:0:
471,236,142936,1,0,0:0:0:0:
423,232,143015,2,0,L|350:227,1,52.5000020027161
332,257,143173,1,0,0:0:0:0:
300,292,143252,2,0,L|233:356,1,52.5000020027161
214,336,143410,1,4,0:0:0:0:
166,331,143489,2,0,L|99:293,1,52.5000020027161
111,258,143647,1,0,0:0:0:0:
78,223,143726,2,0,L|94:164,1,52.5000020027161
97,125,143883,1,0,0:0:0:0:
125,87,143962,2,0,L|180:53,1,52.5000020027161,0|4,0:0|0:0,0:0:0:0:
223,42,144120,5,0,0:0:0:0:
275,62,144199,1,0,0:0:0:0:
330,54,144278,1,0,0:0:0:0:
385,61,144357,1,0,0:0:0:0:
433,89,144436,1,0,0:0:0:0:
457,139,144515,1,0,0:0:0:0:
438,191,144594,1,0,0:0:0:0:
382,185,144673,1,4,0:0:0:0:
363,132,144752,1,0,0:0:0:0:
319,96,144831,1,0,0:0:0:0:
264,108,144910,1,0,0:0:0:0:
227,150,144989,1,0,0:0:0:0:
174,169,145068,1,0,0:0:0:0:
121,149,145147,1,0,0:0:0:0:
68,129,145226,1,0,0:0:0:0:
17,152,145305,5,4,0:0:0:0:
12,207,145383,1,0,0:0:0:0:
37,257,145462,1,0,0:0:0:0:
92,263,145541,1,0,0:0:0:0:
140,234,145620,1,0,0:0:0:0:
194,248,145699,1,0,0:0:0:0:
236,284,145778,1,0,0:0:0:0:
280,318,145857,1,0,0:0:0:0:
336,318,145936,1,4,0:0:0:0:
389,301,146015,1,0,0:0:0:0:
438,274,146094,1,0,0:0:0:0:
465,224,146173,1,0,0:0:0:0:
459,168,146252,1,0,0:0:0:0:
429,120,146331,1,0,0:0:0:0:
373,109,146410,1,0,0:0:0:0:
334,149,146489,1,0,0:0:0:0:
320,203,146568,5,4,0:0:0:0:
365,236,146647,1,0,0:0:0:0:
386,287,146726,1,0,0:0:0:0:
341,320,146805,1,0,0:0:0:0:
286,328,146883,1,0,0:0:0:0:
233,308,146962,1,0,0:0:0:0:
227,252,147041,1,0,0:0:0:0:
242,198,147120,1,0,0:0:0:0:
259,144,147199,1,4,0:0:0:0:
248,89,147278,1,0,0:0:0:0:
230,35,147357,1,0,0:0:0:0:
176,17,147436,1,0,0:0:0:0:
120,21,147515,1,0,0:0:0:0:
67,39,147594,1,0,0:0:0:0:
25,76,147673,1,0,0:0:0:0:
46,127,147752,1,0,0:0:0:0:
101,129,147831,5,4,0:0:0:0:
149,100,147910,1,0,0:0:0:0:
203,111,147989,1,0,0:0:0:0:
250,141,148068,1,0,0:0:0:0:
287,182,148147,1,0,0:0:0:0:
298,236,148226,1,0,0:0:0:0:
264,280,148305,1,0,0:0:0:0:
213,303,148383,1,0,0:0:0:0:
157,297,148462,1,4,0:0:0:0:
133,246,148541,1,0,0:0:0:0:
150,192,148620,1,0,0:0:0:0:
192,155,148699,1,0,0:0:0:0:
245,137,148778,1,0,0:0:0:0:
300,147,148857,1,0,0:0:0:0:
351,169,148936,1,0,0:0:0:0:
370,221,149015,1,0,0:0:0:0:
386,274,149094,6,8,L|416:295,1,35
467,122,149252,2,0,L|430:111,1,35
281,15,149410,2,0,L|329:26,1,35
154,102,149568,2,0,L|169:139,1,35
264,347,149726,5,0,0:0:0:0:
351,82,149883,1,0,0:0:0:0:
264,347,150041,1,0,0:0:0:0:
37,314,150357,5,0,0:0:0:0:
310,253,150515,1,0,0:0:0:0:
30,241,150673,1,0,0:0:0:0:
210,27,150831,1,0,0:0:0:0:
155,167,150989,2,0,B|170:150|170:150|192:144|209:156|217:182|217:182|278:165,1,140
409,80,151305,1,0,0:0:0:0:
421,133,151383,1,0,0:0:0:0:
431,188,151462,1,0,0:0:0:0:
334,343,151620,5,0,0:0:0:0:
195,99,151778,1,0,0:0:0:0:
334,343,151936,1,0,0:0:0:0:
92,298,152094,2,0,L|177:274,1,70
261,198,152252,2,0,L|180:228,1,70
76,196,152410,2,0,L|160:173,1,70
239,96,152568,2,0,L|129:128,1,70
54,123,152726,1,0,0:0:0:0:
457,62,152883,6,0,B|437:52|431:27|431:27|409:37|407:59|407:59|423:83|413:118|413:118|384:150|389:196|389:196|393:212,1,210
407,211,153199,2,0,B|431:235|431:264|431:264|407:294|373:278|373:278|318:275|290:335,1,210
260,325,153515,2,0,B|216:350|216:350|188:343|188:343|207:324|207:324|177:322|177:322|202:301|202:301|193:245,1,210
214,222,153831,2,0,B|153:253|153:253|112:241|127:194|127:194|174:166|142:105,1,210
172,99,154147,6,0,L|245:123,1,70
373,161,154305,2,0,L|291:137,1,70
294,61,154462,2,0,L|326:-11,2,70
69,193,154778,5,0,0:0:0:0:
312,331,154936,1,0,0:0:0:0:
149,102,155094,1,0,0:0:0:0:
312,331,155252,1,0,0:0:0:0:
451,208,155410,6,0,L|366:213,2,70
428,55,155726,1,0,0:0:0:0:
313,133,155883,1,0,0:0:0:0:
262,170,155962,1,0,0:0:0:0:
210,206,156041,1,0,0:0:0:0:
72,231,156199,1,0,0:0:0:0:
30,97,156357,1,0,0:0:0:0:
73,61,156436,1,0,0:0:0:0:
118,28,156515,1,0,0:0:0:0:
159,334,156673,5,0,0:0:0:0:
203,57,156831,1,0,0:0:0:0:
350,295,156989,1,0,0:0:0:0:
97,173,157147,1,0,0:0:0:0:
350,295,157305,1,0,0:0:0:0:
297,21,157462,1,0,0:0:0:0:
473,238,157620,1,0,0:0:0:0:
374,119,157778,6,0,B|361:95|385:73|385:73|378:102|383:129|383:129|414:164|403:234,1,210
398,307,158094,1,0,0:0:0:0:
127,234,158252,1,0,0:0:0:0:
369,374,158410,1,0,0:0:0:0:
304,101,158568,1,0,0:0:0:0:
208,364,158726,1,0,0:0:0:0:
139,94,158883,1,0,0:0:0:0:
137,167,159041,5,0,0:0:0:0:
197,148,159120,1,0,0:0:0:0:
250,182,159199,1,0,0:0:0:0:
265,243,159278,1,0,0:0:0:0:
325,261,159357,1,0,0:0:0:0:
384,240,159436,1,0,0:0:0:0:
437,206,159515,1,0,0:0:0:0:
411,64,159673,5,0,0:0:0:0:
182,226,159831,1,0,0:0:0:0:
450,146,159989,1,0,0:0:0:0:
206,7,160147,1,0,0:0:0:0:
242,49,160226,1,0,0:0:0:0:
254,103,160305,1,0,0:0:0:0:
199,111,160383,1,0,0:0:0:0:
146,91,160462,5,0,0:0:0:0:
57,356,160620,1,0,0:0:0:0:
325,261,160778,1,0,0:0:0:0:
71,114,160936,1,0,0:0:0:0:
120,251,161094,6,0,L|199:233,1,70
195,169,161252,2,0,L|260:211,1,70
286,146,161410,2,0,L|327:213,1,70
368,146,161568,2,0,L|386:228,1,70
430,278,161726,5,0,0:0:0:0:
391,318,161805,1,0,0:0:0:0:
338,336,161883,1,0,0:0:0:0:
293,301,161962,1,0,0:0:0:0:
236,301,162041,1,0,0:0:0:0:
183,320,162120,1,0,0:0:0:0:
126,320,162199,1,0,0:0:0:0:
86,42,162357,5,0,0:0:0:0:
294,229,162515,1,0,0:0:0:0:
42,105,162673,1,0,0:0:0:0:
314,38,162831,1,0,0:0:0:0:
431,141,162989,5,0,0:0:0:0:
406,199,163068,1,0,0:0:0:0:
371,251,163147,1,0,0:0:0:0:
129,105,163305,1,0,0:0:0:0:
112,165,163383,1,0,0:0:0:0:
99,226,163462,1,0,0:0:0:0:
318,367,163620,1,0,0:0:0:0:
288,311,163699,1,0,0:0:0:0:
275,249,163778,1,0,0:0:0:0:
378,27,163936,5,0,0:0:0:0:
234,101,164094,2,0,B|261:90|266:55|266:55|230:72|200:119|200:119|180:193,1,210
164,235,164410,1,0,0:0:0:0:
423,340,164568,1,0,0:0:0:0:
200,169,164726,1,0,0:0:0:0:
459,67,164883,1,0,0:0:0:0:
289,289,165041,1,0,0:0:0:0:
354,16,165199,2,0,B|342:46|342:46|312:48|284:22|284:22|235:58,1,140
108,118,165515,5,0,0:0:0:0:
217,345,165673,1,0,0:0:0:0:
356,135,165831,1,0,0:0:0:0:
133,253,165989,1,0,0:0:0:0:
356,135,166147,1,0,0:0:0:0:
133,253,166305,1,0,0:0:0:0:
207,13,166462,1,0,0:0:0:0:
346,222,166620,1,0,0:0:0:0:
155,152,166778,6,0,L|230:176,1,70
301,179,166936,2,0,L|264:254,2,70
284,314,167173,2,0,L|365:301,1,70
444,114,167410,6,0,L|366:131,1,70
334,117,167568,2,0,L|266:79,1,70
238,57,167726,2,0,B|190:28|134:37|134:37|102:37|79:63|93:88|136:94|136:94|150:133|120:172,1,280
74,274,168199,6,0,L|146:220,1,70
234,345,168357,2,0,L|232:263,1,70
396,273,168515,2,0,L|322:225,1,70
399,91,168673,2,0,L|332:129,1,70
235,7,168831,2,0,L|236:82,1,70
72,84,168989,2,0,L|144:126,2,70
109,243,169305,5,0,0:0:0:0:
161,224,169383,1,0,0:0:0:0:
208,254,169462,1,0,0:0:0:0:
263,264,169541,1,0,0:0:0:0:
314,240,169620,1,0,0:0:0:0:
344,192,169699,1,0,0:0:0:0:
396,171,169778,1,0,0:0:0:0:
396,114,169857,1,0,0:0:0:0:
372,63,169936,2,0,L|287:85,1,70
191,9,170094,2,0,L|246:71,1,70
227,194,170252,2,0,L|257:118,1,70
264,90,170410,1,0,0:0:0:0:
59,64,170568,5,0,0:0:0:0:
453,320,170883,1,0,0:0:0:0:
208,0,171199,1,0,0:0:0:0:
303,384,171515,1,0,0:0:0:0:
137,343,171831,5,0,0:0:0:0:
201,314,171989,1,0,0:0:0:0:
190,244,172147,1,0,0:0:0:0:
258,227,172305,1,0,0:0:0:0:
254,157,172462,1,0,0:0:0:0:
323,148,172620,1,0,0:0:0:0:
314,78,172778,1,0,0:0:0:0:
381,58,172936,1,0,0:0:0:0:
451,136,173094,5,0,0:0:0:0:
217,40,173252,1,0,0:0:0:0:
376,235,173410,1,0,0:0:0:0:
144,135,173568,1,0,0:0:0:0:
283,344,173726,1,0,0:0:0:0:
55,238,173883,1,0,0:0:0:0:
363,64,174041,1,0,0:0:0:0:
109,356,174199,1,0,0:0:0:0:
358,141,174357,5,0,0:0:0:0:
298,121,174436,1,0,0:0:0:0:
258,169,174515,1,0,0:0:0:0:
309,205,174594,1,0,0:0:0:0:
301,267,174673,1,0,0:0:0:0:
237,264,174752,1,0,0:0:0:0:
186,226,174831,1,0,0:0:0:0:
123,232,174910,1,0,0:0:0:0:
100,290,174989,2,0,B|79:311|79:341|79:341|107:324|106:298|106:298|125:285|150:289|150:289|166:272|174:197,1,210
190,221,175305,2,0,L|263:148,2,70
