osu file format v12

[General]
AudioFilename: O_T_Nver_.mp3
AudioLeadIn: 2000
PreviewTime: 41657
Countdown: 1
SampleSet: None
StackLeniency: 0.7
Mode: 0
LetterboxInBreaks: 1

[Editor]
DistanceSpacing: 0.3
BeatDivisor: 4
GridSize: 4

[Metadata]
Title:Gigantic O.T.N
TitleUnicode:Gigantic O.T.N
Artist:Wotamin
ArtistUnicode:Wotamin
Creator:caren_sk
Version:Ag10!Holy shit!!Fuck Me!!
Source:Nico Nico Douga
Tags:len nico douga vocaloid gigantic o.t.n Aqo __Ag
BeatmapID:246585
BeatmapSetID:79696

[Difficulty]
HPDrainRate:6
CircleSize:4
OverallDifficulty:7
ApproachRate:10
SliderMultiplier:2
SliderTickRate:1

[Events]
//Background and Video events
0,0,"BG.jpg",0,0
//Break Periods
2,64347,73960
//Storyboard Layer 0 (Background)
//Storyboard Layer 1 (Fail)
//Storyboard Layer 2 (Pass)
//Storyboard Layer 3 (Foreground)
//Storyboard Sound Samples
//Background Colour Transformations
3,100,0,0,0

[TimingPoints]
42,315.789473684211,4,1,1,80,1,0
10068,-100,4,1,1,40,0,0
11411,-111.111111111111,4,2,1,100,0,0
20252,-83.3333333333333,4,2,1,100,0,0
21515,-100,4,2,1,100,0,0
41727,-100,4,1,1,90,0,1
64463,-111.111111111111,4,1,1,100,0,0
74411,-111.111111111111,4,2,1,100,0,0
94779,-133.333333333333,4,1,1,80,0,0
105594,-100,4,1,1,80,0,0
106148,-100,4,1,1,90,0,1
128884,-100,4,1,1,90,0,0
137647,-100,4,1,1,90,0,0
149174,-100,4,2,0,70,0,0
150358,-80,4,1,1,90,0,1
170569,-80,4,1,1,90,0,0
170884,-80,4,1,1,90,0,1
171200,-80,4,1,1,90,0,0
171516,-80,4,1,1,90,0,1
171832,-80,4,1,1,90,0,0
172148,-80,4,1,1,90,0,1
172463,-80,4,1,1,90,0,0
172779,-80,4,1,1,90,0,1
173095,-80,4,1,1,90,0,0
173411,-80,4,1,1,90,0,1
173569,-80,4,1,1,90,0,0
175306,-80,4,1,1,90,0,1
175621,-71.4285714285714,4,1,1,80,0,0
180200,-80,4,1,1,80,0,0
182569,-71.4285714285714,4,1,1,90,0,0

[Colours]
Combo1 : 128,255,128
Combo2 : 255,128,255
Combo3 : 128,255,255
Combo4 : 255,255,128

[HitObjects]
172,76,989,2,0,P|236:108|272:96,1,100
370,67,1305,1,0,0:0:0:0:
296,272,1463,1,0,0:0:0:0:
444,160,1620,1,8,0:0:0:0:
416,172,1699,1,0,0:0:0:0:
384,172,1778,1,0,0:0:0:0:
352,164,1857,1,0,0:0:0:0:
320,160,1936,2,0,L|240:188,3,50
272,176,2252,5,8,0:0:0:0:
184,336,2410,1,0,0:0:0:0:
68,168,2568,1,0,0:0:0:0:
80,184,2647,1,0,0:0:0:0:
96,192,2726,1,0,0:0:0:0:
184,336,2884,1,8,0:0:0:0:
204,308,2963,1,0,0:0:0:0:
204,276,3042,1,0,0:0:0:0:
152,128,3199,1,0,0:0:0:0:
204,276,3357,1,0,0:0:0:0:
72,288,3515,1,8,0:0:0:0:
292,116,3673,1,0,0:0:0:0:
412,92,3831,6,0,P|420:152|408:200,1,100
72,288,4147,2,0,P|60:220|72:180,1,100,8|0,0:0|0:0,0:0:0:0:
180,40,4463,1,0,0:0:0:0:
220,36,4542,1,0,0:0:0:0:
256,48,4620,1,0,0:0:0:0:
280,76,4699,1,0,0:0:0:0:
292,116,4778,1,8,0:0:0:0:
224,196,4936,1,0,0:0:0:0:
412,92,5094,1,0,0:0:0:0:
412,124,5173,1,0,0:0:0:0:
412,156,5252,1,0,0:0:0:0:
316,292,5410,6,0,L|316:344,2,50,8|0|0,0:0|0:0|0:0,0:0:0:0:
292,212,5647,1,0,0:0:0:0:
232,268,5726,2,0,L|232:304,10,25,0|0|0|0|0|0|0|8|0|0|0,0:0|0:0|0:0|0:0|0:0|0:0|0:0|0:0|0:0|0:0|0:0,0:0:0:0:
232,228,6199,2,0,L|232:176,1,50
232,60,6357,5,0,0:0:0:0:
88,128,6515,1,0,0:0:0:0:
280,324,6673,1,8,0:0:0:0:
424,256,6831,1,0,0:0:0:0:
424,144,6989,1,0,0:0:0:0:
392,140,7068,1,0,0:0:0:0:
360,148,7147,1,0,0:0:0:0:
340,172,7226,1,0,0:0:0:0:
320,196,7305,1,8,0:0:0:0:
292,208,7384,1,0,0:0:0:0:
260,212,7463,1,0,0:0:0:0:
88,240,7620,6,0,L|112:196,1,50
128,168,7778,1,0,0:0:0:0:
152,144,7857,1,0,0:0:0:0:
184,128,7936,1,8,0:0:0:0:
216,120,8015,1,0,0:0:0:0:
248,120,8094,1,0,0:0:0:0:
280,112,8173,1,0,0:0:0:0:
312,92,8252,2,0,P|356:52|396:40,2,100,0|0|8,0:0|0:0|0:0,0:0:0:0:
396,256,8726,2,0,P|356:296|300:316,1,100
180,308,9042,5,0,0:0:0:0:
148,296,9120,1,0,0:0:0:0:
136,264,9199,1,8,0:0:0:0:
140,80,9357,1,0,0:0:0:0:
172,92,9435,1,0,0:0:0:0:
184,124,9514,1,0,0:0:0:0:
56,220,9673,1,0,0:0:0:0:
260,176,9831,1,8,0:0:0:0:
24,140,9989,1,0,0:0:0:0:
288,252,10147,2,0,L|296:276,14,25,0|0|0|0|0|0|0|8|0|0|0|0|0|0|0,0:0|0:0|0:0|0:0|0:0|0:0|0:0|0:0|0:0|0:0|0:0|0:0|0:0|0:0|0:0,0:0:0:0:
324,340,10778,1,0,0:0:0:0:
196,28,11094,1,8,0:0:0:0:
108,72,11252,5,0,0:0:0:0:
60,252,11410,2,0,P|112:256|164:220,1,100
388,112,11726,2,0,P|344:120|300:148,1,89.9999972534181,8|0,0:0|0:0,0:0:0:0:
284,232,12042,1,0,0:0:0:0:
168,128,12199,1,0,0:0:0:0:
280,80,12357,1,8,0:0:0:0:
176,280,12515,1,0,0:0:0:0:
392,284,12673,5,0,0:0:0:0:
456,188,12831,1,0,0:0:0:0:
348,184,12989,1,8,0:0:0:0:
496,288,13147,1,0,0:0:0:0:
260,152,13305,2,0,B|268:172|268:172|240:188|292:240|248:292,1,134.999995880127
256,279,13620,1,8,0:0:0:0:
260,40,13778,1,0,0:0:0:0:
176,72,13936,1,0,0:0:0:0:
336,76,14094,1,0,0:0:0:0:
144,152,14252,1,8,0:0:0:0:
372,152,14410,1,0,0:0:0:0:
132,260,14568,6,0,P|180:248|264:288,1,134.999995880127
280,304,14884,1,8,0:0:0:0:
144,152,15042,1,0,0:0:0:0:
336,76,15199,2,0,P|328:128|352:176,1,89.9999972534181
400,220,15515,1,8,0:0:0:0:
232,72,15673,1,0,0:0:0:0:
124,64,15831,1,0,0:0:0:0:
208,300,15989,1,0,0:0:0:0:
392,132,16147,2,0,P|352:92|344:52,1,89.9999972534181,8|0,0:0|0:0,0:0:0:0:
344,60,16463,5,0,0:0:0:0:
344,276,16620,1,0,0:0:0:0:
296,140,16778,1,8,0:0:0:0:
392,200,16936,1,0,0:0:0:0:
64,204,17094,2,0,P|92:244|144:264,1,89.9999972534181
280,348,17410,2,0,P|304:308|308:256,1,89.9999972534181,8|0,0:0|0:0,0:0:0:0:
208,112,17726,2,0,P|272:56|320:56,1,134.999995880127
368,56,18042,2,0,P|340:108|300:124,1,89.9999972534181,8|0,0:0|0:0,0:0:0:0:
264,208,18357,1,0,0:0:0:0:
208,112,18515,1,0,0:0:0:0:
168,296,18673,1,8,0:0:0:0:
76,88,18831,1,0,0:0:0:0:
20,328,18989,6,0,P|56:288|104:268,1,89.9999972534181
264,208,19305,1,8,0:0:0:0:
240,188,19384,1,0,0:0:0:0:
240,152,19463,1,0,0:0:0:0:
260,124,19542,1,0,0:0:0:0:
288,112,19620,2,0,P|336:120|376:96,2,89.9999972534181,0|0|8,0:0|0:0|0:0,0:0:0:0:
200,52,20094,1,0,0:0:0:0:
120,120,20252,6,0,L|56:164,2,59.9999981689454
200,132,20489,1,0,0:0:0:0:
152,196,20568,2,0,L|96:236,2,59.9999981689454
236,204,20805,1,0,0:0:0:0:
188,268,20884,2,0,L|136:308,2,59.9999981689454
268,276,21120,1,0,0:0:0:0:
228,340,21199,2,0,L|180:376,2,59.9999981689454
304,352,21436,1,0,0:0:0:0:
304,352,21515,6,0,P|368:328|416:340,1,100
496,352,21831,1,0,0:0:0:0:
336,216,21989,1,0,0:0:0:0:
432,236,22147,1,0,0:0:0:0:
396,332,22305,1,0,0:0:0:0:
396,120,22463,2,0,L|396:16,1,100
252,28,22778,5,0,0:0:0:0:
136,60,22936,1,0,0:0:0:0:
40,228,23094,2,0,P|148:244|192:220,1,150
172,152,23410,2,0,P|232:168|256:208,1,100
240,272,23726,1,0,0:0:0:0:
136,60,23884,1,0,0:0:0:0:
252,28,24042,2,0,P|324:28|364:48,1,100
456,112,24357,1,0,0:0:0:0:
440,140,24436,1,0,0:0:0:0:
408,148,24515,1,0,0:0:0:0:
304,112,24673,2,0,L|304:56,3,50
304,156,24989,6,0,B|308:176|308:176|280:212|320:236|296:272,1,100
308,348,25305,1,0,0:0:0:0:
180,352,25463,1,0,0:0:0:0:
44,188,25620,1,0,0:0:0:0:
148,112,25778,1,0,0:0:0:0:
380,40,25936,1,0,0:0:0:0:
384,168,26094,1,0,0:0:0:0:
240,288,26252,1,0,0:0:0:0:
112,308,26410,1,0,0:0:0:0:
100,56,26568,6,0,P|152:32|200:32,1,100
448,212,26884,2,0,P|388:240|332:232,1,100
324,236,27120,1,0,0:0:0:0:
296,224,27199,2,0,P|232:196|176:212,1,100
144,260,27515,1,0,0:0:0:0:
256,104,27673,1,0,0:0:0:0:
356,24,27831,1,0,0:0:0:0:
328,148,27989,1,0,0:0:0:0:
276,24,28147,1,0,0:0:0:0:
396,100,28305,1,0,0:0:0:0:
420,212,28463,6,0,P|424:276|412:312,1,100
168,188,28778,2,0,P|160:128|168:84,1,100
216,24,29094,1,0,0:0:0:0:
100,72,29252,1,0,0:0:0:0:
276,128,29410,1,0,0:0:0:0:
44,188,29568,1,0,0:0:0:0:
304,248,29726,1,0,0:0:0:0:
288,264,29805,1,0,0:0:0:0:
268,272,29884,1,0,0:0:0:0:
48,280,30042,2,0,P|80:240|136:228,1,100
164,164,30357,5,0,0:0:0:0:
200,224,30515,1,0,0:0:0:0:
232,120,30673,1,0,0:0:0:0:
244,288,30831,1,0,0:0:0:0:
300,80,30989,1,0,0:0:0:0:
292,352,31147,1,0,0:0:0:0:
372,44,31305,1,0,0:0:0:0:
376,356,31463,1,0,0:0:0:0:
376,168,31620,2,0,L|376:116,2,50
376,260,31936,5,0,0:0:0:0:
120,128,32094,2,0,P|136:72|192:44,1,100
376,260,32410,2,0,P|356:316|304:340,1,100
116,136,32726,2,0,P|132:80|188:52,1,100
380,240,33042,2,0,P|360:296|308:320,1,100
112,144,33357,2,0,P|128:88|184:60,1,100
344,56,33673,1,0,0:0:0:0:
340,88,33752,1,0,0:0:0:0:
336,112,33831,2,0,L|324:168,1,50
232,212,33989,2,0,L|248:144,1,50
270,39,34147,2,0,L|260:88,1,50
168,136,34305,6,0,L|196:28,1,100
352,232,34620,2,0,L|324:344,1,100
164,216,34936,2,0,L|44:152,1,100
352,152,35252,2,0,L|460:200,1,100
220,272,35568,2,0,L|220:380,1,100
292,104,35884,2,0,L|292:-8,1,100
56,36,36199,1,0,0:0:0:0:
88,36,36278,1,0,0:0:0:0:
120,36,36357,2,0,L|172:36,1,50
244,112,36515,2,0,L|194:112,1,50
264,36,36673,2,0,L|320:36,1,50
372,112,36831,5,0,0:0:0:0:
372,216,36989,2,0,P|348:272|300:292,1,100
256,344,37305,1,0,0:0:0:0:
252,40,37936,1,0,0:0:0:0:
84,128,38252,1,0,0:0:0:0:
172,296,38568,1,0,0:0:0:0:
344,216,38884,1,0,0:0:0:0:
148,50,39199,5,0,0:0:0:0:
92,231,39357,1,0,0:0:0:0:
273,288,39515,1,0,0:0:0:0:
338,109,39673,1,0,0:0:0:0:
232,36,39831,1,0,0:0:0:0:
224,48,39910,1,0,0:0:0:0:
220,64,39989,1,0,0:0:0:0:
224,80,40068,1,0,0:0:0:0:
232,92,40147,1,0,0:0:0:0:
240,104,40226,1,0,0:0:0:0:
244,120,40305,1,0,0:0:0:0:
244,136,40384,1,0,0:0:0:0:
240,148,40463,2,0,B|280:176|216:176|216:176|280:192|216:200|216:200|280:208|216:224|216:224|280:228|216:252|216:252|268:272|200:308|268:372,1,400
252,352,41410,1,0,0:0:0:0:
444,72,41726,5,0,0:0:0:0:
440,184,41884,1,0,0:0:0:0:
352,120,42042,1,8,0:0:0:0:
356,292,42199,1,0,0:0:0:0:
264,248,42357,2,0,P|208:260|140:228,1,100
80,248,42673,1,8,0:0:0:0:
228,72,42831,1,0,0:0:0:0:
228,72,43147,1,0,0:0:0:0:
164,180,43305,1,8,0:0:0:0:
304,180,43463,1,0,0:0:0:0:
232,328,43620,1,0,0:0:0:0:
228,72,43778,1,0,0:0:0:0:
388,76,43936,5,8,0:0:0:0:
428,104,44015,1,0,0:0:0:0:
448,148,44094,1,0,0:0:0:0:
452,192,44173,1,0,0:0:0:0:
444,240,44252,2,0,P|412:292|320:312,1,150
176,380,44568,2,0,P|146:326|175:236,1,150,8|0,0:0|0:0,0:0:0:0:
204,80,44884,2,0,P|265:81|328:151,1,150
325,141,45199,1,8,0:0:0:0:
228,232,45357,1,0,0:0:0:0:
204,80,45515,1,0,0:0:0:0:
348,284,45673,1,0,0:0:0:0:
348,284,45989,5,0,0:0:0:0:
100,204,46147,1,0,0:0:0:0:
304,44,46305,1,0,0:0:0:0:
432,96,46463,1,8,0:0:0:0:
412,132,46542,1,0,0:0:0:0:
380,152,46620,1,0,0:0:0:0:
340,164,46699,1,0,0:0:0:0:
300,160,46778,2,0,P|252:132|180:128,1,100
100,204,47094,1,8,0:0:0:0:
104,84,47252,2,0,P|152:48|176:4,1,100
264,32,47568,5,0,0:0:0:0:
432,200,47726,1,8,0:0:0:0:
264,32,47884,1,0,0:0:0:0:
264,160,48042,2,0,P|212:192|192:236,1,100
188,256,48278,1,0,0:0:0:0:
188,288,48357,1,8,0:0:0:0:
308,352,48515,1,0,0:0:0:0:
432,200,48673,1,0,0:0:0:0:
332,32,48831,2,0,P|280:24|228:32,1,100,0|8,0:0|0:0,0:0:0:0:
84,144,49147,6,0,P|128:184|236:152,1,150
240,156,49463,1,0,0:0:0:0:
312,104,49620,2,0,L|368:140,1,50,8|0,0:0|0:0,0:0:0:0:
392,228,49778,2,0,L|348:204,1,50
240,156,49936,2,0,L|296:192,1,50
320,280,50094,2,0,L|276:256,1,50
192,232,50252,2,0,L|196:288,1,50,8|0,0:0|0:0,0:0:0:0:
200,356,50410,2,0,P|148:340|96:244,1,150
312,104,50726,2,0,P|364:120|416:216,1,150
416,232,51042,1,0,0:0:0:0:
64,160,51199,1,0,0:0:0:0:
228,80,51357,1,0,0:0:0:0:
68,56,51515,5,8,0:0:0:0:
100,68,51594,1,0,0:0:0:0:
124,96,51673,1,0,0:0:0:0:
136,128,51752,1,0,0:0:0:0:
144,168,51831,2,0,P|168:216|216:240,1,100
304,272,52147,1,8,0:0:0:0:
68,232,52305,1,0,0:0:0:0:
228,80,52463,2,0,B|252:96|252:96|260:72|260:72|276:92|276:92|288:76|288:76|312:80|312:80|368:80,1,150
372,80,52778,1,8,0:0:0:0:
304,272,52936,2,0,P|252:296|188:288,1,100
68,116,53252,2,0,P|128:84|176:84,1,100,0|8,0:0|0:0,0:0:0:0:
276,120,53568,5,0,0:0:0:0:
140,248,53726,1,0,0:0:0:0:
304,272,53884,1,0,0:0:0:0:
128,96,54042,1,8,0:0:0:0:
340,60,54199,1,0,0:0:0:0:
348,340,54357,2,0,P|384:300|400:248,1,100
468,32,54673,2,0,P|432:76|416:120,1,100,8|0,0:0|0:0,0:0:0:0:
316,168,54989,2,0,B|300:184|300:184|256:148|208:204|152:164,1,150
104,176,55305,1,8,0:0:0:0:
272,312,55463,6,0,P|208:336|112:316,1,150
56,324,55778,2,0,L|56:268,1,50
128,174,55936,2,0,L|128:224,1,50,8|0,0:0|0:0,0:0:0:0:
208,140,56094,2,0,L|208:80,1,50
264,24,56252,2,0,P|324:16|376:24,1,100
364,244,56568,1,8,0:0:0:0:
364,24,56726,1,0,0:0:0:0:
440,112,56884,5,0,0:0:0:0:
400,252,57042,1,0,0:0:0:0:
260,212,57199,1,8,0:0:0:0:
296,72,57357,1,0,0:0:0:0:
296,72,57673,1,0,0:0:0:0:
264,60,57752,1,0,0:0:0:0:
228,56,57831,2,0,P|176:60|108:100,1,100,8|0,0:0|0:0,0:0:0:0:
60,164,58147,2,0,L|80:212,1,50
152,228,58305,1,0,0:0:0:0:
224,244,58384,2,0,L|246:288,1,50,0|8,0:0|0:0,0:0:0:0:
400,108,58620,1,0,0:0:0:0:
480,184,58778,2,0,L|428:204,1,50
324,244,58936,2,0,L|376:260,1,50
152,336,59252,6,0,B|128:324|128:324|156:284|96:248|168:256|128:184,1,150
136,203,59568,1,0,0:0:0:0:
324,132,59726,1,8,0:0:0:0:
112,176,59884,1,0,0:0:0:0:
352,160,60042,1,0,0:0:0:0:
100,136,60199,1,0,0:0:0:0:
368,192,60357,1,8,0:0:0:0:
432,272,60515,2,0,P|380:292|320:284,1,100
240,176,60831,1,0,0:0:0:0:
336,288,60989,1,8,0:0:0:0:
240,176,61147,1,0,0:0:0:0:
236,40,61305,2,0,B|252:60|228:76|228:76|256:104|208:116|244:184,1,150
240,300,61620,2,0,B|256:252|220:240|240:196,1,100,8|0,0:0|0:0,0:0:0:0:
48,180,61936,5,0,0:0:0:0:
464,180,62252,1,8,0:0:0:0:
216,72,62568,1,0,0:0:0:0:
260,232,62726,1,0,0:0:0:0:
324,80,62884,1,8,0:0:0:0:
172,168,63042,1,0,0:0:0:0:
352,180,63199,1,0,0:0:0:0:
264,144,63357,1,0,0:0:0:0:
268,360,63515,5,8,0:0:0:0:
268,344,63594,1,0,0:0:0:0:
268,328,63673,1,0,0:0:0:0:
268,312,63752,1,0,0:0:0:0:
268,296,63831,2,0,B|268:256|268:256|280:228|280:228|280:192,1,100
276,48,64147,1,8,0:0:0:0:
404,312,74410,5,0,0:0:0:0:
452,132,74568,2,0,P|400:128|348:164,1,100
124,272,74884,2,0,P|168:264|212:236,1,89.9999972534181
228,152,75200,1,0,0:0:0:0:
344,256,75357,1,0,0:0:0:0:
232,304,75515,1,0,0:0:0:0:
336,104,75673,1,0,0:0:0:0:
120,100,75831,5,0,0:0:0:0:
56,196,75989,1,0,0:0:0:0:
164,200,76147,1,0,0:0:0:0:
16,96,76305,1,0,0:0:0:0:
248,104,76463,1,0,0:0:0:0:
252,344,76620,1,0,0:0:0:0:
248,105,76778,1,0,0:0:0:0:
252,344,76936,1,0,0:0:0:0:
336,312,77094,5,0,0:0:0:0:
176,308,77252,1,0,0:0:0:0:
368,232,77410,1,0,0:0:0:0:
140,232,77568,1,0,0:0:0:0:
380,124,77726,2,0,P|332:136|248:96,1,134.999995880127
232,80,78042,1,0,0:0:0:0:
368,232,78200,1,0,0:0:0:0:
176,308,78357,2,0,P|184:256|160:208,1,89.9999972534181
112,164,78673,1,0,0:0:0:0:
280,312,78831,1,0,0:0:0:0:
388,320,78989,1,0,0:0:0:0:
304,84,79147,1,0,0:0:0:0:
120,252,79305,6,0,P|160:292|168:332,1,89.9999972534181
168,324,79621,1,0,0:0:0:0:
168,108,79778,1,0,0:0:0:0:
216,244,79936,1,0,0:0:0:0:
120,184,80094,1,0,0:0:0:0:
448,180,80252,2,0,P|420:140|368:120,1,89.9999972534181
232,36,80568,2,0,P|208:76|204:128,1,89.9999972534181
304,272,80884,2,0,P|240:328|192:328,1,134.999995880127
144,328,81200,2,0,P|172:276|212:260,1,89.9999972534181
248,176,81515,1,0,0:0:0:0:
304,272,81673,1,0,0:0:0:0:
344,88,81831,1,0,0:0:0:0:
436,296,81989,5,0,0:0:0:0:
492,56,82147,2,0,P|456:96|408:116,1,89.9999972534181
248,176,82463,1,0,0:0:0:0:
272,196,82542,1,0,0:0:0:0:
272,232,82621,1,0,0:0:0:0:
252,260,82700,1,0,0:0:0:0:
224,272,82778,2,0,P|176:264|136:288,2,89.9999972534181
312,332,83252,1,0,0:0:0:0:
448,196,83410,2,0,P|428:144|440:96,1,89.9999972534181
236,24,83726,2,0,P|176:48|120:44,1,89.9999972534181
60,240,84042,2,0,P|92:284|100:340,1,89.9999972534181
312,332,84357,2,0,P|360:312|408:320,1,89.9999972534181
208,32,84673,6,0,P|144:56|96:44,1,100
16,32,84989,1,0,0:0:0:0:
176,168,85147,1,0,0:0:0:0:
80,148,85305,1,0,0:0:0:0:
116,52,85463,1,0,0:0:0:0:
116,264,85621,2,0,L|116:368,1,100
260,356,85936,1,0,0:0:0:0:
376,324,86094,1,0,0:0:0:0:
472,156,86252,2,0,P|364:140|320:164,1,150
340,232,86568,2,0,P|280:216|256:176,1,100
272,112,86884,1,0,0:0:0:0:
376,324,87042,1,0,0:0:0:0:
260,356,87200,6,0,P|188:356|148:336,1,100
56,272,87515,1,0,0:0:0:0:
72,244,87594,1,0,0:0:0:0:
104,236,87673,1,0,0:0:0:0:
208,272,87831,2,0,L|208:328,3,50
208,228,88147,2,0,B|204:208|204:208|232:172|192:148|216:112,1,100
300,236,88463,5,0,0:0:0:0:
208,132,88621,1,0,0:0:0:0:
348,104,88778,1,0,0:0:0:0:
148,268,88936,1,0,0:0:0:0:
376,320,89094,1,0,0:0:0:0:
124,52,89252,1,0,0:0:0:0:
476,24,89410,1,0,0:0:0:0:
40,352,89568,1,0,0:0:0:0:
248,332,89726,6,0,P|196:356|148:356,1,100
64,172,90042,2,0,P|124:144|180:152,1,100
188,148,90278,1,0,0:0:0:0:
216,160,90357,2,0,P|280:188|336:172,1,100
368,124,90673,1,0,0:0:0:0:
256,280,90831,1,0,0:0:0:0:
156,360,90989,1,0,0:0:0:0:
184,236,91147,1,0,0:0:0:0:
236,360,91305,1,0,0:0:0:0:
116,284,91463,1,0,0:0:0:0:
92,172,91621,6,0,P|88:108|100:72,1,100
344,196,91936,2,0,P|352:256|344:300,1,100
296,360,92252,1,0,0:0:0:0:
412,312,92410,1,0,0:0:0:0:
236,256,92568,1,0,0:0:0:0:
468,196,92726,1,0,0:0:0:0:
208,136,92884,1,0,0:0:0:0:
224,120,92963,1,0,0:0:0:0:
244,112,93042,1,0,0:0:0:0:
464,104,93200,2,0,P|432:144|376:156,1,100
348,220,93515,1,0,0:0:0:0:
140,172,93673,5,0,0:0:0:0:
356,248,93831,1,0,0:0:0:0:
132,148,93989,1,0,0:0:0:0:
356,280,94147,1,0,0:0:0:0:
132,120,94305,1,0,0:0:0:0:
348,308,94463,1,0,0:0:0:0:
144,96,94621,1,0,0:0:0:0:
144,260,94778,6,0,L|144:316,2,44.999998626709
64,180,95094,1,8,0:0:0:0:
220,180,95252,1,0,0:0:0:0:
304,328,95410,2,0,P|336:288|344:240,1,75.0000028610231
384,108,95726,1,8,0:0:0:0:
436,280,95884,1,0,0:0:0:0:
280,164,96042,2,0,P|232:172|184:160,1,75.0000028610231
116,104,96357,1,8,0:0:0:0:
324,44,96515,1,0,0:0:0:0:
216,288,96673,2,0,P|224:244|224:208,1,75.0000028610231
192,112,96989,1,8,0:0:0:0:
284,336,97147,1,0,0:0:0:0:
392,288,97305,5,0,0:0:0:0:
400,256,97384,1,0,0:0:0:0:
396,224,97463,1,0,0:0:0:0:
380,196,97542,1,0,0:0:0:0:
356,176,97620,2,0,P|320:156|296:112,1,75.0000028610231,8|0,0:0|0:0,0:0:0:0:
324,44,97936,1,0,0:0:0:0:
228,192,98094,1,0,0:0:0:0:
324,248,98252,1,8,0:0:0:0:
232,8,98410,1,0,0:0:0:0:
148,156,98568,2,0,P|108:204|116:256,1,112.500004291535
256,232,98884,2,0,P|317:242|358:209,1,112.500004291535,8|0,0:0|0:0,0:0:0:0:
272,100,99199,2,0,P|250:41|201:22,1,112.500004291535
128,8,99515,6,0,P|132:52|160:84,1,75.0000028610231,8|0,0:0|0:0,0:0:0:0:
224,160,99831,1,0,0:0:0:0:
360,252,99989,1,0,0:0:0:0:
456,116,100147,1,8,0:0:0:0:
320,24,100305,1,0,0:0:0:0:
344,140,100463,1,0,0:0:0:0:
380,336,100620,1,0,0:0:0:0:
224,160,100778,1,8,0:0:0:0:
456,116,100936,1,0,0:0:0:0:
240,56,101094,1,0,0:0:0:0:
212,68,101173,1,0,0:0:0:0:
184,56,101252,1,0,0:0:0:0:
160,72,101331,1,0,0:0:0:0:
128,60,101410,1,8,0:0:0:0:
60,148,101568,5,0,0:0:0:0:
52,276,101726,2,0,P|96:244|136:236,1,75.0000028610231
364,236,102042,2,0,P|328:264|292:272,1,75.0000028610231,8|0,0:0|0:0,0:0:0:0:
240,116,102357,2,0,B|224:144|224:144|248:160|220:176|240:196|240:196|224:236,1,112.500004291535
232,328,102673,2,0,P|236:288|228:248,1,75.0000028610231,8|0,0:0|0:0,0:0:0:0:
344,64,102989,1,0,0:0:0:0:
340,96,103068,1,0,0:0:0:0:
344,128,103147,1,0,0:0:0:0:
356,156,103226,1,0,0:0:0:0:
380,176,103305,1,8,0:0:0:0:
408,188,103384,1,0,0:0:0:0:
440,196,103463,1,0,0:0:0:0:
440,304,103620,5,0,0:0:0:0:
256,80,103936,1,8,0:0:0:0:
68,300,104252,1,0,0:0:0:0:
260,332,104568,1,8,0:0:0:0:
256,80,104726,1,0,0:0:0:0:
148,40,104884,1,0,0:0:0:0:
364,360,105042,1,0,0:0:0:0:
132,144,105199,1,8,0:0:0:0:
388,264,105357,1,0,0:0:0:0:
264,200,105515,1,0,0:0:0:0:
420,104,105673,2,0,B|392:92|392:92|384:128|384:128|372:92|372:92|364:108|364:108|268:108,1,200
68,312,106147,5,0,0:0:0:0:
72,200,106305,1,0,0:0:0:0:
160,264,106463,1,8,0:0:0:0:
156,92,106620,1,0,0:0:0:0:
248,136,106778,2,0,P|304:124|372:156,1,100
432,136,107094,1,8,0:0:0:0:
284,312,107252,1,0,0:0:0:0:
284,312,107568,1,0,0:0:0:0:
348,204,107726,1,8,0:0:0:0:
208,204,107884,1,0,0:0:0:0:
280,56,108041,1,0,0:0:0:0:
284,312,108199,1,0,0:0:0:0:
124,308,108357,5,8,0:0:0:0:
84,280,108436,1,0,0:0:0:0:
64,236,108515,1,0,0:0:0:0:
60,192,108594,1,0,0:0:0:0:
68,144,108673,2,0,P|100:92|192:72,1,150
336,4,108989,2,0,P|366:58|337:148,1,150,8|0,0:0|0:0,0:0:0:0:
308,304,109305,2,0,P|247:303|184:233,1,150
187,243,109620,1,8,0:0:0:0:
284,152,109778,1,0,0:0:0:0:
308,304,109936,1,0,0:0:0:0:
164,100,110094,1,0,0:0:0:0:
164,100,110410,5,0,0:0:0:0:
412,180,110568,1,0,0:0:0:0:
208,340,110726,1,0,0:0:0:0:
80,288,110884,1,8,0:0:0:0:
100,252,110963,1,0,0:0:0:0:
132,232,111041,1,0,0:0:0:0:
172,220,111120,1,0,0:0:0:0:
212,224,111199,2,0,P|260:252|332:256,1,100
412,180,111515,1,8,0:0:0:0:
408,300,111673,2,0,P|360:336|336:380,1,100
248,352,111989,1,0,0:0:0:0:
80,184,112147,1,8,0:0:0:0:
248,352,112305,1,0,0:0:0:0:
248,224,112463,6,0,P|300:192|320:148,1,100
324,128,112699,1,0,0:0:0:0:
324,96,112778,1,8,0:0:0:0:
204,32,112936,1,0,0:0:0:0:
80,184,113094,1,0,0:0:0:0:
180,352,113252,2,0,P|232:360|284:352,1,100,0|8,0:0|0:0,0:0:0:0:
428,240,113568,2,0,P|384:200|276:232,1,150
272,228,113884,1,0,0:0:0:0:
200,280,114041,6,0,L|148:240,1,50,8|0,0:0|0:0,0:0:0:0:
132,128,114199,2,0,L|172:164,1,50
0,276,114357,2,0,L|50:276,1,50
128,124,114515,2,0,L|76:124,1,50
46,200,114673,2,0,L|96:200,1,50,8|0,0:0|0:0,0:0:0:0:
172,48,114831,2,0,L|116:48,1,50
68,48,114989,1,0,0:0:0:0:
264,76,115147,1,0,0:0:0:0:
68,48,115305,1,8,0:0:0:0:
124,224,115463,1,0,0:0:0:0:
448,224,115620,1,0,0:0:0:0:
284,304,115778,1,0,0:0:0:0:
444,328,115936,5,8,0:0:0:0:
412,316,116015,1,0,0:0:0:0:
388,288,116094,1,0,0:0:0:0:
376,256,116173,1,0,0:0:0:0:
368,216,116252,2,0,P|344:168|296:144,1,100
208,112,116568,1,8,0:0:0:0:
444,152,116726,1,0,0:0:0:0:
284,304,116884,2,0,B|260:288|260:288|252:312|252:312|236:292|236:292|224:308|224:308|200:304|200:304|144:304,1,150
140,304,117199,1,8,0:0:0:0:
208,112,117357,2,0,P|260:88|324:96,1,100
444,268,117673,2,0,P|384:300|336:300,1,100,0|8,0:0|0:0,0:0:0:0:
236,264,117989,5,0,0:0:0:0:
372,136,118147,1,0,0:0:0:0:
208,112,118305,1,0,0:0:0:0:
384,288,118463,1,8,0:0:0:0:
172,324,118620,1,0,0:0:0:0:
164,44,118778,2,0,P|128:84|112:136,1,100
44,352,119094,2,0,P|80:308|96:264,1,100,8|0,0:0|0:0,0:0:0:0:
196,216,119410,2,0,B|212:200|212:200|256:236|304:180|360:220,1,150
408,208,119726,1,8,0:0:0:0:
240,72,119884,2,0,P|304:48|400:68,1,150
456,60,120199,6,0,L|456:116,1,50
384,210,120357,2,0,L|384:160,1,50,8|0,0:0|0:0,0:0:0:0:
304,244,120515,2,0,L|304:304,1,50
248,360,120673,2,0,P|188:368|136:360,1,100
148,140,120989,1,8,0:0:0:0:
148,360,121147,1,0,0:0:0:0:
72,272,121305,1,0,0:0:0:0:
112,132,121463,1,0,0:0:0:0:
252,172,121620,1,8,0:0:0:0:
216,312,121778,1,0,0:0:0:0:
216,312,122094,5,0,0:0:0:0:
248,324,122173,1,0,0:0:0:0:
284,328,122252,2,0,P|336:324|404:284,1,100,8|0,0:0|0:0,0:0:0:0:
452,220,122568,2,0,L|432:172,1,50
360,156,122726,1,0,0:0:0:0:
288,140,122805,2,0,L|265:95,1,50,0|8,0:0|0:0,0:0:0:0:
112,276,123041,1,0,0:0:0:0:
32,200,123199,2,0,L|84:180,1,50
188,140,123357,2,0,L|136:124,1,50
360,48,123673,2,0,B|384:60|384:60|356:100|416:136|344:128|384:200,1,150
375,180,123989,5,0,0:0:0:0:
188,252,124147,1,8,0:0:0:0:
400,208,124305,1,0,0:0:0:0:
160,224,124463,1,0,0:0:0:0:
412,248,124620,1,0,0:0:0:0:
144,192,124778,1,8,0:0:0:0:
80,112,124936,2,0,P|132:92|192:100,1,100
272,208,125252,1,0,0:0:0:0:
176,96,125410,1,8,0:0:0:0:
272,208,125568,1,0,0:0:0:0:
276,344,125726,2,0,B|260:324|284:308|284:308|256:280|304:268|268:200,1,150
272,84,126041,2,0,B|256:132|292:144|272:188,1,100,8|0,0:0|0:0,0:0:0:0:
464,204,126357,5,0,0:0:0:0:
48,204,126673,1,8,0:0:0:0:
296,312,126989,1,0,0:0:0:0:
252,152,127147,1,0,0:0:0:0:
188,304,127305,1,8,0:0:0:0:
340,216,127463,1,0,0:0:0:0:
160,204,127620,1,0,0:0:0:0:
248,240,127778,1,0,0:0:0:0:
244,24,127936,5,8,0:0:0:0:
244,40,128015,1,0,0:0:0:0:
244,56,128094,1,0,0:0:0:0:
244,72,128173,1,0,0:0:0:0:
244,88,128252,2,0,B|244:128|244:128|232:156|232:156|232:192,1,100
236,336,128568,1,8,0:0:0:0:
432,216,128884,5,0,0:0:0:0:
332,68,129042,1,0,0:0:0:0:
480,56,129199,1,8,0:0:0:0:
464,84,129278,1,0,0:0:0:0:
440,104,129357,1,0,0:0:0:0:
412,116,129436,1,0,0:0:0:0:
384,128,129515,1,0,0:0:0:0:
360,148,129594,1,0,0:0:0:0:
340,176,129673,1,0,0:0:0:0:
328,204,129752,1,0,0:0:0:0:
324,236,129831,1,8,0:0:0:0:
332,268,129910,1,0,0:0:0:0:
328,300,129989,1,0,0:0:0:0:
312,328,130068,1,0,0:0:0:0:
284,352,130147,6,0,L|224:352,3,50
140,252,130463,2,0,L|104:216,3,50,8|0|0|0,0:0|0:0|0:0|0:0,0:0:0:0:
160,68,130778,2,0,L|160:12,3,50
316,40,131094,2,0,L|368:20,2,50,8|0|0,0:0|0:0|0:0,0:0:0:0:
404,24,131331,2,0,P|476:72|480:112,1,100
480,116,131568,1,0,0:0:0:0:
452,144,131647,1,0,0:0:0:0:
416,136,131726,5,8,0:0:0:0:
380,124,131805,1,0,0:0:0:0:
348,124,131884,1,0,0:0:0:0:
324,144,131963,1,0,0:0:0:0:
292,152,132042,1,0,0:0:0:0:
260,152,132120,1,0,0:0:0:0:
228,140,132199,1,0,0:0:0:0:
200,124,132278,1,0,0:0:0:0:
176,100,132357,1,8,0:0:0:0:
144,88,132436,1,0,0:0:0:0:
112,92,132515,1,0,0:0:0:0:
84,108,132594,1,0,0:0:0:0:
60,140,132673,6,0,L|28:192,3,50
64,332,132989,2,0,L|92:276,3,50,8|0|0|0,0:0|0:0|0:0|0:0,0:0:0:0:
212,192,133305,2,0,L|180:244,3,50
216,384,133621,2,0,L|244:328,3,50,8|0|0|0,0:0|0:0|0:0|0:0,0:0:0:0:
252,304,133936,5,0,0:0:0:0:
336,124,134094,1,0,0:0:0:0:
380,308,134252,1,8,0:0:0:0:
372,276,134331,1,0,0:0:0:0:
352,248,134410,1,0,0:0:0:0:
332,224,134489,1,0,0:0:0:0:
304,212,134568,1,0,0:0:0:0:
272,208,134647,1,0,0:0:0:0:
240,220,134726,1,0,0:0:0:0:
208,232,134805,1,0,0:0:0:0:
176,232,134884,1,8,0:0:0:0:
148,216,134963,1,0,0:0:0:0:
124,192,135042,1,0,0:0:0:0:
120,160,135120,1,0,0:0:0:0:
124,128,135199,6,0,P|168:88|216:96,1,100
264,120,135436,1,0,0:0:0:0:
336,124,135515,2,0,P|384:104|412:64,1,100,8|0,0:0|0:0,0:0:0:0:
388,256,135831,2,0,P|344:296|296:288,1,100
248,264,136068,1,0,0:0:0:0:
176,260,136147,2,0,P|128:280|100:320,1,100,8|0,0:0|0:0,0:0:0:0:
176,164,136463,5,0,0:0:0:0:
312,88,136620,1,0,0:0:0:0:
384,228,136778,1,8,0:0:0:0:
248,304,136935,1,0,0:0:0:0:
190,133,137094,1,0,0:0:0:0:
343,103,137251,1,0,0:0:0:0:
369,258,137409,1,8,0:0:0:0:
216,288,137566,1,0,0:0:0:0:
360,140,137726,6,0,P|352:164|356:192,1,50
328,280,137884,2,0,P|300:272|276:280,1,50
192,248,138042,2,0,P|200:216|188:192,1,50,8|0,0:0|0:0,0:0:0:0:
220,108,138199,2,0,P|252:104|280:88,1,50
408,212,138357,2,0,P|385:223|368:245,1,50
268,328,138515,2,0,P|253:302|231:291,1,50
152,176,138673,2,0,P|180:159|188:133,1,50,8|0,0:0|0:0,0:0:0:0:
288,64,138830,2,0,P|313:83|344:92,1,50
408,100,138989,5,0,0:0:0:0:
200,40,139147,1,0,0:0:0:0:
84,80,139305,1,8,0:0:0:0:
76,112,139384,1,0,0:0:0:0:
80,144,139463,1,0,0:0:0:0:
96,172,139542,1,0,0:0:0:0:
124,188,139620,1,0,0:0:0:0:
160,196,139699,1,0,0:0:0:0:
192,188,139778,1,0,0:0:0:0:
224,172,139857,1,0,0:0:0:0:
240,144,139936,1,8,0:0:0:0:
264,120,140015,1,0,0:0:0:0:
296,108,140094,1,0,0:0:0:0:
332,116,140173,1,0,0:0:0:0:
364,140,140252,6,0,L|416:164,3,50
400,268,140568,2,0,L|400:332,3,50,8|0|0|0,0:0|0:0|0:0|0:0,0:0:0:0:
256,304,140884,2,0,L|192:336,3,50
124,188,141199,2,0,L|56:172,3,50,8|0|0|0,0:0|0:0|0:0|0:0,0:0:0:0:
40,160,141515,5,0,0:0:0:0:
32,120,141594,1,0,0:0:0:0:
44,80,141673,1,0,0:0:0:0:
68,56,141752,1,0,0:0:0:0:
100,48,141831,1,8,0:0:0:0:
136,48,141910,1,0,0:0:0:0:
168,64,141989,1,0,0:0:0:0:
184,96,142068,1,0,0:0:0:0:
208,120,142147,1,0,0:0:0:0:
240,140,142226,1,0,0:0:0:0:
272,140,142305,1,0,0:0:0:0:
304,128,142384,5,0,0:0:0:0:
336,124,142463,1,8,0:0:0:0:
372,124,142542,1,0,0:0:0:0:
400,140,142620,1,0,0:0:0:0:
420,176,142699,1,0,0:0:0:0:
428,212,142778,2,0,L|428:268,3,50
300,288,143094,2,0,L|272:344,3,50,8|0|0|0,0:0|0:0|0:0|0:0,0:0:0:0:
140,264,143410,2,0,L|88:264,3,50
124,112,143726,2,0,L|88:60,3,50,8|0|0|0,0:0|0:0|0:0|0:0,0:0:0:0:
144,144,144042,5,0,0:0:0:0:
176,164,144120,1,0,0:0:0:0:
212,168,144199,1,0,0:0:0:0:
244,156,144278,1,0,0:0:0:0:
272,136,144357,1,8,0:0:0:0:
296,104,144436,1,0,0:0:0:0:
312,72,144515,1,0,0:0:0:0:
316,32,144594,1,0,0:0:0:0:
344,64,144673,1,0,0:0:0:0:
364,92,144752,5,0,0:0:0:0:
388,112,144831,1,0,0:0:0:0:
416,124,144910,1,0,0:0:0:0:
448,136,144989,1,8,0:0:0:0:
404,160,145068,1,0,0:0:0:0:
384,184,145147,1,0,0:0:0:0:
368,212,145226,1,0,0:0:0:0:
360,248,145305,2,0,L|348:304,3,50
220,348,145620,2,0,L|192:292,3,50,8|0|0|0,0:0|0:0|0:0|0:0,0:0:0:0:
172,260,145936,2,0,P|148:208|96:192,1,100
64,132,146173,1,0,0:0:0:0:
104,64,146252,2,0,P|168:72|212:56,1,100,8|0,0:0|0:0,0:0:0:0:
318,95,146568,5,0,0:0:0:0:
382,237,146725,1,0,0:0:0:0:
236,297,146883,1,8,0:0:0:0:
172,155,147040,1,0,0:0:0:0:
347,113,147199,1,0,0:0:0:0:
364,268,147356,1,0,0:0:0:0:
207,279,147514,1,8,0:0:0:0:
190,125,147671,1,0,0:0:0:0:
326,281,147831,6,0,P|303:271|274:272,1,50
189,237,147989,2,0,P|200:209|194:185,1,50
233,104,148147,2,0,P|264:115|289:105,1,50,8|0,0:0|0:0,0:0:0:0:
370,144,148304,2,0,P|371:176|385:206,1,50
250,322,148462,2,0,P|241:299|220:280,1,50
147,173,148620,2,0,P|173:161|187:139,1,50
308,70,148778,2,0,P|323:100|347:111,1,50,8|0,0:0|0:0,0:0:0:0:
408,216,148935,2,0,P|386:239|375:270,1,50
88,252,149252,5,0,0:0:0:0:
88,252,149331,1,0,0:0:0:0:
88,252,149410,2,0,L|72:196,1,50,8|0,0:0|0:0,0:0:0:0:
120,96,149568,2,0,L|136:152,1,50
178,283,149726,2,0,L|164:236,1,50
220,140,149884,2,0,L|236:204,1,50
264,264,150042,2,0,P|320:272|368:320,1,100,8|0,0:0|0:0,0:0:0:0:
444,312,150357,5,0,0:0:0:0:
440,200,150515,1,0,0:0:0:0:
352,264,150673,1,8,0:0:0:0:
356,92,150830,1,0,0:0:0:0:
264,136,150988,2,0,P|208:124|132:160,1,125
52,312,151304,1,8,0:0:0:0:
228,312,151462,1,0,0:0:0:0:
228,312,151778,5,0,0:0:0:0:
164,204,151936,1,8,0:0:0:0:
304,204,152094,1,0,0:0:0:0:
232,56,152251,1,0,0:0:0:0:
228,312,152409,1,0,0:0:0:0:
340,328,152567,1,8,0:0:0:0:
404,308,152646,1,0,0:0:0:0:
440,256,152725,1,0,0:0:0:0:
452,200,152804,1,0,0:0:0:0:
444,144,152883,6,0,P|412:92|288:64,1,187.5
176,4,153199,2,0,P|146:58|196:184,1,187.5,8|0,0:0|0:0,0:0:0:0:
204,304,153515,2,0,P|265:303|336:200,1,187.5
336,208,153830,1,8,0:0:0:0:
180,172,153988,1,0,0:0:0:0:
204,304,154146,1,0,0:0:0:0:
320,80,154304,1,0,0:0:0:0:
320,80,154620,5,0,0:0:0:0:
100,180,154778,1,0,0:0:0:0:
304,340,154936,1,0,0:0:0:0:
428,348,155094,1,8,0:0:0:0:
416,296,155173,1,0,0:0:0:0:
388,260,155251,1,0,0:0:0:0:
348,232,155330,1,0,0:0:0:0:
300,224,155409,2,0,P|252:252|164:252,1,125
100,180,155725,1,8,0:0:0:0:
16,252,155883,2,0,P|64:288|96:372,1,125
264,352,156199,1,0,0:0:0:0:
432,184,156357,1,8,0:0:0:0:
264,352,156515,1,0,0:0:0:0:
264,224,156673,6,0,P|212:192|184:132,1,125
184,92,156909,1,0,0:0:0:0:
192,52,156988,1,8,0:0:0:0:
328,16,157146,1,0,0:0:0:0:
432,184,157304,1,0,0:0:0:0:
332,352,157462,2,0,P|280:360|204:336,1,125,0|8,0:0|0:0,0:0:0:0:
84,240,157778,2,0,P|128:200|252:240,1,187.5
272,296,158094,1,0,0:0:0:0:
392,296,158251,6,0,L|472:256,1,62.5,8|0,0:0|0:0,0:0:0:0:
332,224,158410,2,0,L|392:196,1,62.5
268,156,158568,2,0,L|336:124,1,62.5
196,264,158726,2,0,L|276:224,1,62.5
136,192,158885,2,0,L|196:164,1,62.5,8|0,0:0|0:0,0:0:0:0:
196,68,159042,2,0,P|136:84|56:68,1,125
196,68,159357,1,0,0:0:0:0:
444,48,159515,1,8,0:0:0:0:
388,224,159673,1,0,0:0:0:0:
64,224,159830,1,0,0:0:0:0:
228,304,159988,1,0,0:0:0:0:
80,344,160146,5,8,0:0:0:0:
132,320,160225,1,0,0:0:0:0:
168,272,160304,1,0,0:0:0:0:
168,212,160383,1,0,0:0:0:0:
168,152,160462,2,0,P|192:104|240:80,1,100
304,112,160778,1,8,0:0:0:0:
68,152,160936,1,0,0:0:0:0:
228,304,161094,2,0,B|252:288|252:288|264:320|264:320|280:292|280:292|288:316|288:316|312:304|312:304|384:304,1,187.5
424,304,161409,1,8,0:0:0:0:
304,112,161567,2,0,P|252:88|176:104,1,125
124,152,161805,1,0,0:0:0:0:
84,224,161883,2,0,P|152:248|216:216,1,125,0|8,0:0|0:0,0:0:0:0:
276,264,162199,5,0,0:0:0:0:
124,152,162357,1,0,0:0:0:0:
304,112,162515,1,0,0:0:0:0:
128,288,162673,1,8,0:0:0:0:
340,324,162830,1,0,0:0:0:0:
348,44,162988,2,0,P|384:84|400:160,1,125
468,352,163304,2,0,P|432:308|412:236,1,125,8|0,0:0|0:0,0:0:0:0:
316,216,163620,2,0,B|296:188|296:188|264:256|220:176|152:220,1,187.5
84,216,163936,1,8,0:0:0:0:
272,72,164094,6,0,B|232:80|232:80|212:32|172:104|136:52|136:52|76:88,1,187.5
32,88,164409,2,0,L|32:160,1,62.5
132,224,164567,2,0,L|132:152,1,62.5,8|0,0:0|0:0,0:0:0:0:
220,248,164725,2,0,L|220:320,1,62.5
284,364,164883,2,0,P|344:372|416:352,1,125
364,140,165199,1,8,0:0:0:0:
408,356,165357,1,0,0:0:0:0:
448,284,165515,5,0,0:0:0:0:
332,212,165673,1,0,0:0:0:0:
260,172,165830,1,8,0:0:0:0:
296,312,165988,1,0,0:0:0:0:
296,312,166304,1,0,0:0:0:0:
240,324,166383,1,0,0:0:0:0:
188,312,166462,2,0,P|136:308|60:248,1,125,8|0,0:0|0:0,0:0:0:0:
56,160,166778,2,0,L|100:96,1,62.5
152,68,166936,1,0,0:0:0:0:
216,112,167015,2,0,L|261:165,1,62.5,0|8,0:0|0:0,0:0:0:0:
400,276,167251,1,0,0:0:0:0:
480,200,167409,2,0,L|420:176,1,62.5
324,140,167567,2,0,L|388:112,1,62.5
164,32,167883,6,0,B|124:56|124:56|196:84|68:120|220:136|104:208,1,187.5
137,180,168199,1,0,0:0:0:0:
324,252,168357,1,8,0:0:0:0:
112,208,168515,1,0,0:0:0:0:
352,224,168673,1,0,0:0:0:0:
100,248,168830,1,0,0:0:0:0:
368,192,168988,1,8,0:0:0:0:
468,80,169146,2,0,P|416:60|344:72,1,125
240,208,169462,1,0,0:0:0:0:
348,72,169620,1,8,0:0:0:0:
240,208,169778,1,0,0:0:0:0:
244,356,169936,2,0,B|264:324|212:316|212:316|284:272|196:240|252:196,1,187.5
240,56,170251,2,0,B|272:104|184:124|252:192,1,125,8|0,0:0|0:0,0:0:0:0:
48,204,170567,5,0,0:0:0:0:
464,204,170883,1,8,0:0:0:0:
216,312,171199,1,0,0:0:0:0:
260,152,171357,1,0,0:0:0:0:
324,304,171515,1,8,0:0:0:0:
172,216,171673,1,0,0:0:0:0:
352,204,171830,1,0,0:0:0:0:
260,56,172147,1,8,0:0:0:0:
120,300,172305,1,0,0:0:0:0:
412,300,172463,1,0,0:0:0:0:
264,216,172778,1,8,0:0:0:0:
80,132,173094,6,0,P|136:92|152:40,1,125
392,236,173410,2,0,P|340:288|344:360,1,125,8|0,0:0|0:0,0:0:0:0:
236,332,173726,1,0,0:0:0:0:
120,196,173884,1,0,0:0:0:0:
256,80,174042,1,8,0:0:0:0:
372,216,174200,1,0,0:0:0:0:
140,84,174357,1,0,0:0:0:0:
148,100,174436,1,0,0:0:0:0:
164,112,174515,1,0,0:0:0:0:
180,120,174594,1,0,0:0:0:0:
196,128,174673,1,8,0:0:0:0:
208,140,174752,1,0,0:0:0:0:
216,156,174831,1,0,0:0:0:0:
224,172,174910,1,0,0:0:0:0:
232,188,174989,2,0,B|256:200|256:200|244:220|244:220|256:200|256:200|244:220|244:220|256:200|256:200|244:220|244:220|256:200|256:200|244:220|244:220|256:200|256:200|244:220|244:220|256:200|256:200|244:220|244:220|256:200|256:200|244:220|244:220|256:200|256:200|244:220|244:220|256:200|256:200|244:220|244:220|296:228|308:312,1,500,0|0,0:0|0:0,0:0:0:0:
