osu file format v12

[General]
AudioFilename: O_T_Nver_.mp3
AudioLeadIn: 2000
PreviewTime: 41647
Countdown: 0
SampleSet: None
StackLeniency: 0.7
Mode: 0
LetterboxInBreaks: 0

[Editor]
DistanceSpacing: 2
BeatDivisor: 8
GridSize: 8

[Metadata]
Title:Gigantic O.T.N
TitleUnicode:Gigantic O.T.N
Artist:Wotamin
ArtistUnicode:Wotamin
Creator:caren_sk
Version:490 style AR9
Source:Nico Nico Douga
Tags:len nico douga vocaloid gigantic o.t.n Aqo
BeatmapID:223726
BeatmapSetID:79696

[Difficulty]
HPDrainRate:6
CircleSize:4
OverallDifficulty:8
ApproachRate:9
SliderMultiplier:2.8
SliderTickRate:4

[Events]
//Background and Video events
0,0,"BG.jpg",0,0
//Break Periods
//Storyboard Layer 0 (Background)
//Storyboard Layer 1 (Fail)
//Storyboard Layer 2 (Pass)
//Storyboard Layer 3 (Foreground)
//Storyboard Sound Samples
//Background Colour Transformations
3,100,0,0,0

[TimingPoints]
1305,315.789473684211,4,1,1,80,1,0
11252,-100,4,2,1,100,0,0
19620,-166.666666666667,4,2,1,100,0,0
19936,-100,4,2,1,100,0,0
23094,-57.1428571428571,4,2,1,100,0,0
23410,-100,4,2,1,100,0,0
41726,-100,4,1,1,90,0,1
64462,-100,4,1,1,100,0,0
74252,-71.4285714285714,4,2,1,100,0,0
74568,-100,4,2,1,100,0,0
94462,-200,4,2,1,100,0,0
94778,-138.888888888889,4,1,1,80,0,0
105673,-69.4444444444444,4,1,1,80,0,0
106147,-100,4,1,1,90,0,1
128883,-100,4,1,1,90,0,0
131410,-156.25,4,1,1,90,0,0
137726,-156.25,4,1,1,90,0,0
138041,-138.888888888889,4,1,1,90,0,0
138357,-113.636363636364,4,1,1,90,0,0
138989,-100,4,1,1,90,0,0
139936,-100,4,1,1,90,0,0
142778,-100,4,1,1,90,0,0
149094,-100,4,2,0,70,0,0
150041,-200,4,2,0,70,0,0
150357,-89.2857142857143,4,1,1,90,0,1
170568,-100,4,1,1,90,0,0
170883,-100,4,1,1,90,0,1
171199,-100,4,1,1,90,0,0
171515,-100,4,1,1,90,0,1
171831,-100,4,1,1,90,0,0
172147,-100,4,1,1,90,0,1
172462,-100,4,1,1,90,0,0
172778,-100,4,1,1,90,0,1
173094,-100,4,1,1,90,0,0
173410,-100,4,1,1,90,0,1
173726,-100,4,1,1,90,0,0
175305,-100,4,1,1,90,0,1
175620,-100,4,1,1,80,0,0
180673,-100,4,1,1,80,0,0
183199,-100,4,1,1,90,0,0
195831,-100,4,1,1,90,0,0

[Colours]
Combo1 : 255,79,74
Combo2 : 15,255,15
Combo3 : 0,43,242
Combo4 : 255,40,255

[HitObjects]
176,224,989,2,0,P|256:280|344:224,1,210
261,183,1305,6,0,L|216:120,1,70
123,141,1462,2,0,P|112:172|90:204,1,70
180,284,1620,2,0,P|211:303|235:336,1,70
358,275,1778,2,0,P|321:262|292:243,1,70
261,183,1936,6,0,B|239:126|239:126|245:123|245:123|236:120|236:120|243:118|243:118|237:116|237:116|310:126|355:78,1,210
390,31,2252,2,0,P|374:60|346:85,1,70
276,96,2410,5,0,0:0:0:0:
206,84,2489,1,0,0:0:0:0:
150,41,2568,1,0,0:0:0:0:
180,283,2726,1,0,0:0:0:0:
241,250,2804,1,0,0:0:0:0:
261,183,2883,5,0,0:0:0:0:
68,75,3041,1,0,0:0:0:0:
413,136,3199,1,0,0:0:0:0:
69,201,3357,1,0,0:0:0:0:
433,247,3515,2,0,L|363:253,1,70
135,103,3673,2,0,L|146:173,1,70
197,296,3831,6,0,B|158:254|158:254|163:212|142:164,1,140
261,183,4147,2,0,B|265:199|266:216|266:216|309:254|371:254,1,140
454,216,4462,1,0,0:0:0:0:
197,296,4620,1,0,0:0:0:0:
146,173,4936,5,0,0:0:0:0:
134,103,5015,1,0,0:0:0:0:
171,43,5094,1,0,0:0:0:0:
447,119,5252,5,0,0:0:0:0:
414,145,5331,1,0,0:0:0:0:
376,163,5410,1,0,0:0:0:0:
336,147,5489,1,0,0:0:0:0:
286,176,5568,1,0,0:0:0:0:
251,150,5647,1,0,0:0:0:0:
215,127,5726,5,0,0:0:0:0:
302,223,5883,2,0,L|353:287,1,70
146,173,6041,2,0,L|65:161,1,70
447,119,6199,2,0,L|496:65,1,70
146,173,6357,6,0,B|105:228|105:228|113:267|93:300,2,140
257,61,6831,1,0,0:0:0:0:
347,188,6989,5,0,0:0:0:0:
303,223,7068,5,0,0:0:0:0:
326,267,7147,5,0,0:0:0:0:
300,308,7226,5,0,0:0:0:0:
321,357,7304,5,0,0:0:0:0:
257,61,7462,1,0,0:0:0:0:
146,173,7620,1,0,0:0:0:0:
113,214,7699,5,0,0:0:0:0:
150,246,7778,6,0,B|163:279|163:279|196:295,2,70
65,92,8094,1,0,0:0:0:0:
257,61,8252,6,0,P|327:78|406:64,2,140
150,246,8726,2,0,P|90:204|11:189,1,140
276,195,9041,5,0,0:0:0:0:
288,205,9120,1,0,0:0:0:0:
328,214,9199,1,0,0:0:0:0:
155,40,9357,5,0,0:0:0:0:
143,46,9436,1,0,0:0:0:0:
105,71,9515,1,0,0:0:0:0:
26,189,9673,1,0,0:0:0:0:
258,96,9831,1,0,0:0:0:0:
206,342,9989,1,0,0:0:0:0:
347,99,10147,5,0,0:0:0:0:
393,68,10226,1,0,0:0:0:0:
441,58,10305,1,0,0:0:0:0:
482,63,10383,1,0,0:0:0:0:
505,88,10462,5,0,0:0:0:0:
489,111,10541,1,0,0:0:0:0:
476,151,10620,1,0,0:0:0:0:
480,206,10699,1,0,0:0:0:0:
507,270,10778,6,0,B|510:301|491:333|491:333|441:331|428:277,1,140
375,203,11094,1,0,0:0:0:0:
185,119,11252,6,0,B|182:88|201:56|201:56|251:58|264:112,3,140
251,178,11883,5,0,0:0:0:0:
251,178,11962,1,0,0:0:0:0:
251,178,12041,6,0,P|243:249|207:311,1,140
102,216,12357,1,0,0:0:0:0:
61,81,12515,1,0,0:0:0:0:
403,140,12673,1,0,0:0:0:0:
355,271,12831,1,0,0:0:0:0:
17,169,12989,1,0,0:0:0:0:
450,229,13147,1,0,0:0:0:0:
251,178,13305,6,0,B|229:151|265:163|265:163|234:97|261:47,1,140
102,216,13620,5,0,0:0:0:0:
35,339,13778,1,0,0:0:0:0:
355,271,13936,1,0,0:0:0:0:
473,345,14094,1,0,0:0:0:0:
389,348,14252,1,0,0:0:0:0:
355,271,14410,1,0,0:0:0:0:
359,148,14568,6,0,B|337:187|337:187|391:182|422:219,1,140
389,348,14883,5,0,0:0:0:0:
251,319,15041,1,0,0:0:0:0:
183,195,15199,1,0,0:0:0:0:
230,63,15357,1,0,0:0:0:0:
107,229,15515,1,0,0:0:0:0:
230,63,15673,1,0,0:0:0:0:
27,228,15831,5,0,0:0:0:0:
289,131,15989,1,0,0:0:0:0:
474,340,16147,2,0,P|361:356|272:303,1,210
219,264,16462,5,0,2:0:0:0:
107,228,16620,1,0,2:0:0:0:
143,116,16778,1,0,2:0:0:0:
255,152,16936,1,0,2:0:0:0:
255,152,17015,5,0,0:0:0:0:
256,152,17094,1,0,0:0:0:0:
176,3,17252,1,0,0:0:0:0:
28,80,17410,1,0,0:0:0:0:
107,228,17568,1,0,0:0:0:0:
255,152,17726,6,0,B|305:173|351:161|351:161|382:113|444:95,1,210
465,168,18041,2,0,B|412:185|409:226|409:226|435:289|387:340,1,210
322,268,18357,5,0,0:0:0:0:
175,94,18515,1,0,0:0:0:0:
108,345,18673,1,0,0:0:0:0:
261,50,18831,1,0,0:0:0:0:
245,241,18989,5,0,0:0:0:0:
268,180,19068,1,0,0:0:0:0:
329,203,19147,1,0,0:0:0:0:
322,268,19226,1,0,0:0:0:0:
287,320,19305,1,0,0:0:0:0:
236,343,19383,1,0,0:0:0:0:
187,346,19462,1,0,0:0:0:0:
147,332,19541,1,0,0:0:0:0:
120,308,19620,2,0,B|105:294|96:275|96:275|95:251|77:229,1,83.9999974365235
205,230,19936,5,0,0:0:0:0:
169,151,20094,1,0,0:0:0:0:
467,184,20252,2,0,L|385:160,1,70
134,71,20410,1,0,0:0:0:0:
22,122,20568,2,0,L|104:145,1,70
355,235,20726,1,0,0:0:0:0:
450,338,20883,2,0,L|368:314,1,70
117,225,21041,1,0,0:0:0:0:
225,350,21199,2,0,L|284:288,1,70
361,109,21357,6,0,B|364:78|345:46|345:46|295:48|282:102,3,140
295,168,21989,5,0,0:0:0:0:
295,168,22068,1,0,0:0:0:0:
295,168,22147,6,0,P|303:239|263:311,1,140
160,216,22462,1,0,0:0:0:0:
179,77,22620,1,0,0:0:0:0:
135,239,22778,5,0,0:0:0:0:
166,45,22936,1,0,0:0:0:0:
103,261,23094,6,0,B|129:198|131:138|131:138|163:83|152:16|152:16|142:81|93:127,1,367.500003504753
43,168,23410,5,0,0:0:0:0:
249,28,23568,1,0,0:0:0:0:
171,336,23726,2,0,B|193:326|193:326|199:333|199:333|202:326|202:326|208:333|208:333|243:315|299:340|356:279,1,210
402,220,24041,5,0,0:0:0:0:
324,89,24199,1,0,0:0:0:0:
164,207,24357,1,0,0:0:0:0:
135,143,24436,1,0,0:0:0:0:
156,76,24515,1,0,0:0:0:0:
237,146,24673,5,0,0:0:0:0:
417,88,24831,1,0,0:0:0:0:
431,156,24910,1,0,0:0:0:0:
402,220,24989,6,0,L|367:284,1,70
315,213,25147,2,0,L|339:148,1,70
237,146,25305,2,0,L|213:70,1,70
168,228,25462,2,0,P|128:217|111:191,1,70
228,320,25620,2,0,P|197:311|165:326,1,70
322,315,25778,2,0,P|353:324|385:309,1,70
242,228,25936,2,0,P|169:242|100:240,1,140
274,231,26252,1,0,0:0:0:0:
167,229,26410,2,0,L|138:149,1,70
51,142,26568,5,0,0:0:0:0:
96,71,26726,1,0,0:0:0:0:
290,67,26883,1,0,0:0:0:0:
443,188,27041,1,0,0:0:0:0:
455,271,27199,5,0,0:0:0:0:
271,339,27357,1,0,0:0:0:0:
455,271,27515,1,0,0:0:0:0:
259,262,27673,1,0,0:0:0:0:
290,67,27831,5,0,0:0:0:0:
200,313,27989,1,0,0:0:0:0:
329,290,28147,1,0,0:0:0:0:
219,94,28305,1,0,0:0:0:0:
385,241,28462,5,0,0:0:0:0:
161,251,28620,1,0,0:0:0:0:
343,120,28778,1,0,0:0:0:0:
343,120,28936,1,0,0:0:0:0:
51,142,29094,5,0,0:0:0:0:
335,364,29252,1,0,0:0:0:0:
51,142,29410,1,0,0:0:0:0:
121,317,29568,1,0,0:0:0:0:
236,240,29726,5,0,0:0:0:0:
205,315,29883,1,0,0:0:0:0:
455,271,30041,1,0,0:0:0:0:
51,142,30199,1,0,0:0:0:0:
443,142,30357,5,0,0:0:0:0:
163,381,30515,1,0,0:0:0:0:
174,95,30673,1,0,0:0:0:0:
304,73,30831,1,0,0:0:0:0:
80,48,30989,5,0,0:0:0:0:
236,240,31147,6,0,L|274:262,2,35
333,191,31305,6,0,L|367:208,6,35
455,271,31620,5,0,0:0:0:0:
51,142,31778,5,0,0:0:0:0:
51,142,31857,2,0,B|52:176|52:176|77:246,1,105
335,371,32094,5,0,0:0:0:0:
335,371,32173,2,0,B|334:337|334:337|307:263,1,105
448,101,32410,5,0,0:0:0:0:
448,101,32489,2,0,B|447:135|447:135|428:182,1,70
134,347,32726,5,0,0:0:0:0:
134,347,32805,2,0,B|135:313|135:313|159:267,1,70
231,36,33041,5,0,0:0:0:0:
231,36,33120,2,0,B|210:81|210:81|188:104,1,70
337,210,33357,5,0,0:0:0:0:
337,210,33436,2,0,B|381:244|381:244|418:242,1,70
19,251,33673,5,0,0:0:0:0:
19,251,33752,1,0,0:0:0:0:
19,251,33831,2,0,B|49:283|49:283|54:246,1,70
448,101,33989,1,0,0:0:0:0:
448,101,34068,1,0,0:0:0:0:
448,101,34147,2,0,B|418:69|418:69|413:122,1,70
386,298,34305,5,0,0:0:0:0:
329,337,34383,2,0,P|281:331|255:293,1,70
102,199,34620,5,0,0:0:0:0:
152,150,34699,2,0,P|200:156|226:194,1,70
512,218,34936,5,0,0:0:0:0:
445,239,35015,2,0,P|405:211|400:165,1,70
0,35,35252,5,0,0:0:0:0:
63,66,35331,2,0,P|87:107|72:151,1,70
229,357,35568,5,0,0:0:0:0:
166,326,35647,2,0,P|155:278|182:241,1,70
279,32,35883,5,0,0:0:0:0:
330,80,35962,2,0,P|335:128|305:162,1,70
84,227,36199,1,0,0:0:0:0:
393,196,36357,1,0,0:0:0:0:
112,39,36515,1,0,0:0:0:0:
482,238,36673,1,0,0:0:0:0:
227,241,36831,6,0,L|205:197,4,35
31,153,37147,1,0,0:0:0:0:
295,122,37305,1,0,0:0:0:0:
168,345,37462,2,0,L|121:340,4,35
41,243,37778,5,0,0:0:0:0:
228,54,37936,1,0,0:0:0:0:
370,278,38094,2,0,L|330:317,1,35
258,62,38252,5,0,0:0:0:0:
400,286,38410,2,0,L|377:330,1,35
285,52,38568,5,0,0:0:0:0:
427,276,38726,2,0,L|425:325,1,35
305,30,38883,1,0,0:0:0:0:
491,236,39041,2,0,L|470:180,1,35
383,25,39199,5,0,0:0:0:0:
279,254,39357,1,0,0:0:0:0:
71,66,39515,1,0,0:0:0:0:
376,183,39673,1,0,0:0:0:0:
33,226,39831,5,0,0:0:0:0:
37,240,39910,1,0,0:0:0:0:
45,254,39989,1,0,0:0:0:0:
75,272,40068,1,0,0:0:0:0:
112,284,40147,1,0,0:0:0:0:
136,246,40226,1,0,0:0:0:0:
153,199,40305,1,0,0:0:0:0:
160,145,40383,1,0,0:0:0:0:
163,83,40462,6,0,B|207:182|343:195|340:80|368:55|436:85|494:140|449:247|449:247|367:251|323:317,1,560
384,302,41410,6,0,L|340:276,1,35
48,136,41726,5,0,0:0:0:0:
372,90,41883,1,0,0:0:0:0:
210,352,42041,1,0,0:0:0:0:
256,40,42199,1,0,0:0:0:0:
73,255,42357,2,0,B|61:209|140:205|140:136,1,140
258,157,42673,5,0,0:0:0:0:
366,202,42831,2,0,B|358:241|309:281|358:329,1,140
210,352,43147,2,0,P|205:258|258:157,1,210
320,112,43462,5,0,0:0:0:0:
140,140,43620,1,0,0:0:0:0:
392,135,43778,1,0,0:0:0:0:
65,214,43936,1,0,0:0:0:0:
469,281,44094,1,0,0:0:0:0:
24,98,44252,6,0,B|58:100|58:100|96:49|155:55,1,140
388,360,44568,2,0,B|336:297|369:229|369:229|341:192|296:211,1,210
248,254,44883,1,0,0:0:0:0:
213,288,44962,1,0,0:0:0:0:
170,311,45041,1,0,0:0:0:0:
480,182,45199,5,0,0:0:0:0:
152,232,45357,2,0,B|229:178|186:135|237:127|237:127|236:91|253:56,1,210
328,71,45673,2,0,B|286:142|354:181|354:181|359:213,1,140
129,61,45989,1,0,0:0:0:0:
403,113,46147,5,0,0:0:0:0:
419,125,46226,1,0,0:0:0:0:
444,137,46305,1,0,0:0:0:0:
478,139,46383,1,0,0:0:0:0:
480,182,46462,1,0,0:0:0:0:
465,228,46541,1,0,0:0:0:0:
432,273,46620,1,0,0:0:0:0:
376,302,46699,1,0,0:0:0:0:
307,317,46778,5,0,0:0:0:0:
145,271,46936,1,0,0:0:0:0:
50,99,47094,1,0,0:0:0:0:
244,210,47252,2,0,B|317:244|376:202|376:202|367:160|332:148,1,210
265,112,47568,5,0,0:0:0:0:
111,43,47726,1,0,0:0:0:0:
67,233,47883,1,0,0:0:0:0:
275,246,48041,1,0,0:0:0:0:
275,246,48120,2,0,B|318:259|348:227|348:227|359:180|332:157,1,140
285,121,48357,1,0,0:0:0:0:
113,148,48515,1,0,0:0:0:0:
148,339,48673,1,0,0:0:0:0:
301,325,48831,2,0,B|340:266|340:266|264:250|239:180,1,210
285,121,49147,2,0,P|355:128|418:83,1,140
230,68,49462,5,0,0:0:0:0:
230,68,49541,1,0,0:0:0:0:
230,68,49620,1,0,0:0:0:0:
186,128,49778,1,0,0:0:0:0:
70,231,49936,5,0,0:0:0:0:
68,189,50015,1,0,0:0:0:0:
55,148,50094,1,0,0:0:0:0:
119,303,50252,1,0,0:0:0:0:
168,301,50331,1,0,0:0:0:0:
213,320,50410,1,0,0:0:0:0:
186,128,50568,2,0,L|220:191,1,70
266,242,50726,5,0,0:0:0:0:
326,277,50805,1,0,0:0:0:0:
395,274,50883,1,0,0:0:0:0:
496,177,51041,5,0,0:0:0:0:
92,60,51199,1,0,0:0:0:0:
427,36,51357,1,0,0:0:0:0:
86,236,51515,2,0,B|118:276|118:276|194:301|279:232,1,210
320,185,51831,5,0,0:0:0:0:
217,89,51989,1,0,0:0:0:0:
190,255,52147,1,0,0:0:0:0:
328,78,52305,1,0,0:0:0:0:
414,342,52462,2,0,B|363:359|363:359|287:322|262:226,1,210
242,167,52778,5,0,0:0:0:0:
88,149,52936,1,0,0:0:0:0:
88,149,53015,1,0,0:0:0:0:
88,149,53094,1,0,0:0:0:0:
284,60,53252,5,0,0:0:0:0:
329,78,53331,1,0,0:0:0:0:
363,112,53410,1,0,0:0:0:0:
330,319,53568,1,0,0:0:0:0:
197,121,53726,1,0,0:0:0:0:
24,339,53883,1,0,0:0:0:0:
424,220,54041,5,0,0:0:0:0:
389,212,54120,1,0,0:0:0:0:
347,213,54199,1,0,0:0:0:0:
298,221,54278,1,0,0:0:0:0:
243,232,54357,2,0,B|203:237|203:237|159:223|105:235,1,140
288,138,54673,2,0,B|333:128|333:128|378:104|402:60,1,140
219,319,54989,2,0,B|177:315|171:356|140:359|140:359|87:367|120:342,1,140
368,346,55305,5,0,0:0:0:0:
204,155,55462,1,0,0:0:0:0:
166,122,55541,1,0,0:0:0:0:
118,110,55620,5,0,0:0:0:0:
120,208,55778,1,0,0:0:0:0:
174,40,55936,1,0,0:0:0:0:
21,273,56094,1,0,0:0:0:0:
323,90,56252,2,0,B|374:103|383:166|445:170,1,140
273,278,56568,2,0,B|235:290|211:352|159:355|159:355|196:322|191:279,1,210
182,218,56883,5,0,0:0:0:0:
118,110,57041,1,0,0:0:0:0:
323,90,57199,1,0,0:0:0:0:
341,327,57357,2,0,B|276:351|276:351|196:345|149:291,1,210
105,231,57673,5,0,0:0:0:0:
198,108,57831,1,0,0:0:0:0:
367,206,57989,1,0,0:0:0:0:
118,110,58147,2,0,L|38:87,1,70
455,268,58383,2,0,L|459:348,1,70
410,77,58620,2,0,L|489:72,1,70
339,91,58778,5,0,0:0:0:0:
250,199,58936,1,0,0:0:0:0:
362,323,59094,1,0,0:0:0:0:
142,278,59252,2,0,L|150:202,1,70
66,37,59410,6,0,L|137:51,1,70
207,66,59568,5,0,0:0:0:0:
442,134,59726,1,0,0:0:0:0:
131,133,59883,1,0,0:0:0:0:
417,256,60041,1,0,0:0:0:0:
274,343,60199,1,0,0:0:0:0:
327,35,60357,1,0,0:0:0:0:
142,278,60515,6,0,B|165:238|165:238|208:250|247:238|247:238|276:207|260:142,1,210
228,92,60831,5,0,0:0:0:0:
336,284,60989,1,0,0:0:0:0:
81,209,61147,1,0,0:0:0:0:
53,168,61226,1,0,0:0:0:0:
51,119,61305,1,0,0:0:0:0:
76,77,61383,1,0,0:0:0:0:
122,58,61462,1,0,0:0:0:0:
178,56,61541,1,0,0:0:0:0:
228,92,61620,6,0,L|283:139,1,70
239,243,61778,2,0,L|205:165,1,70
359,188,61936,2,0,L|403:103,1,70
142,146,62252,1,0,0:0:0:0:
359,188,62568,1,0,0:0:0:0:
356,326,62726,1,0,0:0:0:0:
340,47,62883,1,0,0:0:0:0:
242,309,63041,1,0,0:0:0:0:
463,137,63199,6,0,L|430:111,1,35
425,160,63357,2,0,L|387:157,1,35
396,198,63515,2,0,L|363:213,1,35
384,240,63594,5,0,0:0:0:0:
400,264,63673,1,0,0:0:0:0:
376,280,63752,1,0,0:0:0:0:
392,304,63831,1,0,0:0:0:0:
116,157,64147,6,0,B|152:178|189:180|189:180|172:213|131:210,1,140
296,192,64462,6,0,P|282:224|252:256,1,70
179,297,64620,2,0,P|146:305|107:302,1,70
45,234,64778,2,0,P|37:202|14:160,1,70
54,70,64936,2,0,P|92:67|131:55,1,70
235,50,65094,2,0,B|289:115|339:100|339:100|397:86|424:124,1,210
464,182,65410,5,0,0:0:0:0:
265,113,65568,1,0,0:0:0:0:
242,179,65647,1,0,0:0:0:0:
192,228,65726,1,0,0:0:0:0:
347,243,65883,1,0,0:0:0:0:
395,192,65962,1,0,0:0:0:0:
464,182,66041,5,0,0:0:0:0:
309,302,66199,1,0,0:0:0:0:
123,239,66357,1,0,0:0:0:0:
366,99,66515,1,0,0:0:0:0:
200,325,66673,1,0,0:0:0:0:
91,66,66831,1,0,0:0:0:0:
366,99,66989,6,0,B|338:105|320:129|320:129|240:171|172:120,1,210
100,146,67305,2,0,P|107:213|161:269,1,140
91,66,67620,5,0,0:0:0:0:
154,265,67778,2,0,B|196:281|243:267|243:267|302:276,1,140
441,314,68094,5,0,0:0:0:0:
474,252,68173,1,0,0:0:0:0:
457,183,68252,1,0,0:0:0:0:
366,99,68410,1,0,0:0:0:0:
323,135,68489,1,0,0:0:0:0:
273,134,68568,1,0,0:0:0:0:
238,99,68647,1,0,0:0:0:0:
191,113,68726,1,0,0:0:0:0:
150,101,68805,1,0,0:0:0:0:
111,116,68883,5,0,0:0:0:0:
220,202,69041,1,0,0:0:0:0:
38,333,69199,1,0,0:0:0:0:
377,345,69357,1,0,0:0:0:0:
155,265,69515,6,0,B|140:235|112:218|112:218|40:219|74:178,2,140
145,341,69989,5,0,0:0:0:0:
220,202,70147,1,0,0:0:0:0:
258,242,70226,1,0,0:0:0:0:
313,232,70305,1,0,0:0:0:0:
346,266,70383,1,0,0:0:0:0:
388,266,70462,1,0,0:0:0:0:
331,316,70620,5,0,0:0:0:0:
273,134,70778,1,0,0:0:0:0:
234,84,70857,1,0,0:0:0:0:
177,55,70936,1,0,0:0:0:0:
132,75,71015,1,0,0:0:0:0:
99,111,71094,6,0,L|47:167,1,70
67,270,71252,2,0,L|111:201,1,70
178,145,71410,2,0,L|178:220,1,70
137,305,71568,2,0,P|211:316|278:337,1,140
431,198,71883,5,0,0:0:0:0:
338,87,72199,5,0,0:0:0:0:
361,153,72278,1,0,0:0:0:0:
414,199,72357,1,0,0:0:0:0:
178,145,72515,5,0,0:0:0:0:
221,201,72594,1,0,0:0:0:0:
285,228,72673,1,0,0:0:0:0:
414,199,72831,5,0,0:0:0:0:
178,145,72989,1,0,0:0:0:0:
353,326,73147,1,0,0:0:0:0:
237,70,73305,1,0,0:0:0:0:
212,56,73383,1,0,0:0:0:0:
184,52,73462,1,0,0:0:0:0:
149,54,73541,1,0,0:0:0:0:
117,68,73620,1,0,0:0:0:0:
90,100,73699,1,0,0:0:0:0:
76,139,73778,1,0,0:0:0:0:
76,188,73857,1,0,0:0:0:0:
50,234,73936,6,0,L|90:301,1,70
85,294,74252,6,0,B|126:356|202:277|282:311,1,195.999994018555
462,352,74568,5,0,0:0:0:0:
401,165,74726,1,0,0:0:0:0:
270,306,74883,1,0,0:0:0:0:
401,165,75041,5,0,0:0:0:0:
388,117,75120,1,0,0:0:0:0:
375,69,75199,1,0,0:0:0:0:
188,130,75357,5,0,0:0:0:0:
270,307,75515,1,0,0:0:0:0:
213,80,75673,2,0,L|240:151,1,70
245,348,75831,2,0,L|218:276,1,70
186,210,75989,1,0,0:0:0:0:
271,221,76147,2,0,L|347:229,2,70
48,195,76462,1,0,0:0:0:0:
213,80,76620,2,0,L|290:90,1,70
359,99,76778,5,0,0:0:0:0:
113,234,76936,1,0,0:0:0:0:
386,292,77094,1,0,0:0:0:0:
146,146,77252,1,0,0:0:0:0:
173,152,77331,1,0,0:0:0:0:
197,194,77410,1,0,0:0:0:0:
260,318,77568,1,0,0:0:0:0:
285,275,77647,1,0,0:0:0:0:
334,235,77726,5,0,0:0:0:0:
496,196,77883,1,0,0:0:0:0:
359,99,78041,1,0,0:0:0:0:
192,75,78199,1,0,0:0:0:0:
162,93,78278,1,0,0:0:0:0:
107,104,78357,5,0,0:0:0:0:
45,260,78515,1,0,0:0:0:0:
107,104,78673,2,0,L|115:182,1,70
99,328,78831,2,0,L|131:254,1,70
191,137,78989,2,0,L|196:212,1,70
260,318,79147,2,0,L|287:246,1,70
325,151,79305,6,0,B|356:141|356:141|358:133|358:133|363:139|363:139|363:129|363:129|369:135|369:135|369:126|369:126|374:131|374:131|394:104|419:102|419:102|410:149|444:188,1,210
476,232,79620,5,0,0:0:0:0:
414,325,79778,1,0,0:0:0:0:
323,258,79936,1,0,0:0:0:0:
476,232,80094,1,0,0:0:0:0:
422,216,80173,1,0,0:0:0:0:
366,223,80252,5,0,0:0:0:0:
172,257,80410,1,0,0:0:0:0:
249,76,80568,1,0,0:0:0:0:
172,257,80726,1,0,0:0:0:0:
121,232,80805,1,0,0:0:0:0:
87,187,80883,5,0,0:0:0:0:
282,169,81041,1,0,0:0:0:0:
191,343,81199,1,0,0:0:0:0:
106,319,81357,1,0,0:0:0:0:
153,42,81515,5,0,0:0:0:0:
366,223,81673,1,0,0:0:0:0:
256,284,81831,1,0,0:0:0:0:
58,80,81989,1,0,0:0:0:0:
153,42,82147,5,0,0:0:0:0:
249,76,82305,1,0,0:0:0:0:
106,319,82462,1,0,0:0:0:0:
282,169,82620,2,0,L|212:175,1,70
348,96,82778,2,0,L|419:90,1,70
77,168,82936,1,0,0:0:0:0:
366,223,83094,1,0,0:0:0:0:
144,238,83252,1,0,0:0:0:0:
144,238,83331,1,0,0:0:0:0:
144,238,83410,5,0,0:0:0:0:
437,172,83568,1,0,0:0:0:0:
261,331,83726,2,0,L|318:275,1,70
366,223,83883,1,0,0:0:0:0:
273,82,84041,1,0,0:0:0:0:
104,76,84199,1,0,0:0:0:0:
144,238,84357,6,0,B|138:280|106:294|106:294|63:287|47:249,1,140
77,168,84673,1,0,0:0:0:0:
242,243,84831,1,0,0:0:0:0:
162,145,84989,1,0,0:0:0:0:
362,83,85147,1,0,0:0:0:0:
362,83,85226,1,0,0:0:0:0:
362,83,85305,5,0,0:0:0:0:
256,151,85462,1,0,0:0:0:0:
425,318,85620,1,0,0:0:0:0:
456,53,85778,2,0,L|441:123,1,70
357,237,85936,6,0,L|370:167,1,70
304,294,86094,2,0,L|244:341,1,70
108,313,86252,2,0,L|175:340,1,70
260,227,86410,1,0,0:0:0:0:
60,125,86568,5,0,0:0:0:0:
60,125,86647,1,0,0:0:0:0:
60,125,86726,1,0,0:0:0:0:
268,45,86883,1,0,0:0:0:0:
54,226,87041,1,0,0:0:0:0:
319,137,87199,1,0,0:0:0:0:
172,97,87357,5,0,0:0:0:0:
168,173,87436,1,0,0:0:0:0:
161,249,87515,1,0,0:0:0:0:
348,140,87673,5,0,0:0:0:0:
360,144,87752,1,0,0:0:0:0:
377,144,87831,1,0,0:0:0:0:
389,297,87989,5,0,0:0:0:0:
364,60,88147,1,0,0:0:0:0:
271,279,88305,1,0,0:0:0:0:
253,308,88383,1,0,0:0:0:0:
209,331,88462,1,0,0:0:0:0:
45,178,88620,6,0,B|26:146|35:115|35:115|69:95|109:111,3,140
286,88,89252,5,0,0:0:0:0:
324,70,89331,1,0,0:0:0:0:
364,60,89410,2,0,B|389:61|389:61|436:109|434:167,1,140
303,217,89726,5,0,0:0:0:0:
166,188,89883,1,0,0:0:0:0:
282,346,90041,1,0,0:0:0:0:
182,84,90199,1,0,0:0:0:0:
182,84,90278,1,0,0:0:0:0:
182,84,90357,6,0,L|103:65,1,70
26,127,90515,2,0,L|94:145,1,70
75,249,90673,2,0,L|51:315,1,70
151,279,90831,2,0,L|125:344,2,70
214,122,91147,1,0,0:0:0:0:
266,281,91305,1,0,0:0:0:0:
320,122,91462,6,0,L|391:122,1,70
327,185,91620,2,0,L|386:146,1,70
368,232,91778,2,0,L|396:167,1,70
414,123,91936,2,0,B|425:105|425:105|381:49|324:44|324:44|325:54|325:54|282:65|256:44,1,210
192,38,92252,5,0,0:0:0:0:
320,346,92410,1,0,0:0:0:0:
214,122,92568,2,0,L|184:199,1,70
266,281,92726,2,0,L|296:204,2,70
189,187,93041,2,0,L|159:264,1,70
256,192,93199,12,0,94068,0:0:0:0:
189,187,94147,5,0,0:0:0:0:
240,120,94305,1,0,0:0:0:0:
292,214,94462,2,0,L|327:282,1,70
97,218,94778,2,0,B|70:260|70:260|125:253,2,100.800002460938
120,253,95252,6,0,L|169:278,1,50.4000012304688
165,276,95410,2,0,B|216:297|279:302|219:298,1,100.800002460938
240,120,95726,5,0,0:0:0:0:
312,77,95883,1,0,0:0:0:0:
378,124,96041,1,0,0:0:0:0:
348,117,96120,1,0,0:0:0:0:
357,144,96199,2,0,L|371:194,1,50.4000012304688
382,222,96357,1,0,0:0:0:0:
299,217,96515,6,0,L|372:223,1,50.4000012304688
330,261,96673,2,0,B|377:233|377:233|404:231|416:186|390:212,1,100.800002460938
198,194,96989,5,0,0:0:0:0:
240,120,97147,1,0,0:0:0:0:
163,87,97305,2,0,B|109:80|109:80|75:65|50:66,1,100.800002460938
152,116,97620,5,0,0:0:0:0:
36,95,97778,1,0,0:0:0:0:
154,149,97936,1,0,0:0:0:0:
10,163,98094,1,0,0:0:0:0:
171,177,98252,1,0,0:0:0:0:
25,249,98410,1,0,0:0:0:0:
156,328,98568,1,0,0:0:0:0:
316,282,98726,5,0,0:0:0:0:
324,271,98805,1,0,0:0:0:0:
330,262,98883,1,0,0:0:0:0:
246,226,99041,5,0,0:0:0:0:
251,215,99120,1,0,0:0:0:0:
254,203,99199,2,0,P|257:156|238:104,1,100.800002460938
347,116,99515,2,0,B|383:64|424:52|424:52|449:80|449:104,1,151.200003691406
451,124,99831,5,0,0:0:0:0:
409,193,99989,1,0,0:0:0:0:
438,268,100147,1,0,0:0:0:0:
323,228,100305,1,0,0:0:0:0:
225,298,100462,1,0,0:0:0:0:
157,253,100620,1,0,0:0:0:0:
82,285,100778,2,0,B|50:254|50:254|32:219|32:158|46:137,1,151.200003691406
54,122,101094,5,0,0:0:0:0:
125,177,101252,1,0,0:0:0:0:
134,172,101331,1,0,0:0:0:0:
141,165,101410,1,0,0:0:0:0:
181,86,101568,2,0,L|225:55,1,50.4000012304688
212,103,101726,2,0,L|336:119,2,100.800002460938
227,131,102199,6,0,L|241:184,1,50.4000012304688
254,207,102357,2,0,B|302:202|302:202|339:189|354:189,1,100.800002460938
263,238,102673,5,0,0:0:0:0:
406,238,102831,1,0,0:0:0:0:
260,268,102989,5,0,0:0:0:0:
247,276,103068,1,0,0:0:0:0:
233,283,103147,1,0,0:0:0:0:
203,277,103226,1,0,0:0:0:0:
173,272,103305,1,0,0:0:0:0:
141,287,103383,1,0,0:0:0:0:
110,304,103462,1,0,0:0:0:0:
80,323,103541,1,0,0:0:0:0:
70,288,103620,6,0,L|39:227,1,50.4000012304688
157,61,103936,2,0,L|178:106,2,50.4000012304688
272,143,104252,2,0,L|299:97,1,50.4000012304688
413,277,104568,1,0,0:0:0:0:
437,137,104726,1,0,0:0:0:0:
405,273,104883,5,0,0:0:0:0:
264,290,105041,1,0,0:0:0:0:
402,262,105199,5,0,0:0:0:0:
403,248,105357,1,0,0:0:0:0:
390,244,105515,1,0,0:0:0:0:
371,224,105673,6,0,B|342:216|342:216|344:229|344:229|335:217|335:217|337:231|337:231|328:216|328:216|333:237|333:237|324:221|324:221|326:234|326:234|318:227|318:227|315:237|315:237|308:230|308:230|310:243|310:243|297:225|297:225|301:250|301:250|285:244|285:244|278:257|278:257|183:266|143:208,1,403.20000984375
39,38,106147,5,0,0:0:0:0:
81,286,106305,1,0,0:0:0:0:
182,56,106462,1,0,0:0:0:0:
371,224,106620,1,0,0:0:0:0:
120,193,106778,2,0,B|95:187|95:187|161:187|212:172|264:118,1,210
315,65,107094,5,0,0:0:0:0:
280,215,107252,2,0,B|275:240|275:240|301:179|335:138|405:111,1,210
474,85,107568,2,0,B|501:76|501:76|518:187|444:242,1,210
382,281,107883,5,0,0:0:0:0:
162,324,108041,1,0,0:0:0:0:
135,101,108199,1,0,0:0:0:0:
309,320,108357,1,0,0:0:0:0:
214,56,108515,1,0,0:0:0:0:
72,297,108673,6,0,B|89:248|131:232|131:232|160:171,1,140
464,171,108989,2,0,P|397:133|386:70,1,140
48,115,109305,2,0,P|75:164|152:187,1,140
356,119,109620,1,0,0:0:0:0:
309,320,109778,2,0,P|255:252|285:136,1,210
332,80,110094,6,0,B|401:157|346:255|239:244|239:244|224:198|183:166,1,350
137,94,110568,2,0,L|125:19,1,70
48,115,110726,2,0,L|14:182,1,70
84,214,110883,5,0,0:0:0:0:
102,251,110962,1,0,0:0:0:0:
130,282,111041,1,0,0:0:0:0:
172,309,111120,1,0,0:0:0:0:
221,321,111199,5,0,0:0:0:0:
408,262,111357,1,0,0:0:0:0:
332,80,111515,1,0,0:0:0:0:
180,151,111673,6,0,L|135:92,2,70
270,258,111989,5,0,0:0:0:0:
355,185,112147,1,0,0:0:0:0:
281,144,112305,1,0,0:0:0:0:
176,235,112462,1,0,0:0:0:0:
342,338,112620,1,0,0:0:0:0:
444,107,112778,1,0,0:0:0:0:
141,30,112936,1,0,0:0:0:0:
355,185,113094,6,0,B|295:191|274:129|274:129|240:89|201:71|83:148|200:262,1,350
197,254,113568,1,0,0:0:0:0:
215,275,113647,1,0,0:0:0:0:
231,297,113726,2,0,P|240:324|215:353,1,70
179,347,113883,6,0,L|99:324,1,70
312,320,114041,2,0,L|383:289,1,70
64,246,114199,5,0,0:0:0:0:
442,217,114357,1,0,0:0:0:0:
367,112,114515,1,0,0:0:0:0:
186,78,114673,1,0,0:0:0:0:
64,246,114831,1,0,0:0:0:0:
345,206,114989,1,0,0:0:0:0:
45,81,115147,5,0,0:0:0:0:
45,81,115226,1,0,0:0:0:0:
45,81,115305,1,0,0:0:0:0:
140,323,115462,1,0,0:0:0:0:
140,323,115541,1,0,0:0:0:0:
140,323,115620,1,0,0:0:0:0:
156,309,115699,5,0,0:0:0:0:
173,287,115778,1,0,0:0:0:0:
188,255,115857,1,0,0:0:0:0:
190,213,115936,1,0,0:0:0:0:
169,168,116015,1,0,0:0:0:0:
113,161,116094,1,0,0:0:0:0:
65,190,116173,1,0,0:0:0:0:
64,246,116252,5,0,0:0:0:0:
159,74,116410,1,0,0:0:0:0:
312,195,116568,1,0,0:0:0:0:
349,220,116647,1,0,0:0:0:0:
397,227,116726,1,0,0:0:0:0:
481,61,116883,1,0,0:0:0:0:
345,327,117041,1,0,0:0:0:0:
64,246,117199,1,0,0:0:0:0:
159,74,117357,6,0,P|225:87|302:80,1,140
323,72,117594,1,0,0:0:0:0:
347,59,117673,1,0,0:0:0:0:
271,176,117831,1,0,0:0:0:0:
372,309,117989,1,0,0:0:0:0:
178,276,118147,1,0,0:0:0:0:
364,151,118305,1,0,0:0:0:0:
116,189,118462,1,0,0:0:0:0:
397,227,118620,1,0,0:0:0:0:
76,107,118778,5,0,0:0:0:0:
76,107,118857,1,0,0:0:0:0:
76,107,118936,1,0,0:0:0:0:
91,271,119094,1,0,0:0:0:0:
78,296,119173,1,0,0:0:0:0:
82,337,119252,1,0,0:0:0:0:
236,335,119410,1,0,0:0:0:0:
269,324,119489,1,0,0:0:0:0:
298,276,119568,1,0,0:0:0:0:
283,108,119726,5,0,0:0:0:0:
397,227,119883,2,0,B|382:176|382:176|388:133|419:76,1,140
140,175,120199,6,0,L|106:243,1,70
306,174,120357,2,0,L|282:103,1,70
186,256,120515,2,0,L|251:293,1,70
202,107,120673,2,0,L|133:88,1,70
322,260,120831,5,0,0:0:0:0:
340,269,120910,1,0,0:0:0:0:
354,280,120989,5,0,0:0:0:0:
61,139,121147,1,0,0:0:0:0:
402,74,121305,1,0,0:0:0:0:
134,88,121462,1,0,0:0:0:0:
68,298,121620,1,0,0:0:0:0:
298,338,121778,6,0,B|265:319|265:319|233:275|174:250,1,140
61,139,122094,1,0,0:0:0:0:
402,74,122252,1,0,0:0:0:0:
185,167,122410,1,0,0:0:0:0:
274,79,122568,1,0,0:0:0:0:
301,200,122726,1,0,0:0:0:0:
322,314,122883,6,0,P|283:314|298:286,1,70
190,314,123041,2,0,P|229:314|214:286,1,70
285,295,123199,2,0,L|289:149,2,140
227,295,123673,2,0,B|218:155|218:155|178:148|156:113,1,210
112,57,123989,5,0,0:0:0:0:
106,239,124147,1,0,0:0:0:0:
237,57,124305,1,0,0:0:0:0:
399,209,124462,1,0,0:0:0:0:
399,209,124540,1,0,0:0:0:0:
399,209,124619,1,0,0:0:0:0:
311,80,124778,6,0,L|387:67,1,70
351,148,124936,2,0,B|328:195|280:219|280:219|236:217|211:202|178:158,1,210
143,106,125252,1,0,0:0:0:0:
106,239,125410,5,0,0:0:0:0:
92,286,125489,1,0,0:0:0:0:
89,328,125568,5,0,0:0:0:0:
128,298,125647,1,0,0:0:0:0:
164,315,125726,5,0,0:0:0:0:
212,313,125805,1,0,0:0:0:0:
244,280,125883,5,0,0:0:0:0:
287,301,125962,1,0,0:0:0:0:
337,324,126041,5,0,0:0:0:0:
321,270,126120,1,0,0:0:0:0:
360,233,126199,5,0,0:0:0:0:
360,177,126278,1,0,0:0:0:0:
415,129,126357,1,0,0:0:0:0:
325,61,126673,1,0,0:0:0:0:
213,54,126989,5,0,0:0:0:0:
113,105,127147,1,0,0:0:0:0:
88,214,127305,5,0,0:0:0:0:
147,308,127462,1,0,0:0:0:0:
314,299,127620,5,0,0:0:0:0:
247,206,127778,1,0,0:0:0:0:
356,186,127936,5,0,0:0:0:0:
416,166,128015,1,0,0:0:0:0:
431,104,128094,1,0,0:0:0:0:
389,56,128173,1,0,0:0:0:0:
326,61,128252,1,0,0:0:0:0:
88,214,128568,6,0,B|132:227|132:227|101:234,1,70
254,192,128883,5,0,0:0:0:0:
32,46,129041,1,0,0:0:0:0:
196,264,129199,1,0,0:0:0:0:
210,245,129278,2,0,L|259:186,1,70
91,121,129515,1,0,0:0:0:0:
110,115,129594,2,0,L|246:80,1,140
326,60,129831,5,0,0:0:0:0:
455,197,129989,1,0,0:0:0:0:
90,289,130147,1,0,0:0:0:0:
292,341,130305,6,0,L|303:263,1,70,0|0,0:0|0:0,0:0:0:0:
370,259,130462,5,0,0:0:0:0:
384,234,130541,1,0,0:0:0:0:
384,205,130620,1,0,0:0:0:0:
386,170,130699,1,0,0:0:0:0:
411,136,130778,1,0,0:0:0:0:
362,134,130857,1,0,0:0:0:0:
306,129,130936,1,0,0:0:0:0:
250,120,131015,1,0,0:0:0:0:
194,110,131094,6,0,L|120:99,2,70
290,261,131331,6,0,L|285:217,1,35
148,203,131726,6,0,L|199:182,2,44.8
124,99,132041,5,0,0:0:0:0:
101,126,132120,1,0,0:0:0:0:
80,153,132198,2,0,L|51:191,1,44.8
22,222,132357,6,0,L|54:267,1,44.8
90,273,132515,2,0,L|75:318,1,44.8
121,313,132673,2,0,L|176:284,1,44.8
177,313,132831,5,0,0:0:0:0:
203,316,132910,1,0,0:0:0:0:
229,316,132989,1,0,0:0:0:0:
255,310,133068,1,0,0:0:0:0:
279,299,133147,1,0,0:0:0:0:
301,283,133226,1,0,0:0:0:0:
321,265,133305,1,0,0:0:0:0:
338,244,133383,1,0,0:0:0:0:
351,220,133462,1,0,0:0:0:0:
357,193,133541,1,0,0:0:0:0:
361,166,133620,6,0,L|367:111,3,44.8
323,137,133936,2,0,L|260:136,1,44.8
247,103,134094,6,0,L|223:51,1,44.8
231,144,134252,2,0,L|200:189,1,44.8
209,108,134410,5,0,0:0:0:0:
187,112,134489,1,0,0:0:0:0:
164,110,134568,1,0,0:0:0:0:
143,101,134647,1,0,0:0:0:0:
123,89,134726,1,0,0:0:0:0:
100,86,134805,1,0,0:0:0:0:
78,92,134883,1,0,0:0:0:0:
60,106,134962,1,0,0:0:0:0:
55,127,135041,1,0,0:0:0:0:
62,154,135120,1,0,0:0:0:0:
66,177,135199,6,0,L|47:229,1,44.8
85,248,135357,2,0,L|110:288,1,44.8
144,257,135515,2,0,L|201:236,1,44.8
211,278,135673,5,0,0:0:0:0:
227,284,135752,1,0,0:0:0:0:
244,288,135831,1,0,0:0:0:0:
261,288,135910,1,0,0:0:0:0:
278,286,135989,1,0,0:0:0:0:
295,281,136068,1,0,0:0:0:0:
315,271,136147,5,0,0:0:0:0:
385,282,136305,1,0,0:0:0:0:
376,178,136462,1,0,0:0:0:0:
445,194,136620,1,0,0:0:0:0:
427,80,136778,1,0,0:0:0:0:
358,58,136936,1,0,0:0:0:0:
241,107,137094,5,0,0:0:0:0:
253,130,137173,1,0,0:0:0:0:
258,156,137252,1,0,0:0:0:0:
249,181,137331,1,0,0:0:0:0:
229,200,137410,1,0,0:0:0:0:
203,209,137489,1,0,0:0:0:0:
176,206,137568,1,0,0:0:0:0:
151,193,137647,1,0,0:0:0:0:
135,171,137726,6,0,L|103:122,1,44.8
146,106,137883,2,0,L|167:55,1,44.8
112,67,138041,2,0,L|54:48,1,50.4000012304688
42,97,138199,2,0,L|-7:147,1,50.4000012304688
42,168,138357,5,0,0:0:0:0:
52,216,138436,1,0,0:0:0:0:
76,258,138515,2,0,L|125:315,1,61.6000018798829
162,287,138673,1,0,0:0:0:0:
222,297,138752,1,0,0:0:0:0:
283,304,138831,6,0,L|360:310,1,61.6000018798829
457,234,138989,2,0,L|386:229,1,70
255,201,139147,2,0,L|315:164,1,70
437,109,139305,1,0,0:0:0:0:
383,65,139383,1,0,0:0:0:0:
313,60,139462,6,0,L|240:73,1,70
112,67,139620,2,0,L|155:122,1,70
132,215,139778,2,0,L|75:259,1,70
222,297,139936,5,0,0:0:0:0:
239,337,140015,1,0,0:0:0:0:
283,346,140094,1,0,0:0:0:0:
309,309,140173,1,0,0:0:0:0:
283,302,140252,2,0,L|286:218,1,70
210,120,140410,1,0,0:0:0:0:
341,169,140568,5,0,0:0:0:0:
360,188,140647,1,0,0:0:0:0:
385,197,140726,1,0,0:0:0:0:
419,190,140805,1,0,0:0:0:0:
443,165,140883,1,0,0:0:0:0:
447,123,140962,1,0,0:0:0:0:
429,84,141041,1,0,0:0:0:0:
391,64,141120,1,0,0:0:0:0:
349,68,141199,1,0,0:0:0:0:
301,80,141278,1,0,0:0:0:0:
256,101,141357,1,0,0:0:0:0:
210,120,141436,1,0,0:0:0:0:
161,118,141515,6,0,L|90:79,2,70
375,300,141831,2,0,L|444:282,2,70
100,236,142147,2,0,L|49:292,2,70
349,68,142462,2,0,L|389:9,2,70
210,313,142778,2,0,L|195:382,2,70
175,33,143094,5,0,0:0:0:0:
169,45,143173,1,0,0:0:0:0:
166,65,143252,1,0,0:0:0:0:
172,92,143331,1,0,0:0:0:0:
191,120,143410,1,0,0:0:0:0:
227,141,143489,1,0,0:0:0:0:
280,156,143568,1,0,0:0:0:0:
330,179,143647,1,0,0:0:0:0:
359,226,143726,1,0,0:0:0:0:
355,281,143805,1,0,0:0:0:0:
317,322,143883,1,0,0:0:0:0:
262,335,143962,1,0,0:0:0:0:
210,313,144041,6,0,L|136:299,3,70
139,342,144357,6,0,L|94:264,1,70
81,245,144515,5,0,0:0:0:0:
72,203,144594,1,0,0:0:0:0:
84,162,144673,1,0,0:0:0:0:
116,135,144752,1,0,0:0:0:0:
156,123,144831,1,0,0:0:0:0:
191,123,144910,1,0,0:0:0:0:
222,137,144989,1,0,0:0:0:0:
244,153,145068,1,0,0:0:0:0:
260,170,145147,6,0,L|329:183,2,70
321,83,145462,6,0,L|385:25,1,70
333,51,145620,5,0,0:0:0:0:
312,53,145699,1,0,0:0:0:0:
284,56,145778,1,0,0:0:0:0:
248,56,145857,1,0,0:0:0:0:
206,51,145936,1,0,0:0:0:0:
159,36,146015,1,0,0:0:0:0:
109,37,146094,1,0,0:0:0:0:
71,68,146173,1,0,0:0:0:0:
58,115,146252,1,0,0:0:0:0:
71,162,146331,1,0,0:0:0:0:
102,208,146410,1,0,0:0:0:0:
115,262,146489,1,0,0:0:0:0:
91,312,146568,6,0,L|23:347,2,70
269,229,146883,5,0,0:0:0:0:
439,132,147041,5,0,0:0:0:0:
451,125,147120,1,0,0:0:0:0:
463,130,147199,1,0,0:0:0:0:
471,149,147278,1,0,0:0:0:0:
463,168,147357,1,0,0:0:0:0:
440,184,147436,1,0,0:0:0:0:
405,188,147515,1,0,0:0:0:0:
365,174,147594,1,0,0:0:0:0:
328,141,147673,1,0,0:0:0:0:
294,104,147752,1,0,0:0:0:0:
260,59,147831,6,0,L|222:-3,2,70
315,157,148147,5,0,0:0:0:0:
321,212,148226,1,0,0:0:0:0:
306,266,148305,1,0,0:0:0:0:
267,306,148383,1,0,0:0:0:0:
213,321,148462,1,0,0:0:0:0:
157,316,148541,1,0,0:0:0:0:
111,283,148620,1,0,0:0:0:0:
84,233,148699,1,0,0:0:0:0:
86,177,148778,1,0,0:0:0:0:
120,132,148857,1,0,0:0:0:0:
173,116,148936,1,0,0:0:0:0:
221,144,149015,1,0,0:0:0:0:
230,199,149094,6,0,L|193:224,1,35
279,76,149252,5,0,0:0:0:0:
352,98,149331,1,0,0:0:0:0:
424,122,149410,1,0,0:0:0:0:
210,49,149568,5,0,0:0:0:0:
494,146,149726,1,0,0:0:0:0:
137,22,149883,1,0,0:0:0:0:
433,194,150041,6,0,B|429:236|429:236|412:270|381:287,1,105
241,343,150357,5,0,0:0:0:0:
39,145,150515,1,0,0:0:0:0:
413,40,150673,1,0,0:0:0:0:
95,298,150831,1,0,0:0:0:0:
433,194,150989,2,0,P|343:184|288:149,1,156.800001914063
13,303,151305,1,0,0:0:0:0:
258,37,151462,2,0,P|213:101|143:138,1,156.800001914063
319,273,151778,6,0,P|402:286|471:331,1,156.800001914063
244,294,152094,1,0,0:0:0:0:
287,143,152252,1,0,0:0:0:0:
122,235,152410,1,0,0:0:0:0:
368,186,152568,5,0,0:0:0:0:
368,186,152647,1,0,0:0:0:0:
368,186,152726,1,0,0:0:0:0:
54,170,152883,6,0,B|27:156|25:133|25:133|61:113|112:53,1,156.800001914063
372,66,153199,2,0,B|386:39|409:36|409:36|466:46|503:119,1,156.800001914063
179,127,153515,1,0,0:0:0:0:
210,91,153594,1,0,0:0:0:0:
255,80,153673,1,0,0:0:0:0:
302,91,153752,1,0,0:0:0:0:
333,127,153831,5,0,0:0:0:0:
119,267,153989,2,0,B|164:207|164:207|166:167|179:127,1,156.800001914063
333,127,154305,2,0,B|346:167|348:207|348:207|398:274,1,156.800001914063
256,144,154620,1,0,0:0:0:0:
256,176,154699,1,0,0:0:0:0:
256,208,154778,5,0,0:0:0:0:
256,32,154936,1,0,0:0:0:0:
256,364,155094,2,0,L|256:208,1,156.800001914063
345,97,155410,1,0,0:0:0:0:
453,187,155568,1,0,0:0:0:0:
366,318,155726,2,0,L|448:342,1,78.4000009570313
187,263,155883,2,0,L|263:287,2,78.4000009570313
47,189,156199,5,0,0:0:0:0:
38,150,156278,1,0,0:0:0:0:
45,111,156357,5,0,0:0:0:0:
87,86,156436,1,0,0:0:0:0:
119,49,156515,5,0,0:0:0:0:
158,47,156594,1,0,0:0:0:0:
202,58,156673,6,0,B|233:89|233:89|280:108|354:95,1,156.800001914063
151,167,156989,1,0,0:0:0:0:
277,327,157147,1,0,0:0:0:0:
409,132,157305,1,0,0:0:0:0:
181,296,157462,6,0,B|158:296|158:296|110:322|20:315,1,156.800001914063
378,244,157778,2,0,B|356:238|356:238|302:249|217:217,1,156.800001914063
471,208,158094,1,0,0:0:0:0:
318,141,158252,1,0,0:0:0:0:
424,80,158410,1,0,0:0:0:0:
451,83,158489,1,0,0:0:0:0:
475,58,158568,1,0,0:0:0:0:
224,53,158726,6,0,P|195:122|122:169,1,156.800001914063
197,242,159041,2,0,P|123:257|43:224,1,156.800001914063
361,352,159357,2,0,P|306:301|286:216,1,156.800001914063
422,284,159673,5,0,0:0:0:0:
76,82,159831,5,0,0:0:0:0:
479,154,159989,5,0,0:0:0:0:
35,212,160147,5,0,0:0:0:0:
104,197,160226,1,0,0:0:0:0:
171,177,160305,1,0,0:0:0:0:
236,153,160383,1,0,0:0:0:0:
297,119,160462,5,0,0:0:0:0:
408,32,160620,1,0,0:0:0:0:
479,154,160778,2,0,L|417:211,1,78.4000009570313
412,309,160936,2,0,L|328:285,1,78.4000009570313
244,334,161094,2,0,B|227:311|145:300|145:300|138:233|176:168,1,235.200002871094
211,98,161410,5,0,0:0:0:0:
171,177,161568,2,0,P|111:230|31:237,1,156.800001914063
436,171,161883,2,0,P|356:166|294:114,1,156.800001914063
278,84,162120,5,0,0:0:0:0:
265,46,162199,1,0,0:0:0:0:
267,234,162357,2,0,L|232:311,1,78.4000009570313
128,105,162515,2,0,L|80:37,1,78.4000009570313
363,246,162673,1,0,0:0:0:0:
387,271,162752,1,0,0:0:0:0:
428,271,162831,1,0,0:0:0:0:
52,186,162989,6,0,B|18:206|18:206|34:241,2,78.4000009570313
120,311,163305,5,0,0:0:0:0:
150,357,163383,1,0,0:0:0:0:
197,333,163462,1,0,0:0:0:0:
387,271,163620,5,0,0:0:0:0:
436,220,163699,1,0,0:0:0:0:
453,152,163778,1,0,0:0:0:0:
128,105,163936,2,0,L|194:152,1,78.4000009570313
349,147,164094,2,0,B|283:131|296:69|209:61,1,156.800001914063
50,328,164410,6,0,L|119:275,1,78.4000009570313
267,245,164568,2,0,L|322:300,1,78.4000009570313
504,270,164726,1,0,0:0:0:0:
453,263,164805,1,0,0:0:0:0:
437,220,164883,6,0,P|422:138|362:88,1,156.800001914063
63,239,165199,2,0,P|145:224|195:164,1,156.800001914063
259,28,165515,1,0,0:0:0:0:
322,171,165673,1,0,0:0:0:0:
128,105,165831,1,0,0:0:0:0:
348,327,165989,6,0,B|303:331|303:331|261:321|228:282|224:246,1,156.800001914063
259,28,166305,1,0,0:0:0:0:
63,239,166462,1,0,0:0:0:0:
376,241,166620,1,0,0:0:0:0:
128,105,166778,6,0,L|149:189,1,78.4000009570313
199,329,166936,1,0,0:0:0:0:
199,329,167015,1,0,0:0:0:0:
199,329,167094,2,0,L|178:240,1,78.4000009570313
273,248,167252,6,0,L|252:161,2,78.4000009570313
423,87,167568,2,0,B|382:94|382:94|329:58|269:111|192:53,1,235.200002871094
128,105,167883,2,0,B|126:131|126:131|98:196|131:268,1,156.800001914063
376,241,168199,5,0,0:0:0:0:
390,277,168278,1,0,0:0:0:0:
361,315,168357,1,0,0:0:0:0:
266,147,168515,1,0,0:0:0:0:
254,172,168594,1,0,0:0:0:0:
215,195,168673,1,0,0:0:0:0:
365,113,168831,1,0,0:0:0:0:
208,326,168989,1,0,0:0:0:0:
451,180,169147,6,0,L|478:100,2,78.4000009570313
169,37,169462,2,0,L|125:106,1,78.4000009570313
61,138,169620,5,0,0:0:0:0:
41,197,169699,1,0,0:0:0:0:
49,259,169778,1,0,0:0:0:0:
88,307,169857,1,0,0:0:0:0:
149,323,169936,6,0,L|196:316,2,39.2000004785156
179,221,170094,6,0,L|157:185,2,39.2000004785156
277,169,170252,6,0,L|312:130,2,39.2000004785156
350,252,170410,6,0,L|393:259,2,39.2000004785156
306,341,170568,5,0,0:0:0:0:
261,261,170883,5,0,0:0:0:0:
160,84,171199,5,0,0:0:0:0:
160,84,171515,5,0,0:0:0:0:
275,125,171831,5,0,0:0:0:0:
192,247,171989,1,0,0:0:0:0:
275,125,172147,1,0,0:0:0:0:
192,247,172305,1,0,0:0:0:0:
76,151,172462,5,0,0:0:0:0:
345,240,172620,1,0,0:0:0:0:
76,151,172778,1,0,0:0:0:0:
345,240,172936,1,0,0:0:0:0:
20,342,173094,5,0,0:0:0:0:
169,160,173252,1,0,0:0:0:0:
460,86,173410,1,0,0:0:0:0:
267,206,173568,1,0,0:0:0:0:
136,71,173726,5,0,0:0:0:0:
211,319,173883,1,0,0:0:0:0:
136,71,174041,5,0,0:0:0:0:
309,335,174199,1,0,0:0:0:0:
67,80,174357,6,0,L|141:69,1,70
214,100,174515,1,0,0:0:0:0:
259,106,174594,1,0,0:0:0:0:
275,118,174673,1,0,0:0:0:0:
301,127,174752,1,0,0:0:0:0:
336,134,174831,1,0,0:0:0:0:
385,140,174910,1,0,0:0:0:0:
412,190,174989,6,0,B|427:258|427:258|361:287,1,140
154,200,175305,6,0,L|189:209,1,35
211,319,175462,6,0,L|174:334,1,35
