osu file format v12

[General]
AudioFilename: O_T_Nver_.mp3
AudioLeadIn: 2000
PreviewTime: 41657
Countdown: 0
SampleSet: Normal
StackLeniency: 0.3
Mode: 0
LetterboxInBreaks: 1

[Editor]
Bookmarks: 44549
DistanceSpacing: 1.2
BeatDivisor: 4
GridSize: 4

[Metadata]
Title:Gigantic O.T.N
TitleUnicode:ギガンティック O.T.N
Artist:Wotamin
ArtistUnicode:ヲタみん
Creator:Star Stream
Version:Easy
Source:Nico Nico Douga
Tags:len vocaloid ssssssssssssssss HelloSCV BeatofIke L_i_a Entozer Guy Lundlerol jomnhnk Gamu cRyo[iceeicee]
BeatmapID:254650
BeatmapSetID:80214

[Difficulty]
HPDrainRate:2
CircleSize:2
OverallDifficulty:2
ApproachRate:3
SliderMultiplier:0.799999999999999
SliderTickRate:1

[Events]
//Background and Video events
0,0,"BG.jpg",0,0
//Break Periods
2,64663,72497
2,129084,148918
//Storyboard Layer 0 (Background)
//Storyboard Layer 1 (Fail)
//Storyboard Layer 2 (Pass)
//Storyboard Layer 3 (Foreground)
//Storyboard Sound Samples
//Background Colour Transformations
3,100,163,162,255

[TimingPoints]
1306,315.789473684211,4,1,1,40,1,0
41727,-100,4,1,2,60,0,1
51516,-100,4,1,2,60,0,0
51832,-100,4,1,2,60,0,1
61937,-100,4,1,2,60,0,0
64463,-100,4,1,1,60,0,0
73937,-100,4,1,2,60,0,0
74569,-100,4,1,1,60,0,0
94148,-100,4,1,2,5,0,0
94779,-100,4,1,1,60,0,0
106148,-100,4,1,2,60,0,1
115937,-100,4,1,2,60,0,0
116253,-100,4,1,2,60,0,1
126358,-100,4,1,2,60,0,0
128884,-100,4,1,1,60,0,0
150358,-100,4,1,2,60,0,1
160148,-100,4,1,2,60,0,0
160463,-100,4,1,2,60,0,1
170569,-100,4,1,1,40,0,0
175621,-100,4,1,1,60,0,1
175700,-100,4,1,1,60,0,0

[Colours]
Combo1 : 255,79,74
Combo2 : 15,255,15
Combo3 : 0,43,242
Combo4 : 255,40,255

[HitObjects]
120,48,1306,1,8,0:0:0:0:
120,208,1937,1,8,0:0:0:0:
256,296,2569,1,8,0:0:0:0:
392,208,3200,2,0,P|436:208|480:224,2,79.9999999999999,8|2|8,0:0|0:0|0:0,0:0:0:0:
448,60,4463,5,8,0:0:0:0:
296,108,5095,2,0,P|256:116|216:108,1,79.9999999999999,8|2,0:0|0:0,0:0:0:0:
140,88,5727,2,0,P|60:108|44:180,1,160,8|8,0:0|0:0,0:0:0:0:
104,324,6990,5,8,0:0:0:0:
184,188,7621,1,8,0:0:0:0:
245,336,8253,1,8,0:0:0:0:
320,200,8884,6,0,L|360:292,1,79.9999999999999,0|2,0:0|0:0,0:0:0:0:
416,200,9516,2,0,L|456:292,1,79.9999999999999,8|2,0:0|0:0,0:0:0:0:
512,200,10148,2,0,B|512:120|512:120|512:76|476:52,2,160,8|0|8,0:0|0:0|0:0,0:0:0:0:
412,324,12042,5,8,0:0:0:0:
340,180,12674,1,8,0:0:0:0:
240,304,13306,1,8,0:0:0:0:
168,160,13937,6,0,P|116:220|100:300,1,160,8|8,0:0|0:0,0:0:0:0:
0,172,15200,2,0,B|0:92|0:92|0:48|36:24,2,160,8|8|8,0:0|0:0|0:0,0:0:0:0:
0,332,17095,5,8,0:0:0:0:
156,368,17727,2,0,P|236:380|316:368,1,160,8|8,0:0|0:0,0:0:0:0:
448,280,18990,5,8,0:0:0:0:
352,152,19621,1,8,0:0:0:0:
208,220,20253,2,0,P|136:196|128:120,2,160,8|8|0,0:0|0:0|0:0,0:0:0:0:
364,264,22148,5,8,0:0:0:0:
236,360,22779,2,0,L|76:360,1,160,8|8,0:0|0:0,0:0:0:0:
0,224,24042,5,8,0:0:0:0:
84,88,24674,1,8,0:0:0:0:
236,44,25306,2,0,P|388:64|464:200,1,320,8|8,0:0|0:0,0:0:0:0:
304,180,27200,5,8,0:0:0:0:
172,272,27832,1,8,0:0:0:0:
16,240,28463,1,8,0:0:0:0:
120,116,29095,6,0,P|83:52|6:60,1,160,8|8,0:0|0:0,0:0:0:0:
108,212,30358,2,0,P|181:211|212:140,1,160,8|8,0:0|0:0,0:0:0:0:
336,32,31621,6,0,P|344:32|280:352,1,559.999999999999,4|0,0:0|0:0,0:0:0:0:
207,359,34148,2,0,P|168:32|176:32,1,559.999999999999,4|0,0:0|0:0,0:0:0:0:
256,32,36674,5,4,0:0:0:0:
368,144,37306,1,4,0:0:0:0:
368,304,37937,5,4,0:0:0:0:
324,240,38253,1,4,0:0:0:0:
256,204,38569,1,4,0:0:0:0:
188,240,38884,1,4,0:0:0:0:
144,304,39200,5,4,0:0:0:0:
32,192,39832,1,4,0:0:0:0:
144,80,40463,2,0,L|192:148,2,79.9999999999999
292,20,41727,6,0,P|368:48|444:36,1,160,2|2,0:0|0:0,0:0:0:0:
320,132,42990,2,0,P|292:208|304:284,1,160,2|2,0:0|0:0,0:0:0:0:
452,228,44253,5,2,0:0:0:0:
504,380,44884,1,2,0:0:0:0:
348,348,45516,2,0,P|268:336|188:348,1,160,2|2,0:0|0:0,0:0:0:0:
32,320,46779,6,0,P|52:244|48:164,1,160,2|2,0:0|0:0,0:0:0:0:
140,32,48042,1,2,0:0:0:0:
288,96,48674,1,2,0:0:0:0:
436,32,49306,6,0,P|476:100|480:180,1,160,2|2,0:0|0:0,0:0:0:0:
412,324,50569,2,0,L|324:324,1,79.9999999999999,10|8,0:0|0:0,0:0:0:0:
268,276,51200,2,0,L|180:276,1,79.9999999999999,10|8,0:0|0:0,0:0:0:0:
124,228,51832,6,0,P|148:184|256:188,1,160,14|2,0:0|0:0,0:0:0:0:
112,20,53095,2,0,P|68:44|72:152,1,160,2|2,0:0|0:0,0:0:0:0:
212,76,54358,6,0,P|288:60|368:76,2,160,2|2|2,0:0|0:0|0:0,0:0:0:0:
288,216,56253,1,2,0:0:0:0:
428,140,56884,6,0,P|444:216|428:296,1,160,10|2,0:0|0:0,0:0:0:0:
284,364,58148,2,0,L|112:364,1,160,2|2,0:0|0:0,0:0:0:0:
0,260,59411,6,0,L|0:176,1,79.9999999999999,10|8,0:0|0:0,0:0:0:0:
76,156,60042,2,0,L|76:72,1,79.9999999999999,10|8,0:0|0:0,0:0:0:0:
144,36,60674,2,0,P|200:96|216:172,2,160,10|10|2,0:0|0:0|0:0,0:0:0:0:
368,36,62569,5,2,0:0:0:0:
256,152,63200,1,2,0:0:0:0:
324,192,63516,1,2,0:0:0:0:
392,232,63832,2,0,P|336:284|256:284,1,160,2|4,0:0|0:0,0:0:0:0:
256,192,73937,6,0,L|256:104,1,79.9999999999999,2|8,0:0|0:0,0:0:0:0:
324,44,74569,5,8,0:0:0:0:
448,144,75200,1,8,0:0:0:0:
348,272,75832,1,8,0:0:0:0:
188,272,76463,1,8,0:0:0:0:
56,180,77095,6,0,B|76:196|76:196|40:264|68:328,1,160,8|8,0:0|0:0,0:0:0:0:
220,376,78358,1,8,0:0:0:0:
300,236,78990,1,8,0:0:0:0:
264,80,79621,6,0,P|184:52|108:64,1,160,8|8,0:0|0:0,0:0:0:0:
148,220,80884,2,0,P|228:248|304:236,1,160,8|8,0:0|0:0,0:0:0:0:
380,100,82148,5,8,0:0:0:0:
504,200,82779,1,8,0:0:0:0:
396,316,83411,2,0,P|260:228|248:80,1,320,8|0,0:0|0:0,0:0:0:0:
100,16,85306,5,8,0:0:0:0:
0,132,85937,2,0,L|0:296,1,160,8|8,0:0|0:0,0:0:0:0:
140,372,87200,6,0,P|216:356|296:372,1,160,8|8,0:0|0:0,0:0:0:0:
279,182,88463,2,0,P|204:196|180:268,2,160,8|8|8,0:0|0:0|0:0,0:0:0:0:
424,248,90358,5,8,0:0:0:0:
512,120,90990,2,0,B|512:40|512:40|432:40,1,160,8|8,0:0|0:0,0:0:0:0:
272,40,92253,6,0,B|192:40|192:40|192:120,1,160,8|8,0:0|0:0,0:0:0:0:
296,240,93516,2,0,B|352:183|352:183|409:240,1,160,8|0,0:0|0:0,0:0:0:0:
296,352,94779,6,0,P|220:368|140:352,1,160,8|2,0:0|0:0,0:0:0:0:
40,272,96042,2,0,P|56:192|40:116,1,160,8|2,0:0|0:0,0:0:0:0:
96,36,96990,1,8,0:0:0:0:
188,68,97306,6,0,P|200:144|136:200,3,160,8|2|8|2,0:0|0:0|0:0|0:0,0:0:0:0:
164,292,99516,1,8,0:0:0:0:
244,344,99832,6,0,L|408:344,1,160,8|2,0:0|0:0,0:0:0:0:
452,224,101095,2,0,L|288:224,1,160,8|2,0:0|0:0,0:0:0:0:
240,144,102042,1,8,0:0:0:0:
296,68,102358,6,0,P|376:72|424:136,2,160,8|8|8,0:0|0:0|0:0,0:0:0:0:
208,32,103937,1,0,0:0:0:0:
132,92,104253,2,0,L|132:172,1,79.9999999999999,8|0,0:0|0:0,0:0:0:0:
44,216,104884,2,0,P|92:272|176:260,1,160,8|8,0:0|0:0,0:0:0:0:
316,132,106148,5,2,0:0:0:0:
436,236,106779,1,2,0:0:0:0:
352,372,107411,2,0,L|192:372,1,160,2|2,0:0|0:0,0:0:0:0:
60,280,108674,6,0,P|44:200|60:124,1,160,2|2,0:0|0:0,0:0:0:0:
212,80,109937,2,0,P|200:164|136:204,2,160,2|2|2,0:0|0:0|0:0,0:0:0:0:
360,20,111832,5,2,0:0:0:0:
504,88,112463,2,0,L|504:248,1,160,2|2,0:0|0:0,0:0:0:0:
380,348,113727,6,0,L|300:348,1,79.9999999999999,10|8,0:0|0:0,0:0:0:0:
248,288,114358,2,0,L|168:288,1,79.9999999999999,10|8,0:0|0:0,0:0:0:0:
112,228,114990,2,0,P|76:296|100:372,2,160,10|10|2,0:0|0:0|0:0,0:0:0:0:
36,88,116884,5,2,0:0:0:0:
188,32,117516,1,2,0:0:0:0:
304,144,118148,2,0,P|344:144|380:124,2,79.9999999999999,2|2|2,0:0|0:0|0:0,0:0:0:0:
160,212,119411,5,2,0:0:0:0:
276,324,120042,2,0,L|356:324,1,79.9999999999999,10|8,0:0|0:0,0:0:0:0:
396,256,120674,2,0,L|476:256,1,79.9999999999999,10|8,0:0|0:0,0:0:0:0:
512,188,121306,6,0,P|512:108|456:56,1,160,2|2,0:0|0:0,0:0:0:0:
296,56,122569,2,0,P|240:108|240:188,1,160,2|2,0:0|0:0,0:0:0:0:
140,60,123832,6,0,L|140:148,1,79.9999999999999,10|8,0:0|0:0,0:0:0:0:
80,192,124463,2,0,L|80:280,1,79.9999999999999,10|8,0:0|0:0,0:0:0:0:
20,324,125095,2,0,B|88:368|88:368|172:368,2,160,10|10|2,0:0|0:0|0:0,0:0:0:0:
116,196,126990,5,2,0:0:0:0:
260,268,127621,1,2,0:0:0:0:
340,268,127937,1,2,0:0:0:0:
420,268,128253,2,0,B|420:188|420:188|376:120,1,160,2|4,0:0|0:0,0:0:0:0:
160,40,150358,6,0,P|80:56|24:108,1,160,2|2,0:0|0:0,0:0:0:0:
24,276,151621,2,0,P|80:328|160:344,1,160,2|2,0:0|0:0,0:0:0:0:
236,284,152569,1,2,0:0:0:0:
324,320,152884,6,0,B|404:320|404:320|424:360|468:368,3,160,2|2|2|2,0:0|0:0|0:0|0:0,0:0:0:0:
488,272,155095,1,2,0:0:0:0:
412,216,155411,6,0,P|416:140|484:96,1,160,2|2,0:0|0:0,0:0:0:0:
324,60,156674,2,0,B|324:144|324:144|316:188|280:220,1,160,2|2,0:0|0:0,0:0:0:0:
152,80,157937,6,0,P|120:108|80:120,1,79.9999999999999,2|2,0:0|0:0,0:0:0:0:
20,188,158569,2,0,P|8:228|12:268,1,79.9999999999999,2|2,0:0|0:0,0:0:0:0:
68,344,159200,2,0,P|144:368|224:360,2,160,2|2|8,0:0|0:0|0:0,0:0:0:0:
160,216,161095,5,2,0:0:0:0:
320,216,161727,1,2,0:0:0:0:
444,112,162358,2,0,P|448:72|444:32,2,79.9999999999999,2|2|2,0:0|0:0|0:0,0:0:0:0:
432,272,163621,5,2,0:0:0:0:
292,348,164253,2,0,P|252:352|212:348,1,79.9999999999999,2|2,0:0|0:0,0:0:0:0:
136,320,164884,2,0,P|80:264|80:188,1,160,2|2,0:0|0:0,0:0:0:0:
176,56,166148,5,2,0:0:0:0:
320,128,166779,2,0,B|376:128|376:128|396:144|396:144|416:128|416:128|476:128,1,160,2|2,0:0|0:0,0:0:0:0:
432,284,168042,6,0,P|400:308|360:320,1,79.9999999999999,10|8,0:0|0:0,0:0:0:0:
284,340,168674,2,0,P|244:348|203:342,1,79.9999999999999,10|8,0:0|0:0,0:0:0:0:
128,320,169306,2,0,B|104:244|104:244|24:232,2,160,10|10|2,0:0|0:0|0:0,0:0:0:0:
160,132,171200,5,2,0:0:0:0:
352,132,171832,1,2,0:0:0:0:
384,320,172463,6,0,P|340:340|296:344,1,79.9999999999999,2|2,0:0|0:0,0:0:0:0:
203,344,173095,2,0,P|172:340|128:320,2,79.9999999999999,2|2|2,0:0|0:0|0:0,0:0:0:0:
256,264,174042,1,2,0:0:0:0:
256,176,174358,6,0,L|256:92,1,79.9999999999999,2|2,0:0|0:0,0:0:0:0:
326,33,174990,2,0,P|256:64|184:32,1,160,2|4,0:0|0:0,0:0:0:0:
