osu file format v12

[General]
AudioFilename: Wotamin - Datte Datte Datte.mp3
AudioLeadIn: 496
PreviewTime: 69129
Countdown: 0
SampleSet: Normal
StackLeniency: 0.7
Mode: 0
LetterboxInBreaks: 0

[Editor]
DistanceSpacing: 1.1
BeatDivisor: 2
GridSize: 4

[Metadata]
Title:Datte Datte Datte
TitleUnicode:だってだってだって
Artist:Wotamin
ArtistUnicode:ヲタみん
Creator:GiNa
Version:Normal
Source:Nico Nico Douga
Tags:Megpoid GUMI Vocaloid Vocaloid2 But But But TakanonP
BeatmapID:128504
BeatmapSetID:40509

[Difficulty]
HPDrainRate:4
CircleSize:4
OverallDifficulty:3
ApproachRate:5
SliderMultiplier:1.2
SliderTickRate:1

[Events]
//Background and Video events
Video,0,"Wotamin - Datte Datte Datte.flv"
0,0,"BG - Datte Datte Datte.jpg",0,0
//Break Periods
2,106936,118058
//Storyboard Layer 0 (Background)
//Storyboard Layer 1 (Fail)
//Storyboard Layer 2 (Pass)
//Storyboard Layer 3 (Foreground)
//Storyboard Sound Samples
//Background Colour Transformations
3,100,163,162,255

[TimingPoints]
302,521.739130434783,4,1,0,50,1,0
2388,-100,4,2,1,70,0,0
18041,-100,4,2,1,80,0,0
69171,-100,4,2,1,90,0,1
90041,-100,4,2,1,80,0,0
119258,-100,4,2,1,80,0,0
123432,-100,4,2,1,70,0,0
140128,-100,4,2,0,60,0,0
155780,-100,4,2,0,70,0,0
156302,-100,4,2,0,80,0,0
156823,-100,4,2,1,90,0,1
156954,-100,4,2,1,85,0,0
173519,-100,4,2,1,90,0,1
181867,-100,4,2,1,70,0,1
182128,-100,4,2,1,90,0,1
194389,-100,4,2,1,80,0,1
196475,-100,4,2,1,70,0,0
210041,-100,4,2,1,60,0,0
210562,-100,4,2,1,50,0,0
211084,-100,4,2,1,40,0,0
211606,-100,4,2,1,30,0,0
212128,-100,4,2,1,20,0,0
212649,-100,4,2,1,10,0,0

[Colours]
Combo1 : 255,149,98
Combo2 : 193,221,0
Combo3 : 85,170,255
Combo4 : 255,111,183

[HitObjects]
376,132,1606,1,0,0:0:0:0:
400,192,1867,2,0,B|416:256|480:292,1,120,0|4,0:0|0:0,0:0:0:0:
344,328,2910,6,0,B|284:368|216:324,1,120,0|0,0:0|0:0,0:0:0:0:
176,292,3693,1,0,0:0:0:0:
140,236,3954,1,0,0:0:0:0:
136,172,4215,1,0,0:0:0:0:
200,164,4475,6,0,B|256:212|316:160,1,120,2|0,0:0|0:0,0:0:0:0:
276,108,5258,2,0,B|280:80|304:56,1,60
368,68,5780,2,0,B|404:80|428:140|404:184,1,120
348,196,6562,6,0,B|276:252|216:204|216:204|176:204,2,180,4|0|0,0:0|0:0|0:0,0:0:0:0:
360,260,8388,2,0,B|400:316,1,60,0|2,0:0|0:0,0:0:0:0:
264,336,9171,1,0,0:0:0:0:
264,336,9432,2,0,B|212:344|156:272|192:200,1,180
280,108,10736,6,0,B|332:148|392:112,2,120,4|0|0,0:0|0:0|0:0,0:0:0:0:
212,220,12302,2,0,B|236:280|296:316,2,120,0|4|0,0:0|0:0|0:0,0:0:0:0:
88,176,13867,2,0,B|88:296,1,120
112,356,14649,1,0,0:0:0:0:
168,320,14910,6,0,B|184:224|268:176,2,180,4|0|0,0:0|0:0|0:0,0:0:0:0:
232,324,16736,2,0,B|304:324,1,60,0|2,0:0|0:0,0:0:0:0:
292,256,17258,2,0,B|352:244,1,60
356,180,17780,1,0,0:0:0:0:
292,192,18041,6,0,B|172:192,2,120,0|8|2,0:0|0:0|0:0,0:0:0:0:
292,124,19345,2,0,B|232:100,1,60,0|8,0:0|0:0,0:0:0:0:
108,76,20128,2,0,B|72:128,1,60
40,184,20649,1,8,0:0:0:0:
160,236,21171,6,0,B|160:296,1,60,2|0,0:0|0:0,0:0:0:0:
160,364,21693,1,8,0:0:0:0:
272,292,22215,1,0,0:0:0:0:
404,276,22736,1,8,0:0:0:0:
388,144,23258,5,2,0:0:0:0:
272,84,23780,1,8,0:0:0:0:
140,96,24302,2,0,B|156:124|192:120,1,60
248,152,24823,6,0,B|283:203|276:265,2,120,8|2|8,0:0|0:0|0:0,0:0:0:0:
148,240,26388,2,0,B|116:264|116:320|148:348,1,120,0|8,0:0|0:0,0:0:0:0:
228,244,27432,5,2,0:0:0:0:
292,256,27693,1,0,0:0:0:0:
356,244,27954,1,8,0:0:0:0:
324,116,28475,2,0,B|324:56,2,60,0|0|8,0:0|0:0|0:0,0:0:0:0:
200,72,29519,6,0,B|200:132,1,60,2|0,0:0|0:0,0:0:0:0:
160,184,30041,2,0,B|208:236,1,60,8|0,0:0|0:0,0:0:0:0:
240,280,30562,2,0,B|316:280,1,60
356,244,31084,1,8,0:0:0:0:
348,112,31606,6,0,B|340:172|248:208|204:168,2,180,2|0|8,0:0|0:0|0:0,0:0:0:0:
220,84,33693,2,0,B|148:84|124:152,1,120,2|8,0:0|0:0,0:0:0:0:
156,204,34475,2,0,B|224:304,1,120,0|0,0:0|0:0,0:0:0:0:
288,320,35258,1,8,0:0:0:0:
352,308,35519,6,0,B|352:368,2,60,0|4|0,0:0|0:0|0:0,0:0:0:0:
408,272,36302,2,0,B|468:224|444:144|368:100|316:148,1,240,8|8,0:0|0:0,0:0:0:0:
200,88,37867,5,2,0:0:0:0:
212,152,38128,1,0,0:0:0:0:
204,216,38388,1,8,0:0:0:0:
88,276,38910,2,0,B|132:324,1,60
176,368,39432,1,8,0:0:0:0:
300,324,39954,6,0,B|368:344|448:228|404:152,2,240,2|8|2,0:0|0:0|0:0,0:0:0:0:
280,192,42562,1,8,0:0:0:0:
280,192,43084,6,0,B|216:228|168:176,2,120,0|8|2,0:0|0:0|0:0,0:0:0:0:
248,64,44649,1,8,0:0:0:0:
248,64,45171,2,0,B|288:124|360:104,2,120,0|8|0,0:0|0:0|0:0,0:0:0:0:
115,64,46736,2,0,B|55:64,1,60,8|0,0:0|0:0,0:0:0:0:
132,172,47519,2,0,B|92:228,1,60,0|8,0:0|0:0,0:0:0:0:
88,288,48041,1,0,0:0:0:0:
152,264,48302,6,0,B|220:300|304:224|304:224|380:152|484:212,2,360,4|8|0,0:0|0:0|0:0,0:0:0:0:
176,204,51693,1,0,0:0:0:0:
200,144,51954,6,0,L|140:144,2,60,8|0|4,0:0|0:0|0:0,0:0:0:0:
312,72,52997,1,8,0:0:0:0:
288,200,53519,1,0,0:0:0:0:
384,112,54041,1,8,0:0:0:0:
252,128,54562,1,4,0:0:0:0:
368,192,55084,1,8,0:0:0:0:
368,192,55345,1,8,0:0:0:0:
244,344,56128,6,0,B|316:344,2,60,8|0|4,0:0|0:0|0:0,0:0:0:0:
200,296,56910,2,0,B|112:260|128:148,1,180,0|0,0:0|0:0,0:0:0:0:
80,100,57954,1,0,0:0:0:0:
144,84,58215,2,0,B|180:-4|292:12,1,180,8|0,0:0|0:0,0:0:0:0:
320,72,59258,1,8,0:0:0:0:
204,136,59780,5,0,0:0:0:0:
268,148,60041,1,0,0:0:0:0:
304,204,60302,2,0,B|284:232|248:232,2,60,8|0|4,0:0|0:0|0:0,0:0:0:0:
348,252,61084,2,0,B|332:304|264:352|192:348,1,180,0|0,0:0|0:0,0:0:0:0:
160,304,62128,2,0,B|96:304,1,60,0|8,0:0|0:0,0:0:0:0:
104,172,62910,6,0,B|168:144|168:144|200:108,1,120,4|8,0:0|0:0,0:0:0:0:
260,76,63693,2,0,B|280:124|332:108|332:108|340:168|388:172,1,180,0|8,0:0|0:0,0:0:0:0:
448,200,64736,2,0,B|440:232|404:240,1,60,2|4,0:0|0:0,0:0:0:0:
284,296,65519,5,8,0:0:0:0:
240,172,66041,1,0,0:0:0:0:
196,296,66562,1,8,0:0:0:0:
304,220,67084,1,4,0:0:0:0:
172,220,67606,1,8,0:0:0:0:
172,220,67867,2,0,B|132:172|132:108,2,120,0|8|0,0:0|0:0|0:0,0:0:0:0:
240,172,69171,5,4,0:0:0:0:
296,52,69693,2,0,B|416:52,1,120,8|0,0:0|0:0,0:0:0:0:
464,100,70475,1,0,0:0:0:0:
472,164,70736,2,0,B|448:236|380:216,1,120,8|0,0:0|0:0,0:0:0:0:
368,152,71519,1,0,0:0:0:0:
316,192,71780,2,0,B|252:212|260:288,1,120,8|0,0:0|0:0,0:0:0:0:
276,348,72562,2,0,B|216:348,1,60,0|8,0:0|0:0,0:0:0:0:
100,284,73345,5,4,0:0:0:0:
64,156,73867,2,0,B|124:184|184:152,1,120,8|0,0:0|0:0,0:0:0:0:
128,32,74910,2,0,B|188:4|248:36,1,120,8|0,0:0|0:0,0:0:0:0:
243,100,75693,1,0,0:0:0:0:
243,166,75954,2,0,B|215:226|247:286,1,120,8|0,0:0|0:0,0:0:0:0:
272,340,76736,1,0,0:0:0:0:
272,340,76997,1,8,0:0:0:0:
160,268,77519,6,0,B|92:300|24:268|12:168|52:132,1,240,4|0,0:0|0:0,0:0:0:0:
104,100,78823,1,0,0:0:0:0:
156,140,79084,1,8,0:0:0:0:
256,56,79606,6,0,B|244:112|256:180,1,120,4|8,0:0|0:0,0:0:0:0:
372,236,80649,2,0,B|384:180|372:112,1,120,0|8,0:0|0:0,0:0:0:0:
268,196,81693,2,0,B|148:196,1,120,4|8,0:0|0:0,0:0:0:0:
80,84,82736,2,0,B|200:84,1,120,0|8,0:0|0:0,0:0:0:0:
328,124,83780,5,2,0:0:0:0:
280,172,84041,1,0,0:0:0:0:
328,216,84302,2,0,B|328:280,1,60,8|0,0:0|0:0,0:0:0:0:
280,320,84823,1,0,0:0:0:0:
216,308,85084,2,0,B|216:240,1,60,0|8,0:0|0:0,0:0:0:0:
216,180,85606,1,0,0:0:0:0:
216,112,85867,6,0,B|148:44|24:76|-16:208|64:288,2,360,4|8|0,0:0|0:0|0:0,0:0:0:0:
256,236,89519,1,8,0:0:0:0:
256,104,90041,5,4,0:0:0:0:
388,104,90562,2,0,B|388:44,2,60,8|0|0,0:0|0:0|0:0,0:0:0:0:
388,236,91606,2,0,B|388:300,2,60,8|0|2,0:0|0:0|0:0,0:0:0:0:
256,236,92649,1,8,0:0:0:0:
180,344,93171,6,0,B|140:300|140:300|120:244,2,120,0|8|2,0:0|0:0|0:0,0:0:0:0:
220,292,94475,2,0,B|260:212|260:212|276:124,2,180,0|8|0,0:0|0:0|0:0,0:0:0:0:
260,344,96302,6,0,B|328:356|372:308,1,120,2|8,0:0|0:0,0:0:0:0:
404,184,97345,1,0,0:0:0:0:
292,256,97867,1,8,0:0:0:0:
340,132,98388,1,2,0:0:0:0:
376,260,98910,1,8,0:0:0:0:
272,176,99432,1,0,0:0:0:0:
168,256,99954,6,0,B|160:184|100:164,1,120,8|2,0:0|0:0,0:0:0:0:
176,56,100997,2,0,B|232:16|292:60,1,120,8|0,0:0|0:0,0:0:0:0:
256,184,102041,1,8,0:0:0:0:
256,316,102562,5,2,0:0:0:0:
320,304,102823,2,0,B|348:304|376:276,1,60,0|8,0:0|0:0,0:0:0:0:
412,224,103345,2,0,B|432:144|396:108|408:40,1,180,0|8,0:0|0:0,0:0:0:0:
276,68,104649,6,0,B|220:104|160:80|160:80|108:56|44:96,1,240,2|0,0:0|0:0,0:0:0:0:
46,160,105954,2,0,B|54:200|82:220,1,60,0|8,0:0|0:0,0:0:0:0:
200,248,106736,1,4,0:0:0:0:
256,192,119258,5,4,0:0:0:0:
332,300,119780,2,0,B|396:288,1,60,8|0,0:0|0:0,0:0:0:0:
376,224,120302,2,0,B|436:192,1,60
412,132,120823,2,0,B|448:84,1,60,8|0,0:0|0:0,0:0:0:0:
388,56,121345,6,0,B|296:24|208:64,2,180,4|0|8,0:0|0:0|0:0,0:0:0:0:
352,112,123171,2,0,B|304:152,1,60,0|4,0:0|0:0,0:0:0:0:
256,192,123693,12,0,125519,0:0:0:0:
80,132,126562,6,0,B|56:192|80:248,1,120,2|8,0:0|0:0,0:0:0:0:
196,316,127606,2,0,B|256:340|312:316,1,120,4|8,0:0|0:0,0:0:0:0:
428,252,128649,2,0,B|452:192|428:136,1,120,0|8,0:0|0:0,0:0:0:0:
316,64,129693,2,0,B|256:40|200:64,1,120,2|8,0:0|0:0,0:0:0:0:
96,144,130736,6,0,B|96:208,1,60
160,196,131258,2,0,B|224:172,1,60,8|0,0:0|0:0,0:0:0:0:
280,160,131780,2,0,B|244:208|288:304|348:296,2,180,4|2|8,0:0|0:0|0:0,0:0:0:0:
408,192,133867,5,4,0:0:0:0:
314,98,134388,1,8,0:0:0:0:
220,191,134910,1,0,0:0:0:0:
313,284,135432,1,8,0:0:0:0:
220,190,135954,2,0,B|92:190,2,120,4|8|0,0:0|0:0|0:0,0:0:0:0:
256,192,137258,12,4,140128,0:0:0:0:
156,56,142215,6,0,B|224:48|240:124,1,120,2|2,0:0|0:0,0:0:0:0:
132,200,143258,2,0,B|124:268|200:284,1,120,0|2,0:0|0:0,0:0:0:0:
264,284,144041,2,0,B|328:284,1,60,0|2,0:0|0:0,0:0:0:0:
420,192,144823,2,0,B|420:72,1,120,2|0,0:0|0:0,0:0:0:0:
287,72,145867,6,0,B|287:192,1,120,2|2,0:0|0:0,0:0:0:0:
219,192,146649,2,0,B|159:192,1,60,0|2,0:0|0:0,0:0:0:0:
91,192,147171,2,0,B|91:304|191:328,1,180,0|2,0:0|0:0,0:0:0:0:
312,296,148475,5,2,0:0:0:0:
360,248,148736,2,0,B|324:196|344:128,1,120,2|2,0:0|0:0,0:0:0:0:
408,128,149519,2,0,B|396:56|340:36,1,120,0|2,0:0|0:0,0:0:0:0:
300,88,150302,1,0,0:0:0:0:
240,60,150562,6,0,B|228:132|172:152,1,120,2|2,0:0|0:0,0:0:0:0:
116,272,151606,2,0,B|176:288|240:272,1,120,0|2,0:0|0:0,0:0:0:0:
364,252,152649,2,0,B|408:296,2,60,2|0|2,0:0|0:0|0:0,0:0:0:0:
364,119,153693,2,0,B|408:75,2,60,0|0|2,0:0|0:0|0:0,0:0:0:0:
256,192,154736,5,2,0:0:0:0:
144,120,155258,6,0,B|156:232|80:288,2,180,2|2|4,0:0|0:0|0:0,0:0:0:0:
248,200,157345,2,0,B|236:268|272:320,2,120,8|0|8,0:0|0:0|0:0,0:0:0:0:
216,72,158910,6,0,B|184:80|152:68,1,60,2|0,0:0|0:0,0:0:0:0:
152,136,159432,2,0,B|120:128|92:152,1,60,8|0,0:0|0:0,0:0:0:0:
76,212,159954,2,0,B|68:252|84:276,2,60,0|0|8,0:0|0:0|0:0,0:0:0:0:
192,280,160997,5,4,0:0:0:0:
312,336,161519,2,0,B|312:212,1,120,8|0,0:0|0:0,0:0:0:0:
444,216,162562,2,0,B|444:88,1,120,8|2,0:0|0:0,0:0:0:0:
312,72,163606,1,8,0:0:0:0:
244,72,163867,2,0,B|144:84|116:184,1,180,0|8,0:0|0:0,0:0:0:0:
112,248,164910,1,0,0:0:0:0:
136,312,165171,6,0,B|200:364|264:336,1,120,4|8,0:0|0:0,0:0:0:0:
312,324,165954,2,0,B|348:312|372:288,2,60
264,280,166736,2,0,B|276:244|300:220,1,60,8|0,0:0|0:0,0:0:0:0:
360,228,167258,2,0,B|360:152|308:120,1,120,4|8,0:0|0:0,0:0:0:0:
188,84,168302,2,0,B|188:144,1,60
188,210,168823,2,0,B|188:270,1,60,8|0,0:0|0:0,0:0:0:0:
244,308,169345,6,0,B|336:344|420:304,2,180,4|0|8,0:0|0:0|0:0,0:0:0:0:
284,180,171432,2,0,B|252:124|284:64,1,120,2|8,0:0|0:0,0:0:0:0:
396,124,172475,1,0,0:0:0:0:
408,188,172736,2,0,B|400:220|372:244,1,60,0|8,0:0|0:0,0:0:0:0:
312,244,173258,1,0,0:0:0:0:
247,224,173519,5,4,0:0:0:0:
183,108,174041,2,0,B|135:148|135:148|71:168,1,120,8|0,0:0|0:0,0:0:0:0:
23,196,174823,1,0,0:0:0:0:
75,236,175084,2,0,B|123:276|123:276|187:296,1,120,8|2,0:0|0:0,0:0:0:0:
255,188,176128,5,8,0:0:0:0:
348,94,176649,1,0,0:0:0:0:
441,187,177171,1,8,0:0:0:0:
256,192,177432,12,8,181345,0:0:0:0:
268,120,181867,2,0,B|268:240,2,120,4|8|0,0:0|0:0|0:0,0:0:0:0:
148,64,183432,1,8,0:0:0:0:
112,192,183954,5,4,0:0:0:0:
112,192,184215,1,0,0:0:0:0:
112,192,184475,2,0,B|124:264|196:280,1,120,8|0,0:0|0:0,0:0:0:0:
256,164,185519,1,8,0:0:0:0:
384,196,186041,6,0,B|404:224|404:252,1,60,4|0,0:0|0:0,0:0:0:0:
368,308,186562,2,0,B|316:344|252:344,2,120,8|0|8,0:0|0:0|0:0,0:0:0:0:
276,212,188128,5,2,0:0:0:0:
276,212,188649,1,8,0:0:0:0:
164,144,189171,2,0,B|124:188,1,60
188,208,189693,2,0,B|216:260,1,60,8|0,0:0|0:0,0:0:0:0:
280,284,190215,5,4,0:0:0:0:
336,164,190736,1,8,0:0:0:0:
360,292,191258,1,4,0:0:0:0:
264,204,191780,1,8,0:0:0:0:
396,220,192302,1,2,0:0:0:0:
396,220,192562,1,0,0:0:0:0:
256,192,192823,12,0,195432,0:0:0:0:
276,64,196475,22,0,B|328:-4|364:56|344:148|256:184|256:184|168:148|148:56|184:-4|236:64,1,480,4|2,0:0|0:0,0:0:0:0:
116,124,199084,5,8,0:0:0:0:
128,256,199606,1,0,0:0:0:0:
40,156,200128,1,8,0:0:0:0:
168,188,200649,1,4,0:0:0:0:
48,240,201171,5,8,0:0:0:0:
48,240,201432,2,0,B|120:228,1,60
104,164,201954,2,0,B|168:132,1,60,0|8,0:0|0:0,0:0:0:0:
172,72,202475,1,0,0:0:0:0:
220,120,202736,6,0,B|272:76|324:148|400:100,2,180,4|0|8,0:0|0:0|0:0,0:0:0:0:
240,184,204562,1,0,0:0:0:0:
272,244,204823,2,0,B|292:320|384:328|384:328|476:320|496:244,2,300,4|0|8,0:0|0:0|0:0,0:0:0:0:
272,112,207954,6,0,B|236:56|164:56,2,120,0|8|4,0:0|0:0|0:0,0:0:0:0:
76,140,209780,1,4,0:0:0:0:
256,192,210041,12,0,213171,0:0:0:0:
