osu file format v9

[General]
AudioFilename: wotamincatfood.mp3
AudioLeadIn: 0
PreviewTime: 57373
Countdown: 0
SampleSet: Soft
StackLeniency: 0.4
Mode: 0
LetterboxInBreaks: 1

[Editor]
DistanceSpacing: 1.2
BeatDivisor: 2
GridSize: 4

[Metadata]
Title:Cat Food
Artist:Wotamin
Creator:rEdo
Version:Normal
Source:doriko
Tags:vocaloid hatsune miku kanpakyin s_o_r_d_a sorda

[Difficulty]
HPDrainRate:2
CircleSize:3
OverallDifficulty:2
ApproachRate:4
SliderMultiplier:0.8
SliderTickRate:1

[Events]
//Background and Video events
0,0,"wotamincatfood.jpg"
//Break Periods
2,90838,100353
2,168080,177594
//Storyboard Layer 0 (Background)
//Storyboard Layer 1 (Fail)
//Storyboard Layer 2 (Pass)
//Storyboard Layer 3 (Foreground)
//Storyboard Sound Samples
//Background Colour Transformations
3,100,163,162,255

[TimingPoints]
2363,344.827586206897,4,2,1,100,1,0
57535,-100,4,2,1,100,0,1
89259,-100,4,2,1,100,0,0
90638,-100,4,2,1,100,0,1
90811,-100,4,2,1,100,0,0
134776,-100,4,2,1,100,0,1
166500,-100,4,2,1,100,0,0
167880,-100,4,2,1,100,0,1
168052,-100,4,2,1,100,0,0
178914,-133.333333333333,4,2,1,100,0,0
189949,-100,4,2,1,100,0,0

[Colours]
Combo1 : 220,100,0
Combo2 : 170,50,50

[HitObjects]
72,68,24431,1,4
72,68,24776,2,0,B|100:136|196:136|215:88,1,160,2|2
392,52,26156,1,2
440,236,26845,5,8
440,316,27190,1,4
440,316,27535,2,0,B|412:248|316:248|297:296,1,160,2|2
119,332,28914,1,2
39,157,29604,5,8
72,67,29949,1,4
72,67,30294,2,0,B|118:73|148:100|148:100|188:88|223:96,1,160,2|2
223,287,31673,2,0,B|188:296|148:284|148:284|118:310|72:316,1,160,2|8
72,219,32707,5,4
440,165,33914,2,0,B|376:148|329:194|329:194|334:150|303:117,1,200,8|8
164,196,35466,5,4
164,196,35811,2,0,B|70:230|24:140,2,160,2|2|2
330,291,37880,5,8
348,196,38225,1,4
348,196,38569,2,0,B|442:230|488:140,2,160,2|2|2
174,113,40638,5,8
186,208,40983,1,4
186,208,41328,2,0,B|136:294|216:355,1,160,2|2
326,200,42707,2,0,B|376:114|296:53,1,160,2|8
205,58,43742,6,0,B|141:119|46:75,1,160,8|8
168,170,44949,2,0,B|127:224|156:294,1,120,4|8
152,283,45811,1,2
344,284,46500,6,0,B|424:128,1,160,4|2
268,20,47880,2,0,B|120:108,1,160,0|2
324,112,49259,6,0,B|392:180|356:272,1,160,4|8
224,308,50466,2,0,B|168:265|96:300,1,120,4|8
110,293,51328,1,8
130,101,52018,6,0,B|268:20,1,160,4|2
417,141,53397,2,0,B|344:284,1,160,4|2
256,120,54776,5,4
256,120,54949,1,0
256,264,55466,1,4
256,264,55638,1,0
192,192,55983,6,0,B|136:236|64:200,1,120,4|2
78,206,56845,1,2
256,284,57535,6,0,B|312:328|384:292,1,120,4|8
428,224,58397,1,0
396,132,58742,2,0,B|364:72|396:12,1,120,4|8
300,32,59604,2,0,B|268:56|220:44,1,80,0|8
131,17,60294,6,0,B|160:72|128:132,1,120,0|8
48,185,61156,1,0
133,228,61500,2,0,B|113:292|164:345,1,120,4|8
220,265,62363,2,0,B|257:291|303:295,1,80,4|0
382,258,63052,5,4
370,353,63397,1,2
297,175,64087,1,2
473,249,64776,1,2
413,66,65466,5,2
318,81,65811,2,0,B|244:115|196:66,1,120,8|2
126,129,66673,2,0,B|154:166|158:210,1,80,8|4
125,292,67363,1,8
125,292,67535,2,0,B|161:312|214:287,1,80,8|8
391,327,68569,6,0,B|375:259|424:211,1,120,4|8
362,138,69431,1,0
365,42,69776,2,0,B|296:65|239:25,1,120,4|8
162,72,70638,2,0,B|116:63|71:90,1,80,0|8
135,164,71328,6,0,B|180:215|158:288,1,120,0|8
128,366,72190,1,0
222,350,72535,2,0,B|280:301|344:311,1,120,4|8
426,324,73397,2,0,B|458:351|506:345,1,80,4|2
479,251,74087,5,4
437,164,74431,1,2
256,99,75121,1,2
346,268,75811,1,2
162,327,76500,5,2
162,327,76845,2,0,B|114:280|135:213,1,120,8|8
63,151,77707,1,8
155,123,78052,1,4
217,50,78397,1,8
217,50,78569,2,0,B|254:76|301:78,1,80,8|4
428,212,79604,5,4
360,280,79949,2,0,B|344:237|307:208,1,80,2|0
224,329,80811,2,0,B|157:360|113:295,1,120,4|2
31,342,81673,2,0,B|12:300|32:253,1,80,4|0
104,206,82363,1,4
193,239,82707,2,0,B|237:265|285:246,1,80,2|0
385,337,83569,6,0,B|428:278|400:213,1,120,4|2
352,142,84431,2,0,B|312:164|311:210,1,80,4|2
256,284,85121,6,0,B|144:328|212:248|88:288,1,160,4|8
256,284,86500,2,0,B|368:328|300:248|424:288,1,160,4|8
332,108,87880,2,0,B|332:32|256:12|176:32|176:108,1,240,4|8
176,106,89259,1,4
256,192,89431,12,4,90638
444,68,101673,5,4
444,68,102018,2,0,B|488:126|440:209|389:201,1,160,2|2
256,84,103397,1,2
64,68,104087,5,8
68,164,104431,1,4
68,164,104776,2,0,B|23:222|71:305|122:297,1,160,2|2
296,297,106156,1,2
448,180,106845,5,8
448,84,107190,1,4
448,84,107535,2,0,B|402:90|372:117|372:117|332:105|297:113,1,160,2|2
297,304,108914,2,0,B|332:313|372:301|372:301|402:327|448:333,1,160,2|8
440,237,109949,5,4
72,147,111156,2,0,B|136:130|183:176|183:176|178:132|209:99,1,200,8|8
381,181,112707,5,4
381,181,113052,2,0,B|362:226|382:257|382:257|349:270|321:316,1,160,2|2
480,204,114431,2,0,B|400:152|432:60,1,160,2|8
335,86,115466,5,4
248,43,115811,2,0,B|186:112|92:68,1,160,2|2
267,171,117190,2,0,B|387:217|310:129|431:177,1,160,2|8
390,264,118225,5,4
297,290,118569,2,0,B|230:231|132:275,1,160,2|8
125,279,119431,1,4
83,87,120121,1,4
224,98,120638,5,8
314,67,120983,2,0,B|380:135|464:89,1,160,8|8
398,221,122190,2,0,B|345:266|368:343,1,120,4|8
364,329,123052,1,2
172,329,123742,6,0,B|82:183,1,160,4|2
209,43,125121,2,0,B|371:96,1,160,0|2
173,134,126500,6,0,B|111:209|164:292,1,160,4|8
300,308,127707,2,0,B|348:261|425:283,1,120,4|8
411,280,128569,1,8
360,93,129259,6,0,B|209:43,1,160,4|2
88,192,130638,2,0,B|172:329,1,160,4|2
328,216,132018,5,4
328,216,132190,1,0
184,216,132707,1,4
184,216,132880,1,0
256,152,133225,6,4,B|280:84|240:100|256:28,1,120,4|2
254,34,134087,1,4
444,64,134776,6,0,B|400:116|432:192,1,120,4|8
372,256,135638,1,0
408,344,135983,2,0,B|356:304|288:320,1,120,4|8
204,348,136845,2,0,B|156:348|124:312,1,80,0|8
200,252,137535,6,0,B|152:196|184:124,1,120,0|8
93,94,138397,1,0
176,44,138742,2,0,B|222:100|300:59,1,120,4|8
367,38,139604,2,0,B|418:31|447:57,1,80,4|8
390,134,140294,5,4
473,180,140638,1,2
305,273,141328,1,2
207,110,142018,1,2
26,171,142707,5,2
74,254,143052,2,0,B|148:232|202:274,1,120,8|0
260,327,143914,2,0,B|306:308|352:321,1,80,8|4
410,256,144604,1,8
410,256,144776,2,0,B|404:213|432:180,1,80,8|8
283,63,145811,6,0,B|233:108|161:80,1,120,4|8
77,60,146673,1,0
105,151,147018,2,0,B|145:205|123:273,1,120,4|8
109,359,147880,1,0
109,359,148225,1,8
199,329,148569,6,0,B|250:369|323:344,1,120,0|8
408,353,149431,1,0
457,270,149776,2,0,B|424:208|463:146,1,120,4|8
417,67,150638,2,0,B|390:101|339:103,1,80,4|8
272,45,151328,5,4
178,67,151673,1,2
47,207,152362,1,2
233,163,153052,1,2
178,347,153742,5,2
178,347,154087,2,0,B|220:293|302:306,1,120,8|8
378,325,154949,2,0,B|387:273|351:238,1,80,0|4
403,163,155638,1,8
402,163,155811,2,0,B|392:111|428:76,1,80,8|4
233,32,156845,5,4
141,59,157190,2,0,B|100:78|53:71,1,80,2|0
194,135,158052,2,0,B|157:190|191:263,1,120,4|2
115,316,158914,2,0,B|90:317|64:325,2,40,0|0|2
207,341,159604,1,4
281,280,159949,2,0,B|312:314|302:369,1,80,2|0
411,257,160811,6,0,B|454:198|426:133,1,120,4|2
378,65,161673,2,0,B|338:87|337:133,1,80,4|2
256,77,162362,6,0,B|144:33|212:113|88:73,1,160,4|8
256,77,163742,2,0,B|368:33|300:113|424:73,1,160,4|8
332,254,165121,2,0,B|332:330|256:350|176:330|176:254,1,240,4|8
176,255,166500,1,4
256,192,166673,12,4,167880
256,192,178914,5,4
179,226,179259,2,0,B|150:227|119:209,1,60,2|0
240,312,180121,2,0,B|284:288|340:300,1,89.9999973177911,4|2
396,348,180983,2,0,B|420:316|408:284,1,59.9999982118607,0|2
404,156,182018,6,0,B|387:129|391:98,1,59.9999982118607,2|0
290,22,182880,2,0,B|272:68|227:83,1,89.9999973177911,4|2
147,104,183742,2,0,B|163:144|195:156,1,59.9999982118607,0|2
328,236,184776,6,0,B|352:252|388:252,1,60,2|0
250,303,185638,2,0,B|206:279|150:291,1,89.9999973177911,4|2
94,339,186500,2,0,B|70:307|82:275,1,59.9999982118607,0|2
107,153,187535,6,0,B|124:126|120:95,1,59.9999982118607,2|0
222,22,188397,2,0,B|239:68|284:83,1,89.9999973177911,4|2
365,104,189259,2,0,B|349:144|317:156,1,59.9999982118607,0|2
256,236,189949,5,4
258,332,190294,2,0,B|214:334|184:298,1,80,8|0
47,335,191156,2,0,B|67:272|27:206,1,120,4|8
130,215,192018,2,0,B|104:176|110:135,1,80,0|8
270,35,193052,6,0,B|311:65|357:46,1,80,8|0
210,128,193914,2,0,B|190:191|230:257,1,120,4|8
215,339,194776,2,0,B|162:333|147:288,1,80,0|8
342,320,195811,6,0,B|382:353|426:332,1,80,8|0
311,237,196673,2,0,B|259:282|185:252,1,120,4|8
130,325,197535,2,0,B|92:287|100:241,1,80,0|8
157,177,198225,6,0,B|188:121|167:59,1,120,4|8
310,78,199259,1,2
310,78,199604,2,0,B|358:126|430:108,2,120,4|8|8
256,158,200983,6,0,B|196:195|141:171|141:171|116:206,1,160,4|8
175,280,202018,1,0
175,280,202190,2,0,B|258:297|324:244|324:244|328:270|342:288,1,200,4|8
422,236,203397,1,8
370,150,203742,6,0,B|336:111|350:67,1,80,4|8
260,47,204431,1,4
260,47,204604,2,0,B|176:64,1,80,8|4
92,176,205466,1,8
92,176,205638,2,0,B|170:159|170:159|202:219|157:277,1,200,4|4
351,271,207190,5,8
330,79,207880,2,0,B|256:132|172:73,1,160,4|8
182,270,209259,6,0,B|210:236|210:184,1,80,4|8
330,270,209949,2,0,B|302:236|302:184,1,80,4|8
302,172,210466,1,4
256,88,210811,2,0,B|256:36,3,40,0|8|0|4
