osu file format v9

[General]
AudioFilename: wotamincatfood.mp3
AudioLeadIn: 0
PreviewTime: 57373
Countdown: 0
SampleSet: Normal
StackLeniency: 0.7
Mode: 0
LetterboxInBreaks: 1

[Editor]
DistanceSpacing: 1.3
BeatDivisor: 2
GridSize: 4

[Metadata]
Title:Cat Food
Artist:Wotamin
Creator:rEdo
Version:Insane
Source:doriko
Tags:vocaloid hatsune miku kanpakyin s_o_r_d_a sorda

[Difficulty]
HPDrainRate:7
CircleSize:4
OverallDifficulty:7
ApproachRate:8
SliderMultiplier:1.6
SliderTickRate:1

[Events]
//Background and Video events
0,0,"wotamincatfood.jpg"
//Break Periods
2,90838,100923
2,168080,178164
//Storyboard Layer 0 (Background)
//Storyboard Layer 1 (Fail)
//Storyboard Layer 2 (Pass)
//Storyboard Layer 3 (Foreground)
//Storyboard Sound Samples
//Background Colour Transformations
3,100,163,162,255

[TimingPoints]
2363,344.827586206897,4,2,1,100,1,0
33052,-100,4,2,1,70,0,0
33742,-100,4,2,1,100,0,0
35035,-100,4,2,1,70,0,0
35423,-100,4,2,1,100,0,0
40380,-100,4,1,1,80,0,0
40552,-100,4,2,1,100,0,0
43311,-100,4,1,1,70,0,0
43699,-100,4,2,1,100,0,0
46500,-133.333333333333,4,2,1,100,0,0
46587,-133.333333333333,4,2,1,85,0,0
49259,-100,4,2,1,100,0,0
51587,-100,4,2,1,80,0,0
52018,-133.333333333333,4,2,1,100,0,0
52061,-133.333333333333,4,2,1,90,0,0
54776,-100,4,2,1,100,0,0
57535,-100,4,2,1,100,0,1
63397,-100,4,2,1,90,0,1
65725,-100,4,2,1,100,0,1
74259,-100,4,2,1,90,0,1
76845,-100,4,2,1,100,0,1
79000,-100,4,1,1,80,0,1
79518,-100,4,2,1,100,0,1
85121,-133.333333333333,4,2,1,85,0,1
87880,-100,4,2,1,100,0,1
88483,-100,4,1,1,70,0,1
89259,-100,4,2,1,100,0,0
90638,-100,4,2,1,100,0,1
90811,-100,4,2,1,100,0,0
110294,-100,4,1,1,70,0,0
110983,-100,4,2,1,100,0,0
112363,-100,4,1,1,70,0,0
112664,-100,4,2,1,100,0,0
119431,-100,4,2,1,90,0,0
119776,-100,4,1,1,80,0,0
120121,-100,4,2,1,90,0,0
120466,-100,4,1,1,70,0,0
120983,-100,4,2,1,100,0,0
123742,-133.333333333333,4,2,1,100,0,0
123785,-133.333333333333,4,2,1,85,0,0
126500,-100,4,2,1,100,0,0
128828,-100,4,2,1,80,0,0
129259,-133.333333333333,4,2,1,100,0,0
129302,-133.333333333333,4,2,1,90,0,0
132018,-100,4,2,1,100,0,0
134776,-100,4,2,1,100,0,1
140638,-100,4,2,1,90,0,1
143052,-100,4,2,1,100,0,1
151673,-100,4,2,1,90,0,1
154087,-100,4,2,1,100,0,1
156242,-100,4,1,1,80,0,1
156759,-100,4,2,1,100,0,1
161156,-100,4,1,1,80,0,1
161759,-100,4,2,1,80,0,1
161931,-100,4,1,1,80,0,1
162362,-133.333333333333,4,2,1,85,0,1
164690,-133.333333333333,4,1,1,70,0,1
165121,-100,4,2,1,100,0,1
165811,-100,4,1,1,70,0,1
166500,-100,4,2,1,100,0,0
167880,-100,4,2,1,100,0,1
168052,-100,4,2,1,100,0,0
178914,-133.333333333333,4,2,1,85,0,0
179087,-133.333333333333,4,2,1,80,0,0
189604,-100,4,1,1,70,0,0
189949,-100,4,2,1,100,0,0
200983,-100,4,2,1,100,0,0
206156,-100,4,1,1,80,0,0
206615,-100,4,2,1,100,0,0
209431,-100,4,1,1,80,0,0
210466,-100,4,2,1,100,0,0

[Colours]
Combo1 : 220,100,0
Combo2 : 170,50,50

[HitObjects]
146,67,24431,1,4
146,67,24604,1,0
77,121,24776,2,0,B|106:167|77:220,1,80,2|0
53,279,25121,1,0
140,270,25294,1,0
199,205,25466,1,2
224,289,25638,6,0,B|289:351|391:302,1,160
453,346,26156,1,2
440,259,26328,2,0,B|420:217|444:170,1,80
360,89,26673,1,0
225,108,26845,1,8
372,309,27190,5,4
372,309,27363,1,0
288,283,27535,2,0,B|250:263|194:279,1,80,2|0
176,356,27880,1,0
209,275,28052,1,0
199,187,28225,1,2
145,118,28397,6,0,B|205:182|322:139,1,160
370,104,28914,1,2
348,222,29087,1,0
461,183,29259,1,0
338,309,29604,6,0,B|268:258|172:290,1,160,8|4
185,285,30121,1,0
114,338,30294,2,0,B|84:292|107:245,1,80,2|0
148,188,30638,1,0
98,115,30811,1,0
148,188,30983,1,2
170,50,31156,6,0,B|234:121|347:67,1,160
393,36,31673,1,0
384,123,31845,1,0
384,123,31931,1,0
384,123,32018,2,0,B|357:165|376:218,1,80,2|0
431,264,32363,2,0,B|397:294|348:285,1,80,8|0
273,259,32707,5,8
161,305,32880,1,8
288,101,33225,1,8
56,163,33569,1,8
274,262,33914,6,0,B|372:252|396:172,1,160,8|0
412,88,34431,1,8
473,191,34604,1,0
413,87,34776,2,0,B|250:59,1,160,8|8
231,56,35207,1,8
208,52,35294,1,8
185,48,35380,1,8
162,44,35466,1,4
92,97,35638,5,0
140,170,35811,2,0,B|162:217|119:268,1,80,8|0
49,272,36156,1,0
111,333,36328,1,0
197,317,36500,1,8
236,238,36673,6,0,B|257:183|330:198,1,80
311,282,37018,2,0,B|362:295|408:249,1,80,0|8
427,345,37363,1,0
386,266,37535,1,0
416,183,37707,1,0
329,199,37880,1,8
352,44,38052,1,8
279,95,38225,6,0,B|240:120|188:100,1,80,4|0
138,43,38569,2,0,B|108:72|115:131,1,80,8|0
202,105,38914,1,0
171,186,39087,1,0
195,271,39259,1,8
109,250,39431,6,0,B|96:270|69:267|69:267|95:201|45:154,1,160
111,94,39949,2,0,B|82:66|31:74,1,80,8|0
51,160,40294,1,0
111,94,40466,1,0
200,105,40638,2,0,B|274:158|367:116,1,160,8|4
432,280,41328,6,0,B|358:227|265:269,1,160,8|0
199,298,41845,1,0
216,211,42018,1,8
98,269,42190,6,0,B|147:188|73:109,1,160
68,34,42707,1,8
150,65,42880,1,0
237,56,43052,2,0,B|282:79|330:57,1,80,0|0
440,135,43397,1,0
433,158,43483,1,0
427,181,43569,1,0
420,204,43656,1,0
414,227,43742,6,0,B|368:227|314:242,1,80,8|0
155,275,44259,2,0,B|178:235|191:180,1,80,0|8
331,63,44776,2,0,B|304:100|307:157,1,80,0|4
136,42,45294,1,0
49,98,45466,1,8
16,196,45638,1,0
52,294,45811,1,4
313,323,46156,5,2
335,315,46242,1,0
357,307,46328,1,0
379,299,46414,1,0
401,291,46500,2,0,B|436:272|451:248|451:216|421:179,1,119.999996423721,4|2
372,137,47018,1,0
296,156,47190,2,0,B|261:137|246:113|246:81|275:44,1,119.999996423721,0|2
144,154,47880,6,0,B|179:173|194:197|194:229|165:266,1,119.999996423721,0|2
115,306,48397,1,0
186,335,48569,2,0,B|252:304|305:364,1,119.999996423721,0|2
423,198,49259,6,0,B|407:116,1,80,4|0
320,80,49604,2,0,B|336:162,1,80,8|8
313,260,49949,1,0
234,327,50121,1,0
131,309,50294,1,8
38,148,50466,6,0,B|88:60|186:98,1,160,4|8
256,64,50983,1,8
305,137,51156,2,0,B|343:113|344:64,1,80,0|8
417,213,51673,5,8
411,236,51759,1,8
405,259,51845,1,8
400,282,51931,1,8
395,305,52018,2,0,B|332:284|275:328,1,119.999996423721,4|8
134,271,52707,1,0
64,306,52880,1,0
69,227,53052,1,8
100,74,53397,6,0,B|163:95|220:51,1,119.999996423721,4|8
365,96,54087,1,4
463,50,54259,1,8
463,50,54345,1,0
463,50,54431,1,8
365,96,54604,1,0
456,157,54776,5,4
400,320,54949,1,0
56,157,55466,1,4
112,320,55638,1,0
332,64,55983,6,0,B|259:19|172:67,1,160,4|0
184,184,56500,1,2
256,328,56673,1,0
328,184,56845,1,4
255,243,57190,5,8
255,243,57535,6,0,B|191:172|96:224,1,160,4|8
47,279,58052,1,0
56,103,58397,1,8
288,56,58742,6,0,B|351:116|440:80,1,160,4|0
476,159,59259,2,0,B|450:198|468:252,1,80,8|0
404,301,59604,1,0
322,268,59776,1,0
257,327,59949,2,0,B|215:349|171:326,1,80,8|0
71,360,60294,6,0,B|130:286|79:204,1,160,0|8
171,211,60811,1,0
18,123,61156,1,8
245,48,61500,6,0,B|311:114|251:224,1,160,4|8
220,291,62018,1,8
125,295,62190,1,8
125,295,62276,1,8
125,295,62363,2,0,B|58:228|118:118,1,160,4|8
310,324,63052,1,4
360,56,63397,6,0,B|280:106|207:36,1,160,2|0
156,109,63914,1,0
69,90,64087,1,2
94,174,64259,2,0,B|106:217|78:273,2,80
156,109,64776,1,2
240,135,64949,2,0,B|286:147|327:106,1,80
389,44,65294,5,0
314,117,65466,1,2
304,221,65638,1,0
349,315,65811,1,8
68,276,66156,1,0
178,340,66328,1,8
163,213,66500,2,0,B|134:171|155:121,1,80,0|8
389,44,67018,6,0,B|317:92|356:188,1,160,4|8
393,282,67535,2,0,B|437:286|472:309,2,80,8|8|8
289,267,68052,1,2
265,272,68138,1,0
241,278,68225,1,0
217,284,68311,1,0
193,290,68397,1,0
169,296,68483,1,0
145,301,68569,6,0,B|77:331|28:264|55:214,1,160,4|8
8,143,69087,1,0
151,42,69431,1,8
387,82,69776,6,0,B|313:138|353:246,1,160,4|0
383,306,70294,1,8
207,313,70638,2,0,B|171:290|120:304|120:303,1,80
129,301,70983,1,8
63,138,71328,6,0,B|153:156|196:66,1,160,0|8
257,132,71845,1,0
409,43,72190,1,8
370,279,72535,6,0,B|308:352|213:301,1,160,4|8
155,254,73052,1,8
70,279,73225,1,8
70,279,73311,1,8
70,279,73397,2,0,B|102:188|31:128|30:127,1,160,4|8
294,45,74087,1,4
242,311,74431,6,0,B|313:247|392:296,1,160,2|0
477,302,74949,2,0,B|479:263|450:226,1,80,0|2
461,140,75294,1,0
380,174,75466,1,0
308,123,75638,2,0,B|298:79|322:44,1,80,0|2
228,76,75983,2,0,B|195:111|153:100,1,80
86,47,76328,5,0
86,47,76500,2,0,B|148:117|113:216,1,160,2|8
322,241,77190,1,0
322,241,77363,1,8
458,84,77707,1,8
259,51,78052,6,0,B|197:121|232:220,1,160,4|8
321,210,78569,1,8
370,291,78742,2,0,B|338:317|284:304,1,80,8|4
198,300,79087,1,0
183,318,79173,1,0
160,326,79259,1,0
136,327,79345,1,0
112,320,79431,1,0
128,184,79604,1,4
306,76,79949,6,0,B|269:48|209:65,2,80,2|0|0
389,48,80466,1,2
432,218,80811,6,0,B|449:256|424:295|384:324|339:305,1,160,4|0
238,331,81328,1,2
265,230,81500,1,0
339,305,81673,2,0,B|294:224|356:148,1,160,4|2
100,45,82363,1,4
162,309,82707,6,0,B|125:337|65:320,2,80,2|0|0
245,337,83225,1,2
417,300,83569,2,0,B|353:230|394:144,1,160,4|0
445,82,84087,1,2
334,36,84259,5,0
334,36,84345,1,0
334,36,84431,1,4
300,134,84604,1,0
211,188,84776,1,2
108,171,84949,1,2
30,241,85121,6,0,B|67:284|64:321|64:321|84:313|110:317,1,119.999996423721,4|0
156,267,85638,1,0
169,344,85811,1,8
317,297,86156,1,8
327,220,86328,1,0
389,269,86500,1,4
390,113,86845,6,0,B|428:105|461:129,2,59.9999982118607,0|0|8
319,77,87363,2,0,B|296:104|251:89,1,59.9999982118607,0|8
195,56,87707,1,8
136,117,87880,6,0,B|99:139|39:145,1,80,4|0
24,240,88225,2,0,B|60:217|120:211,1,80,8|0
199,278,88569,1,0
215,295,88656,1,0
237,303,88742,1,0
260,303,88828,1,0
282,293,88914,1,0
304,283,89000,1,0
327,283,89087,1,0
349,291,89173,1,0
364,307,89259,6,0,B|335:205|399:145,1,160,4|2
295,57,89776,2,0,B|324:159|260:219,1,160,2|2
181,263,90294,1,2
84,223,90466,1,0
59,122,90638,1,4
366,67,101673,5,4
366,67,101845,1,0
435,121,102018,2,0,B|406:167|435:220,1,80,2|0
396,281,102363,1,0
314,314,102535,1,0
230,285,102707,1,2
156,333,102880,6,0,B|88:363|39:296|66:246,1,160,0|0
48,164,103397,1,2
116,109,103569,2,0,B|139:72|123:32,1,80
202,131,103914,1,0
333,94,104087,1,8
156,333,104431,5,4
156,333,104604,1,0
238,302,104776,2,0,B|282:318|321:281,1,80,2|0
395,257,105121,1,0
378,343,105294,1,0
461,313,105466,1,2
423,168,105638,6,0,B|328:204|276:101,1,160
212,69,106156,1,2
123,137,106328,1,0
227,180,106500,1,0
378,90,106845,6,0,B|314:157|354:245,1,160,8|4
350,237,107363,1,0
303,311,107535,2,0,B|259:298|222:329,1,80,2|0
157,271,107880,1,0
74,302,108052,1,0
157,271,108225,1,2
25,229,108397,6,0,B|-8:132|67:65,1,160
129,37,108914,1,0
201,87,109087,1,0
201,87,109173,1,0
201,87,109259,2,0,B|239:113|286:95,1,80,2|0
343,39,109604,2,0,B|375:79|362:137,1,80,8|0
329,193,109949,5,8
421,268,110121,1,8
184,309,110466,1,0
119,77,110811,1,0
329,193,111156,6,0,B|252:258|310:350,1,160,8|0
364,274,111673,1,8
436,322,111845,1,0
444,234,112018,2,0,B|466:135|381:84,1,160,8|0
374,79,112449,1,0
350,72,112535,1,0
326,71,112621,1,0
302,76,112707,1,4
225,120,112880,5,0
159,61,113052,2,0,B|119:45|82:71,1,80,8|0
25,137,113397,1,0
41,223,113569,1,0
119,264,113742,1,8
203,239,113914,6,0,B|248:223|292:256,1,80
275,335,114259,1,0
354,296,114431,1,8
437,325,114604,1,0
419,239,114776,2,0,B|438:157,1,80
348,156,115121,2,0,B|347:114|329:74,1,80,8|8
246,102,115466,6,0,B|207:75|160:90,1,80,4|0
108,150,115811,2,0,B|75:117|83:73,1,80,8|0
169,87,116156,1,0
192,173,116328,1,0
108,150,116500,1,8
46,271,116673,6,0,B|131:225|207:307,1,160
278,270,117190,2,0,B|312:291|360:282,1,80,8|0
441,265,117535,1,0
350,198,117707,1,0
427,116,117880,2,0,B|360:45|262:100,1,160,8|4
112,40,118569,6,0,B|163:48|186:102,1,80,8|0
103,125,118914,2,0,B|77:160|97:220,1,80
150,267,119259,1,8
134,353,119431,2,0,B|186:275|291:327,1,160,4|0
394,252,119949,5,0
410,166,120121,2,0,B|358:244|253:192,1,160,4|0
247,188,120552,1,0
230,170,120638,1,0
223,146,120725,1,0
223,122,120811,1,0
231,99,120897,1,0
240,77,120983,6,0,B|189:92|149:52,1,80,8|0
120,236,121500,2,0,B|111:182|58:163,1,80,0|8
222,320,122018,2,0,B|245:278|310:276,1,80,0|4
195,79,122535,1,0
293,43,122707,1,8
391,76,122880,1,0
447,163,123052,1,4
220,313,123397,5,2
198,305,123483,1,0
176,297,123569,1,0
154,289,123656,1,0
132,281,123742,2,0,B|97:262|82:238|82:206|112:169,1,119.999996423721,4|2
115,104,124259,1,0
186,72,124431,2,0,B|210:103|237:113|268:108|305:85,1,119.999996423721,0|2
426,172,125121,6,0,B|409:197|384:211|350:215|316:194,1,119.999996423721,0|2
288,267,125638,1,0
210,273,125811,2,0,B|192:249|161:233|125:239|99:256,1,119.999996423721,0|2
95,77,126500,6,0,B|177:130|248:51,1,160,4|8
325,38,127018,1,8
388,98,127190,2,0,B|414:140|474:135,1,80,8|0
458,47,127535,1,8
422,240,127707,6,0,B|368:315|280:277,1,160,4|8
196,254,128225,1,8
147,327,128397,2,0,B|109:303|108:254,1,80,0|8
250,158,128914,5,8
256,135,129000,1,8
262,112,129087,1,8
267,89,129173,1,8
272,66,129259,2,0,B|335:87|392:43,1,119.999996423721,4|8
448,164,129949,1,0
392,220,130121,1,0
468,240,130294,1,8
332,316,130638,6,0,B|280:272|212:296,1,119.999996423721,4|8
180,112,131328,1,4
196,196,131500,1,8
196,196,131587,1,0
196,196,131673,1,8
136,256,131845,1,0
56,227,132018,5,4
112,64,132190,1,0
456,227,132707,1,4
400,64,132880,1,0
180,320,133225,6,0,B|253:365|340:317,1,160,4|0
328,200,133742,1,2
256,56,133914,1,0
184,200,134087,1,4
257,141,134431,5,8
257,141,134776,6,0,B|321:212|416:160,1,160,4|8
479,123,135294,1,0
455,296,135638,1,8
184,324,135983,6,0,B|126:247|26:288,1,160,4|0
63,196,136500,2,0,B|92:159|76:112,1,80,8|0
38,42,136845,1,0
78,120,137018,2,0,B|127:111|148:64,1,80,0|8
159,177,137362,1,0
257,152,137535,6,0,B|319:83|409:118,1,160,0|8
473,63,138052,1,0
454,238,138397,1,8
238,71,138742,6,0,B|154:107|81:36,1,160,4|8
126,159,139259,1,8
52,233,139431,1,8
52,233,139518,1,8
52,233,139604,2,0,B|71:321|161:335,1,160,4|8
238,71,140294,1,4
411,285,140638,6,0,B|378:200|446:129,1,160,2|0
433,47,141156,2,0,B|396:78|343:59,1,80,0|2
303,132,141500,1,0
238,71,141673,1,0
154,99,141845,2,0,B|111:110|67:84,1,80,0|2
42,171,142190,2,0,B|72:211|55:260,1,80
33,346,142535,5,0
59,247,142707,1,2
128,169,142880,1,0
227,138,143052,1,8
360,337,143397,1,0
461,273,143569,1,8
347,235,143742,2,0,B|298:239|276:282,1,80,0|8
450,104,144259,6,0,B|379:168|284:120,1,160,4|8
218,158,144776,2,0,B|173:163|143:130,2,80,8|8|8
273,238,145294,1,2
250,246,145380,1,0
227,255,145466,1,0
204,264,145552,1,0
181,273,145638,1,0
158,282,145725,1,0
135,291,145811,6,0,B|67:321|18:254|45:204,1,160,4|8
16,125,146328,1,0
170,39,146673,2,0,B|234:117|334:58,1,160,8|4
437,194,147362,6,0,B|414:238|434:288,1,80,0|8
360,326,147707,1,0
337,240,147880,2,0,B|334:190|292:157,1,80,0|0
251,239,148225,2,0,B|217:270|168:257,1,80,8|0
118,345,148569,6,0,B|171:266|120:170,1,160,0|8
131,192,149087,1,0
44,39,149431,2,0,B|110:111|196:58,1,160,8|4
457,107,150121,5,8
359,50,150294,1,8
303,148,150466,1,8
400,204,150638,2,0,B|345:285|252:246,1,160,4|8
98,68,151328,1,4
124,306,151673,6,0,B|220:265|278:338,1,160,2|0
334,268,152190,2,0,B|373:294|416:276,1,80,0|2
461,349,152535,1,0
410,278,152707,1,0
442,195,152880,2,0,B|425:153|456:112,1,80,0|2
380,66,153225,2,0,B|340:84|297:56,1,80
222,26,153569,5,0
222,26,153742,2,0,B|296:89|246:192,1,160,2|8
40,63,154431,1,0
40,63,154604,1,8
175,261,154949,1,8
222,26,155294,6,0,B|283:105|381:46,1,160,4|8
446,87,155811,1,8
417,170,155983,2,0,B|388:210|413:269,1,80,8|4
343,320,156328,1,0
320,324,156414,1,0
295,323,156500,1,0
271,317,156587,1,0
250,304,156673,1,0
138,348,156845,1,4
115,141,157190,6,0,B|73:151|28:128,2,80,2|0|0
199,167,157707,1,2
414,61,158052,2,0,B|348:130|402:221,1,160,4|0
460,267,158569,1,2
376,294,158742,1,4
309,236,158914,2,0,B|277:267|289:318,1,80
206,345,159259,1,2
36,132,159604,1,4
295,47,159949,6,0,B|337:57|382:34,2,80,2|0|0
211,73,160466,1,2
410,131,160811,2,0,B|483:202|419:312,1,160,4|0
435,278,161242,1,0
435,278,161328,1,0
318,253,161500,1,0
318,253,161587,1,0
318,253,161673,1,0
231,335,161845,1,0
127,343,162018,1,0
60,263,162190,1,0
86,161,162362,6,0,B|163:148|184:71,1,119.999996423721,4|0
251,116,162880,1,0
236,39,163052,1,8
418,129,163397,1,8
367,188,163569,1,0
443,203,163742,1,4
270,254,164087,2,0,B|311:262|341:293,1,59.9999982118607
229,314,164431,2,0,B|187:305|157:274,1,59.9999982118607,8|0
69,299,164776,5,0
69,299,164862,1,0
69,299,164949,1,0
69,299,165035,1,0
69,299,165121,2,0,B|67:251|12:218,1,80,4|0
83,160,165466,2,0,B|111:122|91:62,1,80,8|0
199,106,165811,1,0
215,89,165897,1,0
237,81,165983,1,0
260,81,166069,1,0
282,91,166156,1,0
304,101,166242,1,0
327,101,166328,1,0
349,93,166414,1,0
364,77,166500,6,0,B|335:179|399:239,1,160,4|8
464,273,167018,1,8
199,332,167362,1,8
316,86,167707,1,8
316,86,167880,1,4
256,192,178914,5,4
208,44,179259,6,0,B|172:60|131:35,1,59.9999982118607,2|0
87,92,179604,1,0
38,152,179776,1,0
102,196,179949,1,0
151,136,180121,2,0,B|225:151|273:86,1,119.999996423721,4|0
207,43,180638,1,2
208,44,180811,1,2
284,28,180983,2,0,B|318:48|358:30,1,59.9999982118607
358,112,181328,2,0,B|398:106|415:65,1,59.9999982118607,2|0
479,50,181673,1,4
445,165,182018,6,0,B|404:219|436:295,1,119.999996423721,2|0
487,331,182535,1,0
487,331,182707,1,2
413,355,182880,2,0,B|339:368|290:308,1,119.999996423721,4|0
227,302,183397,2,0,B|196:321|158:307,1,59.9999982118607,2|0
95,337,183742,1,0
109,260,183914,1,0
35,287,184087,1,2
107,96,184431,5,4
304,44,184776,6,0,B|340:60|381:35,1,59.9999982118607,2|0
425,92,185121,1,0
474,152,185294,1,0
410,196,185466,1,0
361,136,185638,2,0,B|287:151|239:86,1,119.999996423721,4|0
305,43,186156,1,2
304,44,186328,1,2
228,28,186500,2,0,B|194:48|154:30,1,59.9999982118607
154,112,186845,2,0,B|114:106|97:65,1,59.9999982118607,2|0
33,50,187190,1,4
67,165,187535,6,0,B|108:219|76:295,1,119.999996423721,2|0
25,331,188052,1,0
25,331,188225,1,2
99,355,188397,2,0,B|173:368|222:308,1,119.999996423721,4|2
285,302,188914,2,0,B|316:321|353:307,1,59.9999982118607,0|0
417,337,189259,1,2
403,260,189431,1,0
449,196,189604,5,0
449,196,189690,1,0
449,196,189776,1,0
449,196,189862,1,0
449,196,189949,2,0,B|418:156|435:100,1,80,4|0
452,35,190294,2,0,B|404:24|363:58,1,80,2|2
298,90,190638,1,0
207,55,190811,1,0
223,149,190983,1,2
298,90,191156,6,0,B|368:152|327:255,1,160,4|0
352,322,191673,1,2
352,322,191845,1,2
269,295,192018,2,0,B|224:284|183:315,1,80
115,351,192362,1,2
21,305,192535,1,0
80,219,192707,1,4
258,58,193052,6,0,B|325:124|425:68,1,160,2|0
404,166,193569,1,0
477,117,193742,1,2
458,259,193914,6,0,B|396:331|296:280,1,160,4|0
249,349,194431,2,0,B|216:326|171:335,1,80,2|0
90,302,194776,1,0
144,213,194949,1,0
54,161,195121,1,2
276,68,195466,5,4
175,285,195811,6,0,B|213:314|264:288,1,80,2|2
319,238,196156,1,0
412,282,196328,1,0
328,343,196500,1,2
319,238,196673,6,0,B|377:166|328:77,1,160,4|0
259,39,197190,2,0,B|220:66|160:44,1,80,2|0
98,78,197535,1,2
159,161,197707,1,0
67,210,197880,1,0
295,283,198225,6,0,B|328:331|381:356|464:318,1,160,4|0
395,215,198742,2,0,B|362:167|309:142|226:180,1,160,2|0
231,329,199259,2,0,B|196:362|144:344,1,80,2|0
64,320,199604,1,4
256,192,199690,12,8,200638
153,264,200983,6,0,B|94:252|55:184|72:141,2,160,4|8|0
234,229,201845,1,0
223,316,202018,1,8
359,264,202190,6,0,B|418:252|457:184|440:141,1,160,4|0
383,78,202707,2,0,B|337:88|303:57,1,80,8|0
235,112,203052,2,0,B|194:127|149:133,1,80
80,19,203397,2,0,B|90:64|72:100,1,80,8|8
137,217,203742,6,0,B|88:298|-16:248,2,160,4|8|4
219,185,204604,2,0,B|272:212|316:190,1,80,0|8
382,241,204949,1,4
461,187,205121,2,0,B|469:162|467:133,3,53.3333333333333,0|0|0|8
397,69,205638,2,0,B|307:120|228:32,1,160,8|8
222,61,206069,1,8
194,69,206156,1,0
167,77,206242,1,0
140,85,206328,1,0
113,93,206414,1,0
86,101,206500,6,0,B|54:93|24:69,2,53.3333333333333
63,137,206845,2,0,B|34:151|-5:152,2,53.3333333333333,8|0|0
71,179,207190,1,0
109,200,207305,1,0
151,200,207420,1,0
187,178,207535,1,8
188,220,207650,1,0
203,261,207765,1,0
235,288,207880,6,0,B|288:312|349:291,1,80
409,340,208225,1,8
409,340,208311,1,0
409,340,208397,1,0
409,340,208483,1,0
409,340,208569,2,0,B|368:252|437:185,1,160,0|8
256,192,209259,5,4
144,164,209431,1,0
144,164,209518,1,0
144,164,209604,1,0
326,97,209776,1,0
326,97,209862,1,0
326,97,209949,1,0
292,288,210121,1,0
292,288,210207,1,0
292,288,210294,1,0
256,192,210466,1,4
372,121,210811,5,0
185,76,210983,1,8
140,263,211156,1,0
327,308,211328,1,4
