osu file format v14

[General]
AudioFilename: huniepop_ost_1_main_theme.mp3
AudioLeadIn: 1000
PreviewTime: 17419
Countdown: 0
SampleSet: Soft
StackLeniency: 0.7
Mode: 0
LetterboxInBreaks: 0
WidescreenStoryboard: 0

[Editor]
Bookmarks: 9677,63870,125806,140080
DistanceSpacing: 1.2
BeatDivisor: 4
GridSize: 4
TimelineZoom: 1

[Metadata]
Title:HuniePop Theme
TitleUnicode:HuniePop Theme
Artist:World of Wandag
ArtistUnicode:World of Wandag
Creator:Pereira006
Version:Normal
Source:HuniePop
Tags:soundtrack Menu PC Puzzle Eroge Visual Novel Dating Sim Main
BeatmapID:788192
BeatmapSetID:358450

[Difficulty]
HPDrainRate:3
CircleSize:3.5
OverallDifficulty:3
ApproachRate:4
SliderMultiplier:1.3
SliderTickRate:1

[Events]
//Background and Video events
0,0,"bg.jpg",0,0
//Break Periods
//Storyboard Layer 0 (Background)
//Storyboard Layer 1 (Fail)
//Storyboard Layer 2 (Pass)
//Storyboard Layer 3 (Foreground)
//Storyboard Sound Samples

[TimingPoints]
0,483.870967741935,4,2,0,40,1,0
9193,-100,4,1,0,20,0,0
9677,-100,4,2,0,40,0,0
16935,-100,4,1,0,20,0,0
17419,-100,4,2,0,30,0,0
24677,-100,4,1,0,20,0,0
25161,-100,4,2,0,30,0,0
32419,-100,4,1,0,20,0,0
32903,-100,4,2,0,40,0,0
40161,-100,4,1,0,20,0,0
40645,-100,4,2,0,40,0,0
47903,-100,4,1,0,20,0,0
48387,-100,4,2,0,40,0,0
71129,-100,4,1,0,20,0,0
71612,-100,4,2,0,40,0,0
78870,-100,4,1,0,20,0,0
79354,-100,4,2,0,30,0,0
86612,-100,4,1,0,20,0,0
87096,-100,4,2,0,30,0,0
94354,-100,4,1,0,20,0,0
94838,-100,4,2,0,40,0,0
102096,-100,4,1,0,20,0,0
102580,-100,4,2,0,40,0,0
109838,-100,4,1,0,20,0,0
110322,-100,4,2,0,40,0,0

[Colours]
Combo1 : 255,128,64
Combo2 : 0,255,255
Combo3 : 244,0,0

[HitObjects]
128,188,1935,6,0,P|145:126|195:87,1,130,2|8,0:0|0:0,0:0:0:0:
276,80,2661,1,0,0:0:0:0:
352,88,2903,2,0,P|404:128|420:188,1,130,2|8,0:0|0:0,0:0:0:0:
348,324,3870,2,0,P|220:356|120:284,1,260,2|2,0:0|0:0,0:0:0:0:
88,216,5080,1,0,0:0:0:0:
104,140,5322,1,8,0:0:0:0:
240,64,5806,6,0,P|336:56|412:112,1,195,2|0,0:0|0:0,0:0:0:0:
428,188,6774,1,2,0:0:0:0:
408,264,7016,1,0,0:0:0:0:
344,308,7258,1,8,0:0:0:0:
268,332,7499,2,0,P|196:328|160:280,2,130
239,257,8709,1,2,0:0:0:0:
304,116,9193,1,0,1:0:0:0:
180,20,9677,6,0,P|115:20|52:36,1,130,4|8,0:0|0:0,0:0:0:0:
8,100,10403,1,0,0:0:0:0:
0,176,10645,2,0,P|8:240|40:296,1,130,2|8,0:0|0:0,0:0:0:0:
188,252,11612,2,0,P|300:248|404:344,1,260,2|2,0:0|0:0,0:0:0:0:
484,344,12822,1,0,0:0:0:0:
488,268,13064,1,8,0:0:0:0:
400,140,13548,6,0,P|284:84|148:96,1,260,2|2,0:0|0:0,0:0:0:0:
256,192,14758,12,2,16452,0:0:0:0:
84,92,17419,6,0,P|148:84|212:100,2,130,4|8|2,0:0|1:0|0:0,0:0:0:0:
24,144,18629,2,0,P|8:168|0:208,1,65,0|8,0:0|1:0,0:0:0:0:
4,280,19112,2,0,P|10:311|28:338,1,65,0|2,0:0|0:0,0:0:0:0:
104,328,19596,2,0,P|136:320|172:324,1,65,0|8,0:0|1:0,0:0:0:0:
244,332,20080,2,0,P|276:334|307:326,1,65,0|2,0:0|0:0,0:0:0:0:
424,220,20806,1,8,1:0:0:0:
388,68,21290,5,2,0:0:0:0:
232,52,21774,1,8,1:0:0:0:
220,128,22016,2,0,P|164:88|160:24,2,130,0|0|0,0:0|0:0|0:0,0:0:0:0:
292,156,23225,1,2,0:0:0:0:
252,304,23709,1,8,1:0:0:0:
180,328,23951,2,0,P|116:308|48:200,1,195,0|0,0:0|0:0,0:0:0:0:
156,92,25161,6,0,P|100:60|32:48,2,130,4|8|2,0:0|1:0|0:0,0:0:0:0:
232,96,26370,2,0,P|264:88|296:88,1,65,0|8,0:0|1:0,0:0:0:0:
372,100,26854,2,0,P|400:124|412:148,1,65,0|2,0:0|0:0,0:0:0:0:
412,228,27338,2,0,P|397:256|372:277,1,65,0|8,0:0|1:0,0:0:0:0:
296,296,27822,2,0,P|264:295|233:288,1,65,0|2,0:0|0:0,0:0:0:0:
168,144,28548,1,8,1:0:0:0:
308,72,29032,5,2,0:0:0:0:
444,148,29516,1,8,1:0:0:0:
384,196,29758,2,0,P|444:224|504:196,2,130,0|0|0,0:0|0:0|0:0,0:0:0:0:
308,176,30967,1,2,0:0:0:0:
204,292,31451,1,8,1:0:0:0:
140,340,31693,2,0,P|48:308|12:224,1,195,0|0,0:0|0:0,0:0:0:0:
88,88,32903,6,0,P|148:56|212:48,2,130,4|8|2,0:0|0:0|0:0,0:0:0:0:
56,160,34112,1,0,0:0:0:0:
84,232,34354,1,8,0:0:0:0:
216,316,34838,2,0,P|268:340|344:332,1,130,2|8,0:0|0:0,0:0:0:0:
380,268,35564,2,0,P|404:208|404:144,1,130,0|8,0:0|0:0,0:0:0:0:
364,76,36290,1,8,0:0:0:0:
212,44,36774,6,0,P|152:28|96:68,2,130,2|8|2,0:0|0:0|0:0,0:0:0:0:
164,104,37983,1,0,0:0:0:0:
140,176,38225,1,8,0:0:0:0:
148,252,38467,2,0,P|232:316|324:328,1,195,2|8,0:0|0:0,0:0:0:0:
472,296,39677,2,0,P|476:224|468:156,1,130,2|0,0:0|0:0,0:0:0:0:
348,68,40645,6,0,P|400:32|472:24,2,130,4|8|2,0:0|0:0|0:0,0:0:0:0:
324,144,41854,1,0,0:0:0:0:
288,212,42096,1,8,0:0:0:0:
192,336,42580,2,0,P|128:328|68:300,1,130,2|8,0:0|0:0,0:0:0:0:
48,224,43306,2,0,P|56:160|88:104,1,130,0|0,0:0|0:0,0:0:0:0:
156,64,44032,1,8,0:0:0:0:
232,40,44274,6,0,P|296:36|368:48,1,130,4|0,0:0|0:0,0:0:0:0:
412,104,44999,1,8,0:0:0:0:
456,168,45241,2,0,P|471:199|472:232,1,65,4|0,0:0|0:0,0:0:0:0:
256,192,45725,12,2,47419,0:0:0:0:
40,96,48387,22,0,P|108:96|160:132,1,130,4|8,0:0|0:0,0:0:0:0:
172,284,49354,1,2,0:0:0:0:
244,252,49596,2,0,P|275:257|301:276,1,65,0|8,0:0|0:0,0:0:0:0:
368,320,50080,2,0,P|432:348|492:308,2,130
424,268,51290,1,2,0:0:0:0:
320,148,51774,1,8,0:0:0:0:
200,48,52258,6,0,P|136:60|76:92,1,130,2|8,0:0|0:0,0:0:0:0:
40,156,52983,2,0,P|32:192|36:224,1,65,0|2,0:0|0:0,0:0:0:0:
160,312,53709,1,8,0:0:0:0:
240,312,53951,2,0,P|212:252|140:236,2,130,0|0|0,0:0|0:0|0:0,0:0:0:0:
308,356,55161,2,0,P|376:368|440:360,1,130,2|8,0:0|0:0,0:0:0:0:
500,216,56129,6,0,P|480:152|432:116,1,130,2|8,0:0|0:0,0:0:0:0:
304,204,57096,1,2,0:0:0:0:
236,244,57338,2,0,P|204:260|168:268,1,65,0|8,0:0|0:0,0:0:0:0:
104,236,57822,2,0,P|104:304|160:344,2,130,0|0|0,0:0|0:0|0:0,0:0:0:0:
156,176,59032,1,2,0:0:0:0:
304,136,59516,1,8,0:0:0:0:
164,324,60241,6,0,L|104:356,3,65,0|8|0|2,0:0|0:0|0:0|0:0,0:0:0:0:
196,136,61693,2,0,L|140:100,4,65,0|2|0|8|4,0:0|0:0|0:0|0:0|3:0,0:0:0:0:
396,312,63870,6,0,P|336:336|272:344,1,130,4|8,0:0|0:0,0:0:0:0:
200,308,64596,1,0,0:0:0:0:
124,320,64838,2,0,P|68:284|36:224,1,130,2|8,0:0|0:0,0:0:0:0:
96,84,65806,2,0,P|228:68|352:92,1,260,2|2,0:0|0:0,0:0:0:0:
424,120,67016,1,0,0:0:0:0:
464,188,67258,1,8,0:0:0:0:
312,224,67741,6,0,P|208:232|132:280,1,195,2|0,0:0|0:0,0:0:0:0:
72,328,68709,1,2,0:0:0:0:
20,272,68951,1,0,0:0:0:0:
36,196,69193,1,8,0:0:0:0:
108,168,69435,2,0,P|64:124|-4:128,2,130,0|0|2,0:0|0:0|0:0,0:0:0:0:
164,228,70645,1,2,0:0:0:0:
320,248,71129,1,0,0:0:0:0:
468,204,71612,6,0,P|464:132|452:76,1,130,4|8,0:0|0:0,0:0:0:0:
380,44,72338,1,0,0:0:0:0:
304,36,72580,2,0,P|240:32|164:44,1,130,2|8,0:0|0:0,0:0:0:0:
44,124,73548,2,0,P|40:256|136:336,1,260,2|2,0:0|0:0,0:0:0:0:
208,332,74758,1,0,0:0:0:0:
284,316,74999,1,8,0:0:0:0:
412,224,75483,6,0,P|352:100|240:44,1,260,2|2,0:0|0:0,0:0:0:0:
256,192,76693,12,2,78387,0:0:0:0:
324,344,79354,6,0,P|396:336|452:304,2,130,4|8|2,0:0|1:0|0:0,0:0:0:0:
260,300,80564,2,0,P|228:288|196:288,1,65,0|8,0:0|1:0,0:0:0:0:
120,304,81048,2,0,P|84:292|56:272,1,65,0|2,0:0|0:0,0:0:0:0:
48,200,81532,2,0,P|80:188|112:188,1,65,0|8,0:0|1:0,0:0:0:0:
188,204,82016,2,0,P|224:192|252:172,1,65,0|2,0:0|0:0,0:0:0:0:
312,36,82741,1,8,1:0:0:0:
456,96,83225,5,2,0:0:0:0:
476,252,83709,1,8,1:0:0:0:
400,264,83951,2,0,P|436:320|500:324,2,130
384,188,85161,1,2,0:0:0:0:
248,260,85645,1,8,1:0:0:0:
196,316,85887,2,0,P|132:296|64:188,1,195,0|0,0:0|0:0,0:0:0:0:
164,72,87096,6,0,P|220:40|288:28,2,130,4|8|2,0:0|1:0|0:0,0:0:0:0:
164,152,88306,2,0,L|180:216,1,65,0|8,0:0|1:0,0:0:0:0:
260,216,88790,2,0,L|276:152,1,65,0|2,0:0|0:0,0:0:0:0:
356,152,89274,2,0,L|372:216,1,65,0|8,0:0|1:0,0:0:0:0:
452,216,89758,2,0,L|468:152,1,65,0|2,0:0|0:0,0:0:0:0:
348,52,90483,1,8,1:0:0:0:
196,16,90967,5,2,0:0:0:0:
72,108,91451,1,8,1:0:0:0:
132,160,91693,2,0,P|72:188|12:160,2,130,0|0|0,0:0|0:0|0:0,0:0:0:0:
208,168,92903,1,2,0:0:0:0:
224,324,93387,1,8,1:0:0:0:
300,344,93629,2,0,P|400:340|480:276,1,195,0|0,0:0|0:0,0:0:0:0:
444,132,94838,6,0,P|384:100|324:128,2,130,4|8|2,0:0|0:0|0:0,0:0:0:0:
384,184,96048,1,0,0:0:0:0:
324,232,96290,1,8,0:0:0:0:
208,336,96774,2,0,P|144:343|84:317,1,130,2|8,0:0|0:0,0:0:0:0:
116,248,97499,2,0,P|140:188|140:124,1,130,0|8,0:0|0:0,0:0:0:0:
72,84,98225,1,8,0:0:0:0:
220,32,98709,6,0,P|280:32|344:56,2,130,2|8|2,0:0|0:0|0:0,0:0:0:0:
196,108,99919,1,0,0:0:0:0:
172,184,100161,1,8,0:0:0:0:
224,240,100403,2,0,P|308:304|400:288,1,195,2|8,0:0|0:0,0:0:0:0:
432,140,101612,2,0,P|388:92|332:56,1,130,2|0,0:0|0:0,0:0:0:0:
176,48,102580,6,0,P|112:56|44:92,2,130,4|8|2,0:0|0:0|0:0,0:0:0:0:
208,120,103790,1,0,0:0:0:0:
224,196,104032,1,8,0:0:0:0:
196,348,104516,2,0,P|132:340|72:312,1,130,2|8,0:0|0:0,0:0:0:0:
20,256,105241,2,0,P|28:192|60:136,1,130,0|0,0:0|0:0,0:0:0:0:
124,88,105967,1,8,0:0:0:0:
196,60,106209,6,0,P|260:56|332:68,1,130,4|0,0:0|0:0,0:0:0:0:
372,128,106935,1,8,0:0:0:0:
352,204,107177,2,0,P|320:216|287:213,1,65,4|0,0:0|0:0,0:0:0:0:
256,192,107661,12,2,109354,0:0:0:0:
140,344,110322,6,0,P|80:320|40:264,1,130,4|8,0:0|0:0,0:0:0:0:
60,112,111290,1,2,0:0:0:0:
116,60,111532,2,0,P|156:48|184:48,1,65,0|8,0:0|0:0,0:0:0:0:
256,56,112016,2,0,P|320:64|384:92,2,130,0|0|0,0:0|0:0|0:0,0:0:0:0:
224,128,113225,1,2,0:0:0:0:
236,284,113709,1,8,0:0:0:0:
376,348,114193,6,0,P|436:308|464:252,1,130,2|8,0:0|0:0,0:0:0:0:
456,180,114919,2,0,P|440:144|424:120,1,65,0|2,0:0|0:0,0:0:0:0:
356,84,115403,1,0,0:0:0:0:
280,100,115645,1,8,0:0:0:0:
204,100,115887,2,0,P|232:40|296:28,2,130
224,176,117096,2,0,P|220:240|180:292,1,130,2|8,0:0|0:0,0:0:0:0:
24,296,118064,6,0,P|16:232|16:160,1,130,2|8,0:0|0:0,0:0:0:0:
128,56,119032,1,2,0:0:0:0:
196,96,119274,2,0,P|228:112|260:112,1,65,0|8,0:0|0:0,0:0:0:0:
312,56,119758,2,0,P|372:68|404:128,2,130
328,132,120967,1,2,0:0:0:0:
372,280,121451,1,8,0:0:0:0:
208,112,122177,6,0,L|152:80,3,65,0|8|0|2,0:0|0:0|0:0|0:0,0:0:0:0:
384,48,123629,2,0,L|448:32,4,65,0|2|0|8|4,0:0|0:0|0:0|0:0|3:0,0:0:0:0:
152,356,125806,6,0,L|136:288,1,65,4|0,0:0|0:0,0:0:0:0:
68,252,126290,2,0,L|96:192,1,65,8|0,0:0|0:0,0:0:0:0:
124,120,126774,1,2,0:0:0:0:
192,80,127016,2,0,P|284:56|376:92,1,195,2|0,0:0|0:0,0:0:0:0:
428,144,127983,2,0,P|460:200|460:264,1,130,2|0,0:0|0:0,0:0:0:0:
412,324,128709,2,0,P|352:352|288:352,1,130,2|8,0:0|0:0,0:0:0:0:
296,196,129677,6,0,P|288:164|268:132,1,65,2|0,0:0|0:0,0:0:0:0:
204,100,130161,1,8,0:0:0:0:
128,92,130403,2,0,P|64:92|4:120,1,130,0|0,0:0|0:0,0:0:0:0:
0,200,131129,1,8,0:0:0:0:
20,276,131370,2,0,P|60:280|92:292,1,65,0|2,0:0|0:0,0:0:0:0:
144,336,131854,2,0,P|244:348|336:308,1,195,0|2,0:0|0:0,0:0:0:0:
392,268,132822,1,8,0:0:0:0:
412,192,133064,1,8,0:0:0:0:
324,64,133548,6,0,L|260:48,1,65,2|0,0:0|0:0,0:0:0:0:
184,48,134032,2,0,L|120:64,1,65,8|0,0:0|0:0,0:0:0:0:
64,120,134516,1,2,0:0:0:0:
36,192,134758,2,0,P|44:264|136:352,1,195,0|2,0:0|0:0,0:0:0:0:
180,292,135725,2,0,P|244:276|304:292,1,130,0|0,0:0|0:0,0:0:0:0:
368,340,136451,2,0,P|420:296|440:236,1,130,2|8,0:0|0:0,0:0:0:0:
324,36,137661,6,0,L|264:68,3,65,0|8|0|2,0:0|0:0|0:0|0:0,0:0:0:0:
76,204,139112,2,0,L|20:168,4,65,0|2|0|8|4,0:0|0:0|0:0|0:0|3:0,0:0:0:0:
