osu file format v13

[General]
AudioFilename: Electronic Super Joy - Revive.mp3
AudioLeadIn: 0
PreviewTime: 41682
Countdown: 1
SampleSet: Soft
StackLeniency: 0.7
Mode: 3
LetterboxInBreaks: 0
SpecialStyle: 0
WidescreenStoryboard: 0

[Editor]
DistanceSpacing: 1.2
BeatDivisor: 4
GridSize: 8
TimelineZoom: 1

[Metadata]
Title:Electronic Super joy
TitleUnicode:Electronic Super joy
Artist:World 1
ArtistUnicode:World 1
Creator:IamBaum
Version:Stage 3
Source:
Tags:
BeatmapID:543815
BeatmapSetID:234456

[Difficulty]
HPDrainRate:5
CircleSize:4
OverallDifficulty:7
ApproachRate:5
SliderMultiplier:1.4
SliderTickRate:1

[Events]
//Background and Video events
0,0,"Electronic Super Joy.png",0,0
Video,-600,"World 1 - Level 3.avi"
//Break Periods
//Storyboard Layer 0 (Background)
//Storyboard Layer 1 (Fail)
//Storyboard Layer 2 (Pass)
//Storyboard Layer 3 (Foreground)
//Storyboard Sound Samples

[TimingPoints]
339,419.727177334732,4,2,0,15,1,0

[HitObjects]
320,192,130,5,0,0:0:0:0:
64,192,339,1,8,0:0:0:0:
192,192,339,1,8,0:0:0:0:
320,192,549,1,0,0:0:0:0:
192,192,969,1,0,0:0:0:0:
320,192,1179,1,8,0:0:0:0:
448,192,1179,1,8,0:0:0:0:
64,192,1808,1,0,0:0:0:0:
320,192,1808,1,0,0:0:0:0:
192,192,2018,1,0,0:0:0:0:
448,192,2228,1,0,0:0:0:0:
320,192,2648,1,0,0:0:0:0:
64,192,2858,1,8,0:0:0:0:
192,192,2858,1,8,0:0:0:0:
192,192,3487,1,0,0:0:0:0:
448,192,3487,1,0,0:0:0:0:
320,192,3697,1,0,0:0:0:0:
64,192,3907,1,8,0:0:0:0:
192,192,3907,1,8,0:0:0:0:
320,192,4327,1,0,0:0:0:0:
192,192,4537,1,8,0:0:0:0:
448,192,4537,1,8,0:0:0:0:
320,192,5166,1,0,0:0:0:0:
192,192,5376,1,8,0:0:0:0:
448,192,5376,1,8,0:0:0:0:
320,192,5586,1,0,0:0:0:0:
192,192,6006,1,0,0:0:0:0:
320,192,6216,1,8,0:0:0:0:
448,192,6216,1,8,0:0:0:0:
192,192,6635,1,8,0:0:0:0:
320,192,6635,1,8,0:0:0:0:
448,192,6845,1,0,0:0:0:0:
192,192,7055,1,0,0:0:0:0:
320,192,7265,1,0,0:0:0:0:
64,192,7475,1,8,0:0:0:0:
192,192,7475,1,8,0:0:0:0:
448,192,7685,1,0,0:0:0:0:
320,192,7894,1,8,0:0:0:0:
192,192,7894,1,8,0:0:0:0:
192,192,8314,1,8,0:0:0:0:
320,192,8314,1,8,0:0:0:0:
448,192,8524,1,0,0:0:0:0:
320,192,8734,1,0,0:0:0:0:
192,192,8944,1,0,0:0:0:0:
448,192,9154,1,0,0:0:0:0:
320,192,9363,1,0,0:0:0:0:
64,192,9573,1,8,0:0:0:0:
448,192,9573,1,8,0:0:0:0:
320,192,9993,1,0,0:0:0:0:
192,192,10203,1,0,0:0:0:0:
320,192,10413,1,8,0:0:0:0:
448,192,10413,1,8,0:0:0:0:
320,192,10833,1,0,0:0:0:0:
192,192,11042,1,0,0:0:0:0:
64,192,11252,1,8,0:0:0:0:
320,192,11252,1,8,0:0:0:0:
192,192,12511,1,0,0:0:0:0:
64,192,12511,1,0,0:0:0:0:
64,192,12931,1,12,0:0:0:0:
192,192,12931,1,12,0:0:0:0:
448,192,12931,1,12,0:0:0:0:
320,192,12931,1,12,0:0:0:0:
192,192,13351,1,0,0:0:0:0:
320,192,13351,1,0,0:0:0:0:
64,192,13771,1,12,0:0:0:0:
320,192,13771,1,12,0:0:0:0:
448,192,13771,1,12,0:0:0:0:
448,192,14190,1,0,0:0:0:0:
192,192,14400,1,0,0:0:0:0:
320,192,14610,1,0,0:0:0:0:
448,192,14610,1,0,0:0:0:0:
320,192,14820,1,0,0:0:0:0:
448,192,14820,1,0,0:0:0:0:
192,192,15030,1,0,0:0:0:0:
320,192,15030,1,0,0:0:0:0:
64,192,15240,1,0,0:0:0:0:
192,192,15240,1,0,0:0:0:0:
192,192,15659,1,0,0:0:0:0:
320,192,15869,1,0,0:0:0:0:
192,192,16079,1,0,0:0:0:0:
320,192,16289,1,8,0:0:0:0:
448,192,16289,1,8,0:0:0:0:
64,192,16289,1,8,0:0:0:0:
192,192,16709,1,8,0:0:0:0:
320,192,16709,1,8,0:0:0:0:
64,192,16709,1,8,0:0:0:0:
192,192,17128,1,8,0:0:0:0:
64,192,17128,1,8,0:0:0:0:
448,192,17128,1,8,0:0:0:0:
192,192,17548,1,0,0:0:0:0:
320,192,17548,1,0,0:0:0:0:
448,192,17758,1,0,0:0:0:0:
64,192,17968,1,8,0:0:0:0:
64,192,18178,1,8,0:0:0:0:
192,192,18178,1,8,0:0:0:0:
64,192,18388,1,8,0:0:0:0:
192,192,18597,1,8,0:0:0:0:
64,192,18597,1,8,0:0:0:0:
320,192,19227,1,0,0:0:0:0:
192,192,19437,1,0,0:0:0:0:
320,192,19647,1,8,0:0:0:0:
448,192,19647,1,8,0:0:0:0:
64,192,19647,1,8,0:0:0:0:
192,192,20067,1,8,0:0:0:0:
320,192,20067,1,8,0:0:0:0:
448,192,20067,1,8,0:0:0:0:
64,192,20486,1,8,0:0:0:0:
192,192,20486,1,8,0:0:0:0:
320,192,20486,1,8,0:0:0:0:
192,192,20906,1,0,0:0:0:0:
320,192,20906,1,0,0:0:0:0:
64,192,21116,1,0,0:0:0:0:
320,192,21326,1,0,0:0:0:0:
448,192,21326,1,0,0:0:0:0:
192,192,21536,1,0,0:0:0:0:
64,192,21745,1,0,0:0:0:0:
320,192,21745,1,0,0:0:0:0:
448,192,21955,1,0,0:0:0:0:
192,192,22165,1,0,0:0:0:0:
320,192,22165,1,0,0:0:0:0:
64,192,22375,1,0,0:0:0:0:
320,192,22585,1,0,0:0:0:0:
448,192,22585,1,0,0:0:0:0:
64,192,22795,1,0,0:0:0:0:
192,192,23005,1,8,0:0:0:0:
448,192,23005,128,0,23424:0:0:0:0:
320,192,23005,1,8,0:0:0:0:
64,192,23424,1,8,0:0:0:0:
192,192,23424,128,0,23844:0:0:0:0:
448,192,23844,1,8,0:0:0:0:
320,192,23844,128,0,24264:0:0:0:0:
64,192,24264,1,8,0:0:0:0:
192,192,24264,128,0,24684:0:0:0:0:
320,192,24684,1,8,0:0:0:0:
64,192,24684,1,8,0:0:0:0:
448,192,24684,128,0,25523:0:0:0:0:
64,192,25103,1,0,0:0:0:0:
192,192,25103,1,0,0:0:0:0:
320,192,25523,1,0,0:0:0:0:
192,192,25523,1,0,0:0:0:0:
64,192,25733,1,0,0:0:0:0:
448,192,25943,1,0,0:0:0:0:
192,192,25943,1,0,0:0:0:0:
320,192,26153,1,0,0:0:0:0:
64,192,26362,1,8,0:0:0:0:
192,192,26362,1,8,0:0:0:0:
448,192,26362,1,8,0:0:0:0:
192,192,26782,1,8,0:0:0:0:
64,192,26782,1,8,0:0:0:0:
320,192,27202,1,8,0:0:0:0:
64,192,27202,1,8,0:0:0:0:
448,192,27622,1,0,0:0:0:0:
320,192,27622,1,0,0:0:0:0:
192,192,27831,1,0,0:0:0:0:
64,192,28041,1,8,0:0:0:0:
320,192,28041,1,8,0:0:0:0:
320,192,28461,1,8,0:0:0:0:
192,192,28461,1,8,0:0:0:0:
64,192,28881,1,8,0:0:0:0:
448,192,28881,1,8,0:0:0:0:
192,192,29301,1,0,0:0:0:0:
448,192,29301,1,0,0:0:0:0:
320,192,29510,1,0,0:0:0:0:
192,192,29720,1,8,0:0:0:0:
64,192,29720,1,8,0:0:0:0:
448,192,30140,1,8,0:0:0:0:
320,192,30140,1,8,0:0:0:0:
192,192,30560,1,8,0:0:0:0:
320,192,30560,1,8,0:0:0:0:
192,192,30979,1,0,0:0:0:0:
320,192,30979,1,0,0:0:0:0:
448,192,31189,1,0,0:0:0:0:
64,192,31399,1,8,0:0:0:0:
192,192,31399,1,8,0:0:0:0:
192,192,31819,1,8,0:0:0:0:
448,192,31819,1,8,0:0:0:0:
64,192,32239,5,8,0:0:0:0:
320,192,32239,1,8,0:0:0:0:
320,192,32658,1,0,0:0:0:0:
64,192,32658,1,0,0:0:0:0:
192,192,32868,1,0,0:0:0:0:
448,192,33078,5,8,0:0:0:0:
320,192,33078,1,8,0:0:0:0:
192,192,33498,1,8,0:0:0:0:
448,192,33498,1,8,0:0:0:0:
64,192,33918,1,8,0:0:0:0:
192,192,33918,1,8,0:0:0:0:
192,192,34337,1,8,0:0:0:0:
320,192,34337,1,8,0:0:0:0:
448,192,34757,1,8,0:0:0:0:
192,192,34757,1,8,0:0:0:0:
64,192,35177,1,8,0:0:0:0:
192,192,35177,1,8,0:0:0:0:
192,192,35596,1,8,0:0:0:0:
448,192,35596,1,8,0:0:0:0:
320,192,36016,1,8,0:0:0:0:
192,192,36016,1,8,0:0:0:0:
64,192,36436,1,8,0:0:0:0:
192,192,36436,1,8,0:0:0:0:
64,192,36646,1,8,0:0:0:0:
192,192,36646,1,8,0:0:0:0:
320,192,36646,1,8,0:0:0:0:
192,192,36856,1,8,0:0:0:0:
64,192,36856,1,8,0:0:0:0:
320,192,37275,1,8,0:0:0:0:
448,192,37275,1,8,0:0:0:0:
320,192,37485,1,8,0:0:0:0:
448,192,37485,1,8,0:0:0:0:
192,192,37485,1,8,0:0:0:0:
448,192,37695,1,8,0:0:0:0:
320,192,37695,1,8,0:0:0:0:
192,192,38115,1,8,0:0:0:0:
320,192,38115,1,8,0:0:0:0:
192,192,38325,1,8,0:0:0:0:
320,192,38325,1,8,0:0:0:0:
64,192,38325,1,8,0:0:0:0:
192,192,38535,1,8,0:0:0:0:
320,192,38535,1,8,0:0:0:0:
192,192,38744,1,8,0:0:0:0:
320,192,38744,1,8,0:0:0:0:
448,192,38744,1,8,0:0:0:0:
192,192,38954,1,8,0:0:0:0:
320,192,38954,1,8,0:0:0:0:
192,192,39164,1,8,0:0:0:0:
320,192,39164,1,8,0:0:0:0:
64,192,39164,1,8,0:0:0:0:
192,192,39374,1,8,0:0:0:0:
320,192,39374,1,8,0:0:0:0:
192,192,39584,1,8,0:0:0:0:
320,192,39584,1,8,0:0:0:0:
448,192,39584,1,8,0:0:0:0:
64,192,39794,1,12,0:0:0:0:
192,192,39794,1,12,0:0:0:0:
448,192,39794,1,12,0:0:0:0:
320,192,39794,1,12,0:0:0:0:
192,192,41053,1,0,0:0:0:0:
320,192,41053,1,0,0:0:0:0:
448,192,41263,1,0,0:0:0:0:
192,192,41473,1,8,0:0:0:0:
320,192,41473,1,8,0:0:0:0:
64,192,41473,1,8,0:0:0:0:
320,192,41892,1,0,0:0:0:0:
448,192,41997,1,0,0:0:0:0:
320,192,42102,1,0,0:0:0:0:
64,192,42312,1,8,0:0:0:0:
192,192,42312,1,8,0:0:0:0:
448,192,42312,1,8,0:0:0:0:
192,192,42732,1,8,0:0:0:0:
448,192,42732,1,8,0:0:0:0:
320,192,42732,1,8,0:0:0:0:
64,192,42942,1,8,0:0:0:0:
320,192,42942,1,8,0:0:0:0:
192,192,43152,1,8,0:0:0:0:
320,192,43152,1,8,0:0:0:0:
448,192,43152,1,8,0:0:0:0:
320,192,43361,1,8,0:0:0:0:
448,192,43361,1,8,0:0:0:0:
192,192,43571,1,8,0:0:0:0:
320,192,43571,1,8,0:0:0:0:
448,192,43571,1,8,0:0:0:0:
64,192,43781,1,8,0:0:0:0:
192,192,43781,1,8,0:0:0:0:
192,192,43991,1,8,0:0:0:0:
448,192,43991,1,8,0:0:0:0:
64,192,44201,1,0,0:0:0:0:
320,192,44411,1,0,0:0:0:0:
192,192,44411,1,0,0:0:0:0:
448,192,44621,1,0,0:0:0:0:
192,192,44830,1,8,0:0:0:0:
320,192,44830,1,8,0:0:0:0:
64,192,44830,1,8,0:0:0:0:
192,192,45250,1,8,0:0:0:0:
320,192,45250,1,8,0:0:0:0:
448,192,45250,1,8,0:0:0:0:
64,192,45670,1,8,0:0:0:0:
320,192,45670,1,8,0:0:0:0:
448,192,45670,1,8,0:0:0:0:
320,192,46090,1,0,0:0:0:0:
64,192,46090,1,0,0:0:0:0:
192,192,46299,1,0,0:0:0:0:
192,192,46509,1,8,0:0:0:0:
320,192,46509,1,8,0:0:0:0:
64,192,46509,1,8,0:0:0:0:
320,192,46719,1,8,0:0:0:0:
448,192,46719,1,8,0:0:0:0:
192,192,46929,1,8,0:0:0:0:
320,192,46929,1,8,0:0:0:0:
64,192,46929,1,8,0:0:0:0:
320,192,47139,1,8,0:0:0:0:
448,192,47139,1,8,0:0:0:0:
64,192,47349,1,8,0:0:0:0:
320,192,47349,1,8,0:0:0:0:
192,192,47349,1,8,0:0:0:0:
192,192,47769,1,8,0:0:0:0:
320,192,47769,1,8,0:0:0:0:
448,192,47769,1,8,0:0:0:0:
192,192,47978,1,8,0:0:0:0:
64,192,47978,1,8,0:0:0:0:
192,192,48188,1,8,0:0:0:0:
320,192,48188,1,8,0:0:0:0:
448,192,48188,1,8,0:0:0:0:
64,192,48608,1,8,0:0:0:0:
320,192,48608,1,8,0:0:0:0:
448,192,48608,1,8,0:0:0:0:
448,192,49028,1,8,0:0:0:0:
192,192,49028,1,8,0:0:0:0:
64,192,49028,1,8,0:0:0:0:
192,192,49447,1,8,0:0:0:0:
448,192,49447,1,8,0:0:0:0:
320,192,49447,1,8,0:0:0:0:
64,192,49657,1,0,0:0:0:0:
192,192,49867,1,0,0:0:0:0:
448,192,49867,1,0,0:0:0:0:
320,192,50077,1,0,0:0:0:0:
64,192,50287,1,0,0:0:0:0:
192,192,50287,1,0,0:0:0:0:
448,192,50287,1,0,0:0:0:0:
320,192,50497,1,0,0:0:0:0:
64,192,50707,1,0,0:0:0:0:
448,192,50707,1,0,0:0:0:0:
192,192,50916,1,0,0:0:0:0:
320,192,51126,1,0,0:0:0:0:
448,192,51126,1,0,0:0:0:0:
64,192,51336,1,0,0:0:0:0:
192,192,51546,128,8,51756:0:0:0:0:
320,192,51546,128,8,51756:0:0:0:0:
448,192,51546,1,8,0:0:0:0:
448,192,51966,128,8,52176:0:0:0:0:
192,192,51966,128,8,52176:0:0:0:0:
64,192,51966,1,8,0:0:0:0:
64,192,52386,128,8,52595:0:0:0:0:
320,192,52386,128,8,52595:0:0:0:0:
448,192,52386,1,8,0:0:0:0:
448,192,52805,128,8,53015:0:0:0:0:
320,192,52805,128,8,53015:0:0:0:0:
192,192,52805,1,8,0:0:0:0:
64,192,53225,128,12,54064:0:0:0:0:
192,192,53225,128,12,54064:0:0:0:0:
320,192,53225,128,12,54064:0:0:0:0:
64,192,54274,128,0,54484:0:0:0:0:
192,192,54484,128,0,54694:0:0:0:0:
320,192,54694,128,0,54904:0:0:0:0:
448,192,54904,1,8,0:0:0:0:
192,192,54904,1,8,0:0:0:0:
64,192,54904,128,8,55324:0:0:0:0:
320,192,55114,1,0,0:0:0:0:
320,192,55324,1,0,0:0:0:0:
192,192,55743,128,8,55953:0:0:0:0:
448,192,55743,1,8,0:0:0:0:
320,192,56163,1,0,0:0:0:0:
192,192,56373,1,0,0:0:0:0:
320,192,56583,1,0,0:0:0:0:
448,192,56583,1,0,0:0:0:0:
320,192,56793,1,0,0:0:0:0:
448,192,56793,1,0,0:0:0:0:
192,192,57003,1,0,0:0:0:0:
64,192,57212,128,0,57632:0:0:0:0:
320,192,57632,1,0,0:0:0:0:
192,192,57842,1,0,0:0:0:0:
448,192,58052,1,0,0:0:0:0:
192,192,58262,128,8,58681:0:0:0:0:
64,192,58262,1,8,0:0:0:0:
320,192,58681,1,8,0:0:0:0:
448,192,58681,128,8,59101:0:0:0:0:
192,192,59101,1,8,0:0:0:0:
64,192,59101,128,8,59521:0:0:0:0:
320,192,59521,1,0,0:0:0:0:
64,192,59731,1,0,0:0:0:0:
192,192,59941,1,8,0:0:0:0:
320,192,59941,1,8,0:0:0:0:
192,192,60150,1,8,0:0:0:0:
64,192,60150,1,8,0:0:0:0:
192,192,60360,1,8,0:0:0:0:
320,192,60360,1,8,0:0:0:0:
192,192,60570,1,8,0:0:0:0:
64,192,60570,1,8,0:0:0:0:
320,192,60780,1,8,0:0:0:0:
448,192,60780,128,8,61620:0:0:0:0:
192,192,61200,1,0,0:0:0:0:
64,192,61410,1,0,0:0:0:0:
64,192,61620,1,8,0:0:0:0:
192,192,61620,128,8,62039:0:0:0:0:
448,192,62039,128,8,62459:0:0:0:0:
320,192,62039,1,8,0:0:0:0:
64,192,62459,128,8,62879:0:0:0:0:
192,192,62459,1,8,0:0:0:0:
192,192,62879,1,8,0:0:0:0:
320,192,62879,1,8,0:0:0:0:
448,192,63089,1,0,0:0:0:0:
320,192,63298,1,8,0:0:0:0:
64,192,63298,1,8,0:0:0:0:
448,192,63508,1,0,0:0:0:0:
320,192,63718,1,8,0:0:0:0:
192,192,63718,1,8,0:0:0:0:
64,192,63928,128,0,64138:0:0:0:0:
192,192,64138,1,0,0:0:0:0:
320,192,64348,1,0,0:0:0:0:
64,192,64558,1,0,0:0:0:0:
192,192,64558,1,0,0:0:0:0:
320,192,64767,1,0,0:0:0:0:
64,192,64977,1,8,0:0:0:0:
448,192,64977,1,8,0:0:0:0:
192,192,64977,128,8,65397:0:0:0:0:
320,192,65397,1,8,0:0:0:0:
448,192,65397,128,8,65817:0:0:0:0:
64,192,65817,1,8,0:0:0:0:
320,192,65817,128,8,66237:0:0:0:0:
64,192,66237,1,8,0:0:0:0:
192,192,66237,128,8,66656:0:0:0:0:
64,192,66656,1,8,0:0:0:0:
320,192,66656,1,8,0:0:0:0:
448,192,66656,128,8,67496:0:0:0:0:
64,192,67076,1,8,0:0:0:0:
320,192,67076,1,8,0:0:0:0:
192,192,67496,1,8,0:0:0:0:
64,192,67496,1,8,0:0:0:0:
320,192,67706,1,0,0:0:0:0:
192,192,67915,1,0,0:0:0:0:
448,192,67915,1,0,0:0:0:0:
64,192,68125,1,0,0:0:0:0:
320,192,68335,1,12,0:0:0:0:
448,192,68335,1,12,0:0:0:0:
192,192,68335,128,12,68755:0:0:0:0:
64,192,68755,128,0,69175:0:0:0:0:
320,192,68755,1,0,0:0:0:0:
320,192,69175,1,0,0:0:0:0:
448,192,69175,128,0,69594:0:0:0:0:
320,192,69594,1,0,0:0:0:0:
192,192,69804,1,0,0:0:0:0:
320,192,70014,1,8,0:0:0:0:
64,192,70014,128,8,70434:0:0:0:0:
192,192,70434,1,0,0:0:0:0:
320,192,70434,128,0,70854:0:0:0:0:
448,192,70854,1,0,0:0:0:0:
64,192,70854,128,0,71273:0:0:0:0:
320,192,71273,1,0,0:0:0:0:
192,192,71483,1,0,0:0:0:0:
320,192,71693,1,8,0:0:0:0:
448,192,71693,128,8,72113:0:0:0:0:
192,192,72113,128,0,72532:0:0:0:0:
64,192,72113,1,0,0:0:0:0:
448,192,72532,1,0,0:0:0:0:
320,192,72532,128,0,72952:0:0:0:0:
192,192,72952,1,0,0:0:0:0:
320,192,73162,1,0,0:0:0:0:
192,192,73372,1,8,0:0:0:0:
448,192,73372,128,8,73792:0:0:0:0:
