osu file format v13

[General]
AudioFilename: Electronic Super joy - Generic Techno.mp3
AudioLeadIn: 0
PreviewTime: 54907
Countdown: 0
SampleSet: Soft
StackLeniency: 0.7
Mode: 3
LetterboxInBreaks: 0
SpecialStyle: 0
WidescreenStoryboard: 0

[Editor]
DistanceSpacing: 1.2
BeatDivisor: 4
GridSize: 8
TimelineZoom: 1

[Metadata]
Title:Electronic Super Joy
TitleUnicode:Electronic Super Joy
Artist:World 1
ArtistUnicode:World 1
Creator:IamBaum
Version:Stage 4
Source:
Tags:
BeatmapID:543816
BeatmapSetID:234456

[Difficulty]
HPDrainRate:5
CircleSize:4
OverallDifficulty:7
ApproachRate:5
SliderMultiplier:1.4
SliderTickRate:1

[Events]
//Background and Video events
0,0,"Electronic Super Joy.png",0,0
Video,0,"World 1 - Level 4.avi"
//Break Periods
//Storyboard Layer 0 (Background)
//Storyboard Layer 1 (Fail)
//Storyboard Layer 2 (Pass)
//Storyboard Layer 3 (Foreground)
//Storyboard Sound Samples
//Background Colour Transformations
3,100,163,162,255

[TimingPoints]
50,428.571428571429,4,2,0,15,1,0

[HitObjects]
192,192,50,5,0,0:0:0:0:
320,192,50,1,0,0:0:0:0:
64,192,157,1,0,0:0:0:0:
192,192,371,1,0,0:0:0:0:
64,192,478,1,0,0:0:0:0:
320,192,478,1,0,0:0:0:0:
192,192,692,1,0,0:0:0:0:
320,192,907,1,0,0:0:0:0:
64,192,907,1,0,0:0:0:0:
192,192,1121,1,0,0:0:0:0:
64,192,1228,1,0,0:0:0:0:
192,192,1335,1,0,0:0:0:0:
320,192,1335,1,0,0:0:0:0:
320,192,1550,1,0,0:0:0:0:
448,192,1657,1,0,0:0:0:0:
320,192,1764,1,0,0:0:0:0:
192,192,1764,1,0,0:0:0:0:
64,192,1871,1,0,0:0:0:0:
320,192,2085,1,0,0:0:0:0:
448,192,2192,1,0,0:0:0:0:
192,192,2192,1,0,0:0:0:0:
64,192,2407,1,0,0:0:0:0:
320,192,2621,1,0,0:0:0:0:
448,192,2621,1,0,0:0:0:0:
192,192,2835,1,0,0:0:0:0:
64,192,3050,1,0,0:0:0:0:
320,192,3050,1,0,0:0:0:0:
192,192,3157,1,0,0:0:0:0:
448,192,3264,1,0,0:0:0:0:
64,192,3371,1,0,0:0:0:0:
192,192,3478,1,0,0:0:0:0:
448,192,3478,1,0,0:0:0:0:
320,192,3585,1,0,0:0:0:0:
192,192,3800,1,0,0:0:0:0:
64,192,3907,1,0,0:0:0:0:
320,192,3907,1,0,0:0:0:0:
192,192,4121,1,0,0:0:0:0:
448,192,4335,1,0,0:0:0:0:
64,192,4335,1,0,0:0:0:0:
64,192,4550,1,0,0:0:0:0:
448,192,4657,1,0,0:0:0:0:
192,192,4764,1,0,0:0:0:0:
320,192,4764,1,0,0:0:0:0:
64,192,4978,1,0,0:0:0:0:
192,192,5085,1,0,0:0:0:0:
320,192,5192,1,0,0:0:0:0:
448,192,5192,1,0,0:0:0:0:
192,192,5407,1,0,0:0:0:0:
320,192,5514,1,0,0:0:0:0:
64,192,5621,1,0,0:0:0:0:
448,192,5621,1,0,0:0:0:0:
320,192,5728,1,0,0:0:0:0:
192,192,5835,1,0,0:0:0:0:
320,192,6050,1,0,0:0:0:0:
192,192,6050,1,0,0:0:0:0:
320,192,6264,1,0,0:0:0:0:
192,192,6478,1,0,0:0:0:0:
320,192,6478,1,0,0:0:0:0:
64,192,6585,1,0,0:0:0:0:
192,192,6692,1,0,0:0:0:0:
64,192,6800,1,0,0:0:0:0:
448,192,6907,1,0,0:0:0:0:
192,192,6907,1,0,0:0:0:0:
320,192,7014,1,0,0:0:0:0:
192,192,7228,1,0,0:0:0:0:
448,192,7335,1,0,0:0:0:0:
320,192,7335,1,0,0:0:0:0:
64,192,7550,1,0,0:0:0:0:
320,192,7764,1,0,0:0:0:0:
448,192,7764,1,0,0:0:0:0:
192,192,7978,1,0,0:0:0:0:
320,192,8085,1,0,0:0:0:0:
448,192,8192,1,0,0:0:0:0:
64,192,8192,1,0,0:0:0:0:
320,192,8407,1,0,0:0:0:0:
192,192,8514,1,0,0:0:0:0:
320,192,8621,1,0,0:0:0:0:
448,192,8621,1,0,0:0:0:0:
192,192,8728,1,0,0:0:0:0:
64,192,8942,1,0,0:0:0:0:
192,192,9050,1,0,0:0:0:0:
320,192,9050,1,0,0:0:0:0:
64,192,9264,1,0,0:0:0:0:
320,192,9478,1,0,0:0:0:0:
448,192,9478,1,0,0:0:0:0:
192,192,9692,1,0,0:0:0:0:
448,192,9800,1,0,0:0:0:0:
64,192,9907,1,0,0:0:0:0:
192,192,9907,1,0,0:0:0:0:
448,192,10121,1,0,0:0:0:0:
192,192,10228,1,0,0:0:0:0:
64,192,10335,1,0,0:0:0:0:
320,192,10335,1,0,0:0:0:0:
448,192,10442,1,0,0:0:0:0:
192,192,10657,1,0,0:0:0:0:
320,192,10764,1,0,0:0:0:0:
448,192,10764,1,0,0:0:0:0:
320,192,10978,1,0,0:0:0:0:
192,192,11192,1,0,0:0:0:0:
448,192,11192,1,0,0:0:0:0:
192,192,11407,1,0,0:0:0:0:
320,192,11514,1,0,0:0:0:0:
448,192,11621,1,0,0:0:0:0:
192,192,11621,1,0,0:0:0:0:
320,192,11728,1,0,0:0:0:0:
192,192,11835,1,0,0:0:0:0:
64,192,11942,1,0,0:0:0:0:
192,192,12050,1,0,0:0:0:0:
448,192,12050,1,0,0:0:0:0:
320,192,12157,1,0,0:0:0:0:
192,192,12371,1,0,0:0:0:0:
320,192,12478,1,0,0:0:0:0:
64,192,12478,1,0,0:0:0:0:
448,192,12692,1,0,0:0:0:0:
64,192,12907,1,0,0:0:0:0:
320,192,12907,1,0,0:0:0:0:
192,192,13121,1,0,0:0:0:0:
448,192,13335,1,0,0:0:0:0:
320,192,13442,1,0,0:0:0:0:
448,192,13550,1,0,0:0:0:0:
320,192,13657,1,0,0:0:0:0:
192,192,13764,1,0,0:0:0:0:
64,192,13764,1,0,0:0:0:0:
448,192,13978,1,0,0:0:0:0:
448,192,14085,1,0,0:0:0:0:
320,192,14192,1,0,0:0:0:0:
192,192,14192,1,0,0:0:0:0:
64,192,14407,1,0,0:0:0:0:
64,192,14514,1,0,0:0:0:0:
192,192,14621,1,0,0:0:0:0:
320,192,14621,1,0,0:0:0:0:
448,192,14728,1,0,0:0:0:0:
448,192,14835,1,0,0:0:0:0:
64,192,15050,1,0,0:0:0:0:
320,192,15050,1,0,0:0:0:0:
192,192,15264,1,0,0:0:0:0:
320,192,15317,1,0,0:0:0:0:
448,192,15371,1,0,0:0:0:0:
64,192,15478,1,0,0:0:0:0:
192,192,15478,1,0,0:0:0:0:
320,192,15692,1,0,0:0:0:0:
192,192,15800,1,0,0:0:0:0:
64,192,15907,1,0,0:0:0:0:
320,192,15907,1,0,0:0:0:0:
448,192,16121,1,0,0:0:0:0:
448,192,16228,1,0,0:0:0:0:
320,192,16335,1,0,0:0:0:0:
192,192,16335,1,0,0:0:0:0:
64,192,16442,1,0,0:0:0:0:
64,192,16550,1,0,0:0:0:0:
64,192,16764,1,0,0:0:0:0:
192,192,16764,1,0,0:0:0:0:
320,192,16817,1,0,0:0:0:0:
448,192,16871,1,0,0:0:0:0:
320,192,16925,1,0,0:0:0:0:
192,192,16978,1,0,0:0:0:0:
64,192,17032,1,0,0:0:0:0:
192,192,17085,1,0,0:0:0:0:
320,192,17139,1,0,0:0:0:0:
448,192,17192,1,0,0:0:0:0:
64,192,17192,1,0,0:0:0:0:
192,192,17407,1,0,0:0:0:0:
192,192,17514,1,0,0:0:0:0:
64,192,17621,1,0,0:0:0:0:
320,192,17621,1,0,0:0:0:0:
448,192,17835,1,0,0:0:0:0:
448,192,17942,1,0,0:0:0:0:
320,192,18050,1,0,0:0:0:0:
192,192,18050,1,0,0:0:0:0:
64,192,18157,1,0,0:0:0:0:
64,192,18264,1,0,0:0:0:0:
320,192,18478,1,0,0:0:0:0:
448,192,18478,1,0,0:0:0:0:
64,192,18692,1,0,0:0:0:0:
192,192,18746,1,0,0:0:0:0:
320,192,18800,1,0,0:0:0:0:
192,192,18907,1,0,0:0:0:0:
448,192,18907,128,0,19121:0:0:0:0:
320,192,19121,1,0,0:0:0:0:
320,192,19228,1,0,0:0:0:0:
448,192,19335,1,0,0:0:0:0:
192,192,19335,1,0,0:0:0:0:
64,192,19550,1,0,0:0:0:0:
64,192,19657,1,0,0:0:0:0:
192,192,19764,1,0,0:0:0:0:
320,192,19764,1,0,0:0:0:0:
448,192,19871,1,0,0:0:0:0:
448,192,19978,1,0,0:0:0:0:
192,192,20192,1,0,0:0:0:0:
64,192,20192,1,0,0:0:0:0:
320,192,20246,1,0,0:0:0:0:
448,192,20300,1,0,0:0:0:0:
320,192,20353,1,0,0:0:0:0:
192,192,20407,1,0,0:0:0:0:
64,192,20460,1,0,0:0:0:0:
192,192,20514,1,0,0:0:0:0:
320,192,20567,1,0,0:0:0:0:
64,192,20621,1,0,0:0:0:0:
448,192,20621,1,0,0:0:0:0:
192,192,20835,1,0,0:0:0:0:
192,192,20942,1,0,0:0:0:0:
320,192,21050,1,0,0:0:0:0:
448,192,21050,1,0,0:0:0:0:
320,192,21264,1,0,0:0:0:0:
320,192,21371,1,0,0:0:0:0:
192,192,21478,1,0,0:0:0:0:
64,192,21478,1,0,0:0:0:0:
448,192,21585,1,0,0:0:0:0:
448,192,21692,1,0,0:0:0:0:
64,192,21907,1,0,0:0:0:0:
320,192,21907,1,0,0:0:0:0:
192,192,22121,1,0,0:0:0:0:
320,192,22175,1,0,0:0:0:0:
448,192,22228,1,0,0:0:0:0:
64,192,22335,1,0,0:0:0:0:
192,192,22335,1,0,0:0:0:0:
448,192,22550,1,0,0:0:0:0:
448,192,22657,1,0,0:0:0:0:
320,192,22764,1,0,0:0:0:0:
192,192,22764,1,0,0:0:0:0:
64,192,22978,1,0,0:0:0:0:
64,192,23085,1,0,0:0:0:0:
192,192,23192,1,0,0:0:0:0:
320,192,23192,1,0,0:0:0:0:
448,192,23300,1,0,0:0:0:0:
448,192,23407,1,0,0:0:0:0:
64,192,23621,1,0,0:0:0:0:
192,192,23621,1,0,0:0:0:0:
320,192,23675,1,0,0:0:0:0:
448,192,23728,1,0,0:0:0:0:
320,192,23782,1,0,0:0:0:0:
192,192,23835,1,0,0:0:0:0:
64,192,23889,1,0,0:0:0:0:
192,192,23942,1,0,0:0:0:0:
320,192,23996,1,0,0:0:0:0:
448,192,24050,1,0,0:0:0:0:
64,192,24050,1,0,0:0:0:0:
192,192,24264,1,0,0:0:0:0:
192,192,24371,1,0,0:0:0:0:
320,192,24478,1,0,0:0:0:0:
448,192,24478,1,0,0:0:0:0:
192,192,24692,1,0,0:0:0:0:
192,192,24800,1,0,0:0:0:0:
64,192,24907,1,0,0:0:0:0:
448,192,24907,1,0,0:0:0:0:
320,192,25014,1,0,0:0:0:0:
320,192,25121,1,0,0:0:0:0:
64,192,25335,1,0,0:0:0:0:
192,192,25335,1,0,0:0:0:0:
448,192,25550,1,0,0:0:0:0:
64,192,25764,1,0,0:0:0:0:
192,192,25764,128,0,25978:0:0:0:0:
320,192,25764,1,0,0:0:0:0:
320,192,25978,128,0,26192:0:0:0:0:
448,192,25978,1,0,0:0:0:0:
64,192,26192,128,0,26407:0:0:0:0:
192,192,26192,1,0,0:0:0:0:
448,192,26407,1,0,0:0:0:0:
320,192,26407,128,0,26621:0:0:0:0:
192,192,26407,1,0,0:0:0:0:
64,192,26621,1,0,0:0:0:0:
192,192,26621,128,0,26835:0:0:0:0:
448,192,26835,1,0,0:0:0:0:
320,192,26835,128,0,27050:0:0:0:0:
64,192,26835,1,0,0:0:0:0:
64,192,27050,1,0,0:0:0:0:
192,192,27050,128,0,27478:0:0:0:0:
64,192,27478,1,0,0:0:0:0:
448,192,27478,1,0,0:0:0:0:
320,192,27692,128,0,27907:0:0:0:0:
64,192,27692,1,0,0:0:0:0:
64,192,27907,1,0,0:0:0:0:
192,192,27907,1,0,0:0:0:0:
448,192,28121,128,0,28335:0:0:0:0:
320,192,28335,1,0,0:0:0:0:
64,192,28335,1,0,0:0:0:0:
192,192,28550,128,0,28764:0:0:0:0:
320,192,28550,1,0,0:0:0:0:
64,192,28764,1,0,0:0:0:0:
448,192,28764,1,0,0:0:0:0:
320,192,28978,128,0,29192:0:0:0:0:
448,192,28978,1,0,0:0:0:0:
64,192,29192,1,0,0:0:0:0:
192,192,29192,1,0,0:0:0:0:
320,192,29407,128,0,29621:0:0:0:0:
192,192,29407,1,0,0:0:0:0:
64,192,29621,1,0,0:0:0:0:
448,192,29621,1,0,0:0:0:0:
192,192,29835,128,0,30050:0:0:0:0:
64,192,29835,1,0,0:0:0:0:
320,192,30050,1,0,0:0:0:0:
448,192,30050,1,0,0:0:0:0:
64,192,30264,128,0,30478:0:0:0:0:
448,192,30264,1,0,0:0:0:0:
192,192,30478,1,0,0:0:0:0:
320,192,30478,1,0,0:0:0:0:
448,192,30692,128,0,30907:0:0:0:0:
192,192,30692,1,0,0:0:0:0:
64,192,30907,1,0,0:0:0:0:
320,192,30907,128,0,31121:0:0:0:0:
192,192,31121,128,0,31335:0:0:0:0:
448,192,31121,1,0,0:0:0:0:
320,192,31335,1,0,0:0:0:0:
64,192,31335,1,0,0:0:0:0:
448,192,31550,128,0,31764:0:0:0:0:
320,192,31550,1,0,0:0:0:0:
64,192,31764,1,0,0:0:0:0:
192,192,31764,1,0,0:0:0:0:
320,192,31978,1,0,0:0:0:0:
64,192,31978,128,0,32192:0:0:0:0:
192,192,32192,1,0,0:0:0:0:
448,192,32192,1,0,0:0:0:0:
320,192,32407,1,0,0:0:0:0:
192,192,32407,128,0,32621:0:0:0:0:
64,192,32621,1,0,0:0:0:0:
448,192,32621,1,0,0:0:0:0:
320,192,32835,1,0,0:0:0:0:
64,192,32835,128,0,33050:0:0:0:0:
192,192,33050,1,0,0:0:0:0:
320,192,33050,1,0,0:0:0:0:
64,192,33264,1,0,0:0:0:0:
448,192,33264,128,0,33478:0:0:0:0:
192,192,33478,1,0,0:0:0:0:
320,192,33478,1,0,0:0:0:0:
448,192,33692,1,0,0:0:0:0:
64,192,33692,128,0,33907:0:0:0:0:
192,192,33907,1,0,0:0:0:0:
320,192,33907,1,0,0:0:0:0:
320,192,34121,128,0,34335:0:0:0:0:
448,192,34121,128,0,34335:0:0:0:0:
320,192,34550,1,0,0:0:0:0:
64,192,34550,128,0,34764:0:0:0:0:
192,192,34764,1,0,0:0:0:0:
448,192,34764,1,0,0:0:0:0:
320,192,34978,1,0,0:0:0:0:
448,192,34978,128,0,35192:0:0:0:0:
64,192,35192,1,0,0:0:0:0:
320,192,35192,1,0,0:0:0:0:
192,192,35407,128,0,35621:0:0:0:0:
448,192,35407,1,0,0:0:0:0:
320,192,35621,128,0,35835:0:0:0:0:
64,192,35621,1,0,0:0:0:0:
448,192,35621,1,0,0:0:0:0:
448,192,35835,1,0,0:0:0:0:
192,192,35835,128,0,36050:0:0:0:0:
448,192,36050,128,0,36264:0:0:0:0:
320,192,36050,1,0,0:0:0:0:
64,192,36050,1,0,0:0:0:0:
64,192,36264,128,0,36478:0:0:0:0:
192,192,36264,1,0,0:0:0:0:
320,192,36478,1,0,0:0:0:0:
448,192,36478,1,0,0:0:0:0:
448,192,36692,1,0,0:0:0:0:
192,192,36692,128,0,36907:0:0:0:0:
320,192,36907,1,0,0:0:0:0:
64,192,36907,1,0,0:0:0:0:
192,192,37121,1,0,0:0:0:0:
320,192,37121,128,0,37335:0:0:0:0:
448,192,37335,1,0,0:0:0:0:
192,192,37335,1,0,0:0:0:0:
320,192,37550,1,0,0:0:0:0:
64,192,37550,128,0,37764:0:0:0:0:
192,192,37764,1,0,0:0:0:0:
320,192,37764,1,0,0:0:0:0:
64,192,37978,1,0,0:0:0:0:
448,192,37978,128,0,38192:0:0:0:0:
320,192,38192,1,0,0:0:0:0:
64,192,38192,128,0,38407:0:0:0:0:
320,192,38407,1,0,0:0:0:0:
192,192,38407,128,0,38621:0:0:0:0:
448,192,38621,1,0,0:0:0:0:
64,192,38621,1,0,0:0:0:0:
64,192,38835,1,0,0:0:0:0:
192,192,38835,128,0,39050:0:0:0:0:
448,192,39050,1,0,0:0:0:0:
320,192,39050,1,0,0:0:0:0:
320,192,39264,1,0,0:0:0:0:
64,192,39264,128,0,39478:0:0:0:0:
448,192,39478,1,0,0:0:0:0:
320,192,39478,128,0,39692:0:0:0:0:
448,192,39692,128,0,39907:0:0:0:0:
192,192,39907,128,0,40121:0:0:0:0:
64,192,40121,128,0,40550:0:0:0:0:
192,192,40550,128,0,40764:0:0:0:0:
320,192,40764,1,0,0:0:0:0:
448,192,40817,1,0,0:0:0:0:
320,192,40871,1,0,0:0:0:0:
192,192,40925,1,0,0:0:0:0:
64,192,40978,1,0,0:0:0:0:
192,192,41032,1,0,0:0:0:0:
320,192,41085,1,0,0:0:0:0:
448,192,41139,1,0,0:0:0:0:
192,192,41192,1,0,0:0:0:0:
64,192,41192,1,0,0:0:0:0:
