osu file format v7

[General]
AudioFilename: Continuation of Dream.mp3
AudioLeadIn: 0
PreviewTime: 1366
Countdown: 0
SampleSet: Normal
StackLeniency: 0.7
Mode: 0
LetterboxInBreaks: 1

[Editor]
DistanceSpacing: 0.800000011920929
BeatDivisor: 4
GridSize: 8

[Metadata]
Title:Continuation of Dream
Artist:Wooming
Creator:beat4you
Version:Normal
Source:Touhou
Tags:Crimson Belvedere ~ Eastern Dream

[Difficulty]
HPDrainRate:5
CircleSize:4
OverallDifficulty:5
SliderMultiplier:1.8
SliderTickRate:1

[Events]
//Background and Video events
0,0,"Konachan.com - 61318 blue_hair dress hat moon red_eyes remilia_scarlet short_hair touhou vampire widescreen wings.jpg"
//Break Periods
2,41016,59177
2,121500,133023
2,151038,157023
//Storyboard Layer 0 (Background)
//Storyboard Layer 1 (Fail)
//Storyboard Layer 2 (Pass)
//Storyboard Layer 3 (Foreground)
//Storyboard Sound Samples
//Background Colour Transformations
3,100,163,162,255

[TimingPoints]
2416,600,4,1,1,70,1,0
21916,-200,4,2,1,70,0,0
23866,-200,4,1,1,70,0,0
25366,-100,4,2,1,70,0,0
26266,-100,4,1,1,70,0,0
26716,-200,4,2,1,70,0,0
28666,-200,4,1,1,70,0,0
29266,-100,4,2,1,70,0,0
31066,-100,4,1,1,70,0,0
31516,-200,4,2,1,70,0,0
33466,-200,4,1,1,70,0,0
35006,-100,4,2,1,70,0,0
35866,-100,4,1,1,70,0,0
36166,-100,4,2,1,70,0,0
38266,-100,4,1,1,70,0,0
38716,-100,4,1,1,0,0,0
40666,-100,4,1,1,70,0,0
47454,461.538461538462,4,1,1,70,1,0
104684,-100,4,1,1,0,0,0
106300,-100,4,1,1,70,0,0
133761,-100,4,1,1,0,0,0
135838,-100,4,1,1,70,0,0
141492,-100,4,1,1,0,0,0
142877,-100,4,1,1,70,0,0
165838,-200,4,2,1,70,0,0
167338,-100,4,1,1,70,0,0
167684,-200,4,2,1,70,0,0
169184,-200,4,1,1,70,0,0
169415,-200,4,2,1,70,0,0
172761,-100,4,1,1,70,0,0
173107,-100,4,2,1,70,0,0
176569,-100,4,1,1,70,0,0
180377,-100,4,1,1,70,0,1
185684,-100,4,1,1,0,0,1
186377,-100,4,1,1,70,0,1
193081,-100,4,1,1,0,0,1
193761,-100,4,1,1,70,0,0
195146,-100,4,1,1,70,0,1
209915,-200,4,1,1,70,0,0
211992,-200,4,2,1,70,0,0
213377,-200,4,1,1,70,0,0
213838,-200,4,2,1,70,0,0
215223,-200,4,1,1,70,0,0
215684,-200,4,2,1,70,0,0
217992,-200,4,1,1,70,0,0
219377,-200,4,2,1,70,0,0
220761,-200,4,1,1,70,0,0
221223,-200,4,2,1,70,0,0
222607,-200,4,1,1,70,0,0
223069,-200,4,2,1,70,0,0
224454,-100,4,1,1,70,0,0
225607,-100,4,1,1,70,0,1

[Colours]
Combo1 : 128,0,128
Combo2 : 255,0,0
Combo3 : 128,0,0
Combo4 : 64,0,128

[HitObjects]
96,96,21616,1,4
256,96,22216,1,0
408,96,22816,2,0,B|408:168,2,67.5,4|0|0
336,96,24016,2,0,B|304:168|376:192|328:280,1,180,4|0
272,312,25516,5,0
200,312,25816,2,0,B|96:312,1,90,4|0
112,240,26416,1,4
112,96,27016,1,0
256,96,27616,2,0,B|328:96,2,67.5,4|0|0
200,144,28816,2,0,B|168:192|208:240,1,90,4|0
264,264,29716,6,0,B|328:176|264:96,1,180,4|0
192,72,30616,2,0,B|88:72,1,90,4|0
32,72,31216,5,4
112,192,31816,1,0
240,120,32416,2,0,B|328:120,2,67.5,4|0|0
168,160,33616,2,0,B|112:248|176:336,1,180,4|0
248,336,35116,5,0
320,336,35416,2,0,B|320:224,1,90,4|0
360,184,36016,2,0,B|416:248|352:320,2,135,4|0|4
288,184,37216,2,0,B|232:248|296:320,2,135,4|0|4
288,184,38416,1,4
256,192,38716,12,4,40816
112,104,60377,6,0,B|40:104,6,60
256,104,61761,1,0
400,104,62223,2,0,B|464:192|392:296,1,180,4|0
264,280,63146,6,0,B|160:280,2,90
264,136,64069,2,0,B|176:72|64:152,1,180,0|0
96,280,64992,6,0,B|200:280,2,90
96,136,65915,1,0
240,136,66377,2,0,B|240:256,1,90
296,184,66838,2,0,B|392:184,1,90
344,240,67300,2,0,B|344:344,1,90
280,288,67761,2,0,B|200:344|80:272,1,180
104,216,68454,5,0
104,216,68684,2,0,B|104:112,1,90
176,128,69146,2,0,B|176:224,1,90
176,218,69607,1,4
416,216,70069,5,0
416,216,70300,1,0
416,216,70530,2,0,B|336:280|240:208,2,180,0|0|0
416,72,71915,2,0,B|320:72,1,90
256,72,72377,2,0,B|256:168,2,90
112,72,73300,5,0
40,192,73761,2,0,B|104:304,1,90
128,328,74223,1,0
128,328,74454,1,0
184,280,74684,2,0,B|280:280,2,90
184,136,75607,1,0
184,136,75838,1,0
256,136,76069,6,0,B|368:136,1,90
344,208,76530,2,0,B|240:208,1,90
184,208,76992,1,4
256,80,77453,5,0
256,80,77684,1,0
288,144,77915,2,0,B|328:200|272:256,1,90
224,192,78377,2,0,B|184:248|256:304,1,90
256,344,78838,1,4
120,304,79300,5,0
120,304,79530,1,0
80,240,79761,2,0,B|80:128,1,90
152,176,80223,2,0,B|152:80,1,90
216,48,80684,5,4
328,144,81146,1,0
216,240,81607,1,4
328,336,82069,1,0
440,240,82530,1,4
384,64,82992,5,0
384,64,83223,1,0
384,136,83454,2,0,B|296:200|192:120,2,180,0|0|4
128,320,84838,5,0
128,320,85069,1,0
128,248,85300,2,0,B|216:184|320:264,2,180,0|0|4
72,112,86684,5,0
72,112,86915,1,0
144,112,87146,2,0,B|144:224,2,90
288,112,88069,1,4
288,112,88300,1,0
336,168,88530,1,0
336,168,88761,1,0
288,224,88992,1,4
288,224,89223,1,0
336,280,89453,1,0
336,280,89684,1,0
288,336,89915,6,0,B|224:336,8,45,4|0|0|0|4|0|0|0|4
360,336,91069,5,0
360,264,91300,1,0
360,192,91530,1,0
360,120,91761,2,0,B|248:120,1,90,4|0
312,56,92223,2,0,B|200:56,1,90
152,56,92684,2,0,B|152:208,2,135
80,56,93607,2,0,B|16:152|96:232,2,180
152,56,94761,5,0
224,56,94992,1,0
296,56,95223,1,0
368,56,95454,2,0,B|368:176,1,90,4|0
432,104,95915,2,0,B|432:224,1,90
432,264,96377,2,0,B|272:264,2,135
432,336,97300,2,0,B|216:336,1,180
192,296,97992,6,0,B|120:216|200:120,1,180
240,80,98684,2,0,B|344:80,1,90
400,80,99146,2,0,B|464:168,1,90,4|0
400,208,99607,2,0,B|336:312,1,90
288,320,100069,2,0,B|208:360|144:312,2,135
288,248,100992,2,0,B|344:160|280:72,1,180
216,80,101684,6,0,B|160:168|224:256,1,180
184,312,102377,2,0,B|296:360,1,90
312,296,102838,2,0,B|472:296,2,135,4|0|0
312,224,103761,2,0,B|480:224,2,135
256,192,104684,12,4,106069
120,96,106530,5,4
72,232,106992,1,0
200,304,107454,2,0,B|272:352|336:296,2,135
136,272,108377,1,0
136,128,108838,1,0
280,128,109300,6,0,B|400:128,1,90
376,200,109761,2,0,B|264:200,1,90
216,200,110223,1,4
72,200,110684,1,0
216,200,111146,2,0,B|368:200,2,135
144,200,112069,1,0
328,88,112761,6,0,B|392:176|320:288,1,180
296,320,113454,2,0,B|176:320,1,90
136,320,113915,1,4
64,192,114377,1,0
136,64,114838,2,0,B|288:64,2,135
104,128,115761,2,0,B|48:208|112:304,1,180
168,264,116454,6,0,B|248:320|344:264,1,180
400,232,117146,2,0,B|400:112,1,90
352,88,117607,2,0,B|192:88,2,135,4|0|0
352,160,118530,2,0,B|192:160,2,135
256,192,119454,12,4,121300
256,192,134223,12,4,135607
416,80,136069,6,0,B|480:168|408:280,1,180,4|0
296,304,136992,2,0,B|432:352|432:352|432:352,2,135,0|0|0
224,304,137915,2,0,B|96:352|96:352|96:368,2,135,0|0|0
224,304,138838,1,0
344,160,139300,6,0,B|344:216,4,45,0|0|0|0|4
256,104,140107,1,0
168,160,140454,1,0
168,160,140684,1,0
256,104,141030,1,0
344,160,141377,1,0
256,192,141607,12,4,142761
144,104,142992,6,0,B|72:104,4,45,0|0|0|0|4
184,208,143800,1,0
272,144,144146,1,0
272,144,144377,1,0
344,224,144723,1,0
288,312,145069,5,0
288,312,145300,1,0
184,272,145646,1,0
80,304,145992,1,0
80,304,146223,1,0
48,200,146569,2,0,B|48:48,1,135,0|0
128,64,147146,5,4
264,120,147607,1,0
264,120,147838,1,0
264,120,148069,1,0
168,224,148530,1,0
168,224,148761,1,0
168,224,148992,1,0
296,288,149454,5,0
360,328,149684,1,0
424,288,149915,1,0
360,256,150146,1,0
360,184,150377,2,0,B|360:128,4,45,0|0|0|0|4
144,80,158223,6,0,B|248:128,1,90
224,192,158684,2,0,B|136:240,1,90,0|0
144,304,159146,2,0,B|240:352,1,90
296,344,159607,2,0,B|384:304,1,90,0|0
448,280,160069,5,0
448,208,160300,1,0
448,136,160530,1,0
448,64,160761,1,0
376,64,160992,2,0,B|312:64,4,45,0|0|0|0|0
232,64,161915,6,0,B|120:128,1,90
216,144,162377,2,0,B|264:224,1,90,0|0
192,232,162838,2,0,B|104:288,1,90
184,312,163300,2,0,B|280:352,1,90,0|0
336,336,163761,1,0
384,280,163992,1,0
384,208,164223,1,0
336,152,164454,1,0
256,192,164684,12,4,165607
112,120,166069,5,0
184,120,166300,1,0
256,120,166530,2,0,B|256:208,2,67.5,4|0|0
328,120,167454,1,4
328,296,167915,5,0
256,296,168146,1,0
184,296,168377,2,0,B|112:296,2,67.5,4|0|0
184,224,169300,2,0,B|184:112,1,90,4|0
328,136,170223,2,0,B|328:240,1,90,4|0
328,296,170915,2,0,B|232:296,1,90,4|0
168,296,171607,1,4
168,296,171838,1,4
120,112,172992,6,0,B|208:56|304:120,1,180,4|4
256,176,173684,1,0
288,240,173915,2,0,B|232:288|160:240,2,135,4|4|0
344,192,174838,6,0,B|344:96,1,90,4|0
416,104,175300,2,0,B|416:216,1,90,4|0
416,264,175761,1,4
344,264,175992,1,0
272,264,176223,1,4
200,264,176454,1,0
128,264,176684,1,4
128,120,177146,1,0
272,120,177607,1,0
272,120,177838,1,0
272,120,178069,1,0
416,120,178530,6,0,B|480:120,6,60
416,264,179915,1,0
272,264,180377,1,4
128,264,180838,2,0,B|128:144,1,90
128,104,181300,5,0
272,104,181761,1,0
416,104,182223,1,4
416,248,182684,2,0,B|280:248,1,90
256,248,183146,5,0
112,248,183607,1,0
256,248,184069,1,4
256,192,184300,12,0,185915
360,72,186838,5,0
360,72,187300,1,0
360,72,187761,2,0,B|416:160|352:264,1,180,4|0
320,304,188454,1,0
248,304,188684,6,0,B|248:200,1,90
176,216,189146,2,0,B|176:336,1,90
104,312,189607,2,0,B|48:224|112:120,1,180,4|0
152,88,190300,1,0
224,88,190530,2,0,B|320:88|320:88,2,90
256,192,191454,12,4,193300
104,96,194223,5,0
104,96,194684,1,0
104,240,195146,2,0,B|192:304|280:240,1,180,4|0
272,176,195838,1,0
272,104,196069,6,0,B|376:104,1,90
432,104,196530,2,0,B|432:200,1,90
432,264,196992,2,0,B|352:320|256:264,1,180,4|0
200,232,197684,1,0
200,160,197915,6,0,B|200:56,1,90
272,72,198377,2,0,B|272:176,1,90
272,232,198838,1,4
136,192,199300,1,0
272,152,199761,1,4
136,112,200223,1,0
272,72,200684,2,0,B|328:160|264:256,1,180,4|0
88,72,201607,5,0
88,72,202069,1,0
232,72,202530,2,0,B|232:256,1,180,4|0
304,256,203223,1,0
376,256,203454,2,0,B|376:136,1,90
448,168,203915,2,0,B|448:280,1,90
448,328,204377,2,0,B|224:328,1,180,4|0
192,328,205069,1,0
120,328,205300,2,0,B|56:240|128:144,1,180
224,64,206223,5,4
224,64,206454,1,0
296,64,206684,1,0
296,64,206915,1,0
368,64,207146,1,4
368,64,207377,1,0
440,64,207607,1,0
440,64,207838,1,0
440,136,208069,2,0,B|376:136,8,45,4|0|0|0|4|0|0|0|4
184,72,210838,5,0
184,72,211300,1,0
184,72,211761,2,0,B|112:160|200:256,1,180,4|0
256,192,213146,1,0
328,144,213607,2,0,B|400:232|312:328,1,180,4|0
256,352,214992,1,0
256,352,215454,1,4
256,192,215684,12,0,217761
344,72,218223,5,0
344,72,218684,1,0
344,72,219146,2,0,B|368:144|296:184,1,90,4|0
216,120,220069,1,4
152,216,220530,1,0
224,312,220992,2,0,B|272:344|328:304|328:304|328:312,1,90,4|0
384,224,221915,1,4
312,128,222377,1,0
248,224,222838,2,0,B|144:224,1,90,4|0
160,104,223761,2,0,B|264:104|264:104|272:104,1,90,4|0
400,104,224684,6,0,B|400:176|400:176,6,60,0|0|0|0|0|0|4
