osu file format v7

[General]
AudioFilename: Continuation of Dream.mp3
AudioLeadIn: 0
PreviewTime: 1366
Countdown: 0
SampleSet: Normal
StackLeniency: 0.7
Mode: 0
LetterboxInBreaks: 1

[Editor]
DistanceSpacing: 0.800000011920929
BeatDivisor: 4
GridSize: 8

[Metadata]
Title:Continuation of Dream
Artist:Wooming
Creator:beat4you
Version:Easy
Source:Touhou
Tags:Crimson Belvedere ~ Eastern Dream

[Difficulty]
HPDrainRate:3
CircleSize:3
OverallDifficulty:3
SliderMultiplier:1.4
SliderTickRate:1

[Events]
//Background and Video events
0,0,"Konachan.com - 61318 blue_hair dress hat moon red_eyes remilia_scarlet short_hair touhou vampire widescreen wings.jpg"
//Break Periods
2,41016,58937
2,121500,132783
2,151038,156783
//Storyboard Layer 0 (Background)
//Storyboard Layer 1 (Fail)
//Storyboard Layer 2 (Pass)
//Storyboard Layer 3 (Foreground)
//Storyboard Sound Samples
//Background Colour Transformations
3,100,163,162,255

[TimingPoints]
2416,600,4,1,1,70,1,0
21916,-200,4,2,1,70,0,0
23866,-200,4,1,1,70,0,0
25366,-100,4,2,1,70,0,0
26266,-100,4,1,1,70,0,0
26716,-200,4,2,1,70,0,0
28666,-200,4,1,1,70,0,0
29266,-100,4,2,1,70,0,0
31066,-100,4,1,1,70,0,0
31516,-200,4,2,1,70,0,0
33466,-200,4,1,1,70,0,0
35006,-100,4,2,1,70,0,0
35866,-100,4,1,1,70,0,0
36166,-100,4,2,1,70,0,0
38266,-100,4,1,1,70,0,0
38716,-100,4,1,1,0,0,0
40666,-100,4,1,1,70,0,0
47454,461.538461538462,4,1,1,70,1,0
104684,-100,4,1,1,0,0,0
106300,-100,4,1,1,70,0,0
133761,-100,4,1,1,0,0,0
135838,-100,4,1,1,70,0,0
141377,-100,4,1,1,0,0,0
142992,-100,4,1,1,70,0,0
165838,-200,4,2,1,70,0,0
167338,-100,4,1,1,70,0,0
167684,-200,4,2,1,70,0,0
169184,-200,4,1,1,70,0,0
169415,-200,4,2,1,70,0,0
172761,-100,4,1,1,70,0,0
173107,-100,4,2,1,70,0,0
176569,-100,4,1,1,70,0,0
180377,-100,4,1,1,70,0,1
185684,-100,4,1,1,0,0,1
186377,-100,4,1,1,70,0,1
193081,-100,4,1,1,0,0,1
193761,-100,4,1,1,70,0,0
195146,-100,4,1,1,70,0,1
209915,-200,4,1,1,70,0,0
211992,-200,4,2,1,70,0,0
213377,-200,4,1,1,70,0,0
213838,-200,4,2,1,70,0,0
215223,-200,4,1,1,70,0,0
215684,-200,4,2,1,70,0,0
217992,-200,4,1,1,70,0,0
219377,-200,4,2,1,70,0,0
220761,-200,4,1,1,70,0,0
221223,-200,4,2,1,70,0,0
222607,-200,4,1,1,70,0,0
223069,-200,4,2,1,70,0,0
224454,-100,4,1,1,70,0,0
225607,-100,4,1,1,70,0,1

[Colours]
Combo1 : 128,0,128
Combo2 : 255,0,0
Combo3 : 128,0,0
Combo4 : 64,0,128

[HitObjects]
120,96,21616,1,4
256,96,22216,1,0
392,96,22816,1,4
392,208,23416,1,0
392,248,23716,1,0
392,296,24016,2,0,B|320:344|256:296|256:296,1,140,4|0
256,160,25816,5,4
128,160,26416,1,4
128,280,27016,1,0
256,280,27616,2,0,B|320:280|320:280,2,52.5,4|0|0
208,280,28816,1,4
128,136,29716,6,0,B|200:176|272:136|272:136,1,140,4|0
312,112,30616,1,4
392,192,31216,1,4
312,272,31816,1,0
232,192,32416,2,0,B|168:192|168:192,2,52.5,4|0|0
280,192,33616,1,4
176,128,35116,5,0
176,128,35416,1,4
176,128,35716,1,0
176,128,36016,2,0,B|176:280|176:280,1,140,4|0
352,272,37216,2,0,B|352:128|352:128,1,140,4|0
256,192,38416,1,4
256,192,38716,12,4,40816
112,104,60377,5,0
208,160,60838,1,0
112,216,61300,1,0
208,280,61761,5,0
304,216,62223,2,0,B|480:216|480:216,1,140,4|0
448,104,63146,5,0
448,104,63607,1,0
448,104,64069,2,0,B|272:104|272:104,1,140
192,104,64992,5,0
192,104,65454,1,0
192,104,65915,1,0
120,192,66377,2,0,B|40:192|40:192,2,70
192,280,67300,2,0,B|192:360|192:360,2,70
264,192,68223,1,0
264,192,68684,6,0,B|424:192|424:192,1,140
408,304,69607,1,4
296,304,70069,5,0
296,304,70530,2,0,B|136:304|136:304,2,140
296,192,71915,1,0
184,192,72377,2,0,B|184:272|184:272,2,70
112,104,73300,5,0
40,192,73761,1,0
112,272,74223,1,0
192,192,74684,1,0
304,192,75146,2,0,B|400:192|400:192,4,70
304,296,76530,5,0
304,296,76992,1,4
192,296,77453,1,0
192,184,77915,2,0,B|344:184|344:184,2,140,0|0|4
192,72,79300,5,0
112,152,79761,1,0
112,264,80223,1,0
192,344,80684,6,0,B|352:344|352:344,1,140,4|0
392,248,81607,2,0,B|240:248|240:248,1,140,4|0
192,152,82530,2,0,B|360:152|360:152,1,140,4|0
448,152,83454,5,0
448,152,83915,1,0
448,152,84377,2,0,B|384:296|384:296,1,140,4|0
304,208,85300,5,0
304,208,85761,1,0
304,208,86223,2,0,B|240:352|240:352,1,140,4|0
152,288,87146,5,0
88,192,87607,1,0
152,96,88069,2,0,B|296:96|296:96,1,140,4|0
352,192,88992,2,0,B|184:192|184:192,1,140,4|0
152,288,89915,1,4
264,288,90377,1,4
376,288,90838,1,4
376,176,91300,6,0,B|376:96|376:96,2,70,0|0|4
264,176,92223,1,0
152,176,92684,2,0,B|152:56|152:56,2,105
152,232,93607,1,0
400,96,94761,6,0,B|400:192|400:192,3,70,0|0|0|4
400,280,95915,1,0
400,280,96377,2,0,B|272:280|272:280,2,105
176,280,97992,6,0,B|176:120|176:120,1,140
176,80,98684,1,0
296,80,99146,1,4
408,80,99607,1,0
408,200,100069,2,0,B|272:200|272:200,2,105
408,256,100992,1,0
248,312,101684,6,0,B|176:368|96:304|96:304,1,140
112,264,102377,1,0
112,152,102838,2,0,B|232:152|232:152,2,105,4|0|0
112,96,103761,2,0,B|-8:96|-8:96,2,105
256,192,104684,12,4,106069
360,56,106530,5,4
424,152,106992,1,0
360,248,107454,2,0,B|488:248|488:248,2,105
304,248,108377,1,0
184,248,108838,1,0
72,248,109300,1,0
72,192,109530,6,0,B|72:96|72:96,3,70,0|0|0|4
184,120,110684,1,0
296,120,111146,2,0,B|432:120|432:120,2,105
296,176,112069,1,0
224,328,112761,6,0,B|56:328|56:328,1,140
24,328,113454,1,0
24,216,113915,2,0,B|184:216|184:216,1,140,4|0
280,216,114838,2,0,B|280:328|280:328,2,105
280,160,115761,1,0
424,72,116454,6,0,B|424:216|424:216,1,140
424,264,117146,1,0
312,264,117607,2,0,B|312:152|312:152,2,105,4|0|0
256,264,118530,2,0,B|256:152|256:152,2,105
256,192,119454,12,4,121300
256,192,134223,12,4,135607
168,144,136069,6,0,B|112:216|176:288|176:288,1,140,4|0
280,288,136992,2,0,B|424:288|424:288,1,140,0|0
424,176,137915,2,0,B|272:176|272:176,1,140,0|0
168,176,138838,1,0
56,176,139300,6,0,B|56:272|56:272,2,70,0|0|4
168,176,140223,2,0,B|168:80|168:80,2,70,0|0|0
280,176,141146,1,0
256,192,141607,12,4,142761
120,136,143454,6,0,B|192:80|272:152|272:152,1,140,4|0
224,248,144377,2,0,B|296:304|376:232|376:232,1,140,0|0
448,184,145300,2,0,B|448:40|448:40,1,140,0|0
336,40,146223,2,0,B|184:40|184:40,1,140,0|0
80,40,147146,5,4
152,120,147607,2,0,B|240:120|240:120,2,70,0|0|0
80,208,148530,2,0,B|0:208|0:208,2,70,0|0|0
152,296,149454,1,0
264,296,149915,1,0
376,296,150377,2,0,B|376:232|376:232,4,35,0|0|0|0|4
104,136,158223,6,0,B|192:80|256:152|256:152,1,140,0|0
320,208,159146,2,0,B|232:264|168:192|168:192,1,140,0|0
184,96,160069,1,0
296,96,160530,1,0
408,96,160992,2,0,B|488:96|488:96,2,70,0|0|0
352,192,161915,6,0,B|352:272|352:272,2,70,0|0|0
240,192,162838,2,0,B|240:112|240:112,2,70,0|0|0
128,192,163761,1,0
128,304,164223,1,0
256,192,164684,12,4,165607
136,192,166530,6,0,B|136:128|136:128,2,52.5,4|0|0
136,248,167454,1,4
376,192,168377,6,0,B|376:256|376:256,2,52.5,4|0|0
376,136,169301,1,4
256,136,169761,1,0
136,136,170223,2,0,B|136:216|136:216,1,70,4|0
136,256,170915,1,4
256,256,171377,2,0,B|296:256|296:256,2,35,0|4|4
104,128,172992,6,0,B|184:64|256:144|256:144,1,140,4|4
232,240,173915,2,0,B|120:240|120:240,2,105,4|4|0
288,240,174838,5,4
400,240,175300,1,4
400,128,175761,1,4
288,128,176223,1,4
176,128,176684,1,4
64,128,177146,1,0
64,240,177607,2,0,B|64:328|64:328,2,70
176,240,178530,5,0
248,328,178992,1,0
320,240,179454,1,0
392,328,179915,1,0
464,240,180377,1,4
304,72,181300,5,0
200,112,181761,1,0
304,72,182223,1,4
256,248,183146,5,0
360,280,183607,1,0
256,248,184069,1,4
256,192,184300,12,0,185915
360,72,186838,5,0
360,72,187300,1,0
360,72,187761,2,0,B|416:144|352:224|352:224,1,140,4|0
280,280,188684,6,0,B|136:280|136:280,1,140
72,192,189607,2,0,B|216:192|216:192,1,140,4|0
328,192,190530,2,0,B|328:112|328:112,2,70
256,192,191454,12,4,193300
104,96,194223,5,0
104,96,194684,1,0
104,96,195146,2,0,B|72:184|112:256|112:256,1,140,4|0
208,192,196069,5,0
304,248,196530,1,0
400,192,196992,2,0,B|432:128|400:48|400:48,1,140,4|0
304,104,197915,5,0
192,80,198377,1,0
80,104,198838,2,0,B|80:256|80:256,1,140,4|0
184,280,199761,2,0,B|184:136|184:136,1,140,4|0
288,112,200684,2,0,B|288:256|288:256,1,140,4|0
376,328,201607,5,0
376,328,202069,1,0
376,328,202530,2,0,B|416:256|368:176|368:176,1,140,4|0
328,88,203454,5,0
232,144,203915,1,0
136,80,204377,2,0,B|80:152|152:232|152:232,1,140,4|0
216,288,205300,1,0
216,288,205761,1,0
216,288,206223,6,0,B|368:288|368:288,1,140,4|0
416,192,207146,2,0,B|272:192|272:192,1,140,4|0
160,192,208069,1,4
160,192,208530,1,4
160,192,208992,1,4
184,72,210838,5,0
184,72,211300,1,0
184,72,211761,2,0,B|184:216|184:216,1,140,4|0
256,192,213146,1,0
328,160,213607,2,0,B|328:304|328:304,1,140,4|0
256,352,214992,1,0
256,352,215454,1,4
256,192,215684,12,0,217761
344,72,218223,5,0
344,72,218684,1,0
344,72,219146,2,0,B|344:160|344:160,1,70,4|0
280,216,220069,1,4
184,192,220530,1,0
88,216,220992,2,0,B|88:296|88:296,1,70,4|0
176,328,221915,5,4
256,272,222377,1,0
328,208,222838,2,0,B|328:120|328:120,1,70,4|0
184,136,223761,2,0,B|184:224|184:224,1,70,4|0
376,192,224684,6,0,B|432:192|432:192,6,46.6666666666667
