osu file format v14

[General]
AudioFilename: Woofle and Strife - Freedom Planet Official Soundtrack - 16 Fortune Night 1.mp3
AudioLeadIn: 0
PreviewTime: 42666
Countdown: 0
SampleSet: Soft
StackLeniency: 0.7
Mode: 0
LetterboxInBreaks: 1
WidescreenStoryboard: 1

[Editor]
Bookmarks: 14222
DistanceSpacing: 1.2
BeatDivisor: 4
GridSize: 4
TimelineZoom: 1

[Metadata]
Title:Fortune Night 1
TitleUnicode:Fortune Night 1
Artist:Woofle and Strife
ArtistUnicode:Woofle and Strife
Creator:Pereira006
Version:Easy
Source:Freedom Planet
Tags:GalaxyTrail フリーダム・プラネット
BeatmapID:512438
BeatmapSetID:217444

[Difficulty]
HPDrainRate:1
CircleSize:2
OverallDifficulty:1
ApproachRate:2
SliderMultiplier:1.2
SliderTickRate:2

[Events]
//Background and Video events
0,0,"bg.jpg",0,0
//Break Periods
2,73088,77551
//Storyboard Layer 0 (Background)
//Storyboard Layer 1 (Fail)
//Storyboard Layer 2 (Pass)
//Storyboard Layer 3 (Foreground)
//Storyboard Sound Samples

[TimingPoints]
0,444.444444444444,4,2,0,60,1,0
27777,-100,4,3,0,70,0,0
28444,-100,4,2,0,60,0,0
41999,-100,4,3,0,70,0,0
42666,-100,4,2,1,80,0,0
71111,-100,4,2,0,80,0,0
72888,-100,4,2,0,60,0,0
86444,-100,4,3,0,70,0,0
87111,-100,4,2,0,60,0,0
100666,-100,4,3,0,70,0,0
101333,-100,4,2,1,80,0,1
115444,-100,4,2,0,80,0,0
115555,-100,4,2,1,80,0,1
129777,-100,4,2,0,80,0,0
131555,-100,4,2,0,60,0,0

[Colours]
Combo1 : 253,26,26
Combo2 : 252,239,3
Combo3 : 51,70,244
SliderBorder : 255,255,0

[HitObjects]
204,312,14222,6,0,P|120:284|36:312,2,180,0|2|8,0:0|0:0|0:0,0:0:0:0:
344,276,15999,2,0,P|384:232|384:172,1,120,2|8,0:0|0:0,0:0:0:0:
120,52,17333,1,8,0:0:0:0:
264,40,17777,6,0,P|356:40|436:84,2,180,4|2|8,0:0|0:0|0:0,0:0:0:0:
320,172,19555,1,2,0:0:0:0:
32,172,20444,2,0,P|32:232|48:292,1,120,2|8,0:0|0:0,0:0:0:0:
184,328,21333,6,0,P|304:344|372:344,2,180,4|2|8,0:0|0:0|0:0,0:0:0:0:
180,40,23555,2,0,P|296:40|416:72,1,240,8|8,0:0|0:0,0:0:0:0:
412,216,24888,6,0,P|360:324|252:364,1,240,4|2,0:0|0:0,0:0:0:0:
108,344,26222,2,0,P|92:169|212:41,1,360,8|2,0:0|0:0,0:0:0:0:
464,192,28444,6,0,P|464:288|412:348,2,180,4|2|8,0:0|0:0|0:0,0:0:0:0:
444,48,30222,2,0,P|384:40|324:44,1,120,2|8,0:0|0:0,0:0:0:0:
156,276,31555,1,8,0:0:0:0:
96,144,31999,6,0,P|32:212|12:300,2,180,4|2|8,0:0|0:0|0:0,0:0:0:0:
196,40,33777,1,2,0:0:0:0:
460,156,34666,2,0,P|460:216|440:276,1,120,2|8,0:0|0:0,0:0:0:0:
320,348,35555,6,0,P|228:332|152:284,2,180,4|2|8,0:0|0:0|0:0,0:0:0:0:
256,68,37777,2,0,P|136:68|28:120,1,240,8|8,0:0|0:0,0:0:0:0:
29,265,39111,6,0,P|136:316|256:316,1,240,4|2,0:0|0:0,0:0:0:0:
396,284,40444,2,0,P|480:192|344:48,1,360
284,328,42666,6,0,P|220:332|164:324,1,120,4|8,0:0|0:0,0:0:0:0:
4,84,43999,2,0,P|124:76|232:140,1,240,8|8,0:0|0:0,0:0:0:0:
468,288,45777,1,8,0:0:0:0:
468,144,46222,6,0,P|444:88|396:48,1,120,4|8,0:0|0:0,0:0:0:0:
112,28,47555,2,0,P|68:67|45:122,1,120,8|2,0:0|0:0,0:0:0:0:
44,268,48444,2,0,P|66:323|111:362,1,120,8|2,0:0|0:0,0:0:0:0:
316,160,49777,6,0,P|328:96|324:36,1,120,4|8,0:0|0:0,0:0:0:0:
44,104,51111,2,0,P|36:164|40:224,1,120,8|2,0:0|0:0,0:0:0:0:
112,348,51999,2,0,P|168:360|232:360,1,120,8|2,0:0|0:0,0:0:0:0:
432,156,53333,6,0,P|380:124|320:112,1,120,4|8,0:0|0:0,0:0:0:0:
180,112,54222,2,0,P|121:124|70:155,1,120,2|8,0:0|0:0,0:0:0:0:
60,300,55111,2,0,P|116:328|264:252,1,240,2|2,0:0|0:0,0:0:0:0:
464,48,56888,6,0,P|468:108|464:168,1,120,4|8,0:0|0:0,0:0:0:0:
220,324,58222,2,0,P|152:344|96:340,1,120,8|2,0:0|0:0,0:0:0:0:
44,208,59111,2,0,P|44:148|64:92,1,120,8|2,0:0|0:0,0:0:0:0:
344,16,60444,6,0,P|296:51|273:105,1,120,4|8,0:0|0:0,0:0:0:0:
404,360,61777,2,0,P|452:324|476:260,1,120,8|2,0:0|0:0,0:0:0:0:
476,124,62666,2,0,P|444:76|388:44,1,120,8|2,0:0|0:0,0:0:0:0:
104,24,63999,6,0,P|92:84|92:144,1,120,4|8,0:0|0:0,0:0:0:0:
296,348,65333,2,0,P|356:360|412:348,1,120,8|2,0:0|0:0,0:0:0:0:
500,236,66222,1,8,0:0:0:0:
256,80,67111,1,8,0:0:0:0:
132,152,67555,6,0,P|100:204|80:260,2,120,4|8|2,0:0|0:0|0:0,0:0:0:0:
256,228,68888,2,0,L|256:348,2,120,8|2|8,0:0|0:0|0:0,0:0:0:0:
380,152,70222,2,0,P|412:204|432:260,2,120,2|8|4,0:0|0:0|0:0,0:0:0:0:
256,80,71555,6,0,P|196:88|140:112,1,120,4|4,0:0|0:0,0:0:0:0:
140,256,72444,2,0,P|195:279|254:287,1,120,4|4,0:0|0:0,0:0:0:0:
368,276,79111,5,2,0:0:0:0:
80,292,79999,5,4,0:0:0:0:
64,148,80444,2,0,P|96:80|184:28,2,180,8|2|2,0:0|0:0|0:0,0:0:0:0:
112,284,82222,2,0,P|169:270|228:248,1,120,8|2,0:0|0:0,0:0:0:0:
496,164,83555,5,0,0:0:0:0:
472,24,83999,1,8,0:0:0:0:
372,128,84444,2,0,P|316:148|260:128,1,120,2|8,0:0|0:0,0:0:0:0:
160,24,85333,1,2,0:0:0:0:
248,300,86222,2,0,P|128:324|8:324,1,240,2|4,0:0|0:0,0:0:0:0:
0,180,87555,6,0,P|12:88|76:32,2,180,8|2|2,0:0|0:0|0:0,0:0:0:0:
144,156,89333,2,0,P|204:152|260:180,1,120,8|2,0:0|0:0,0:0:0:0:
16,332,90666,5,4,0:0:0:0:
156,368,91111,2,0,P|252:360|332:336,2,180,8|2|2,0:0|0:0|0:0,0:0:0:0:
132,228,92888,2,0,P|152:168|192:124,1,120,8|2,0:0|0:0,0:0:0:0:
464,236,94222,5,4,0:0:0:0:
352,324,94666,2,0,P|236:324|172:304,2,180,8|2|2,0:0|0:0|0:0,0:0:0:0:
344,180,96444,2,0,P|284:152|232:136,1,120,8|2,0:0|0:0,0:0:0:0:
44,348,97777,5,4,0:0:0:0:
188,344,98222,2,0,P|288:288|344:176,1,240,8|8,0:0|0:0,0:0:0:0:
320,36,99555,1,2,0:0:0:0:
76,164,100444,2,0,P|92:280|188:344,1,240,2|4,0:0|0:0,0:0:0:0:
332,320,101777,6,0,P|376:280|404:224,1,120,8|2,0:0|0:0,0:0:0:0:
400,80,102666,2,0,P|280:56|164:64,1,240,8|8,0:0|0:0,0:0:0:0:
48,328,104444,1,8,0:0:0:0:
192,336,104888,6,0,P|312:348|416:288,1,240,4|2,0:0|0:0,0:0:0:0:
472,160,106222,2,0,P|460:100|428:48,1,120,8|2,0:0|0:0,0:0:0:0:
288,32,107111,2,0,P|228:28|172:48,1,120,8|2,0:0|0:0,0:0:0:0:
256,324,108444,6,0,P|132:348|28:312,1,240,4|2,0:0|0:0,0:0:0:0:
16,168,109777,2,0,P|28:104|68:60,1,120,8|2,0:0|0:0,0:0:0:0:
204,32,110666,2,0,P|264:32|324:48,1,120,8|2,0:0|0:0,0:0:0:0:
244,324,111999,6,0,P|127:354|44:279,1,240,4|2,0:0|0:0,0:0:0:0:
248,76,113777,2,0,P|358:43|446:118,1,240,2|2,0:0|0:0,0:0:0:0:
196,264,115555,6,0,P|121:176|140:60,1,240,4|2,0:0|0:0,0:0:0:0:
284,28,116888,2,0,P|371:103|364:219,1,240,8|8,0:0|0:0,0:0:0:0:
256,320,118222,1,2,0:0:0:0:
24,152,119111,6,0,P|84:64|212:72,1,240,4|2,0:0|0:0,0:0:0:0:
332,144,120444,1,8,0:0:0:0:
408,264,120888,2,0,P|339:356|224:347,1,240,2|2,0:0|0:0,0:0:0:0:
76,56,122666,6,0,P|60:176|76:296,1,240,4|2,0:0|0:0,0:0:0:0:
196,212,124000,2,0,P|256:200|312:212,1,120,8|2,0:0|0:0,0:0:0:0:
396,332,124888,1,8,0:0:0:0:
396,48,125777,1,8,0:0:0:0:
252,48,126222,6,0,P|188:56|140:92,2,120,4|8|2,0:0|0:0|0:0,0:0:0:0:
256,192,127555,2,0,L|380:192,2,120,8|2|8,0:0|0:0|0:0,0:0:0:0:
256,336,128888,2,0,P|192:328|148:296,2,120,2|8|4,0:0|0:0|0:0,0:0:0:0:
360,240,130222,6,0,P|360:180|332:128,1,120,4|4,0:0|0:0,0:0:0:0:
179,128,131111,2,0,P|151:180|152:240,1,120,4|4,0:0|0:0,0:0:0:0:
256,192,131999,12,4,135111,0:0:0:0:
