osu file format v13

[General]
AudioFilename: Woofle and Strife - Freedom Planet Official Soundtrack - 16 Fortune Night 1.mp3
AudioLeadIn: 0
PreviewTime: 42666
Countdown: 0
SampleSet: Soft
StackLeniency: 0.7
Mode: 0
LetterboxInBreaks: 1
WidescreenStoryboard: 1

[Editor]
Bookmarks: 14222
DistanceSpacing: 1.2
BeatDivisor: 4
GridSize: 4
TimelineZoom: 1

[Metadata]
Title:Fortune Night 1
TitleUnicode:Fortune Night 1
Artist:Woofle and Strife
ArtistUnicode:Woofle and Strife
Creator:Pereira006
Version:Normal
Source:Freedom Planet
Tags:GalaxyTrail フリーダム・プラネット
BeatmapID:512394
BeatmapSetID:217444

[Difficulty]
HPDrainRate:3
CircleSize:3
OverallDifficulty:3
ApproachRate:4
SliderMultiplier:1.4
SliderTickRate:2

[Events]
//Background and Video events
0,0,"bg.jpg",0,0
//Break Periods
2,73111,77777
//Storyboard Layer 0 (Background)
//Storyboard Layer 1 (Fail)
//Storyboard Layer 2 (Pass)
//Storyboard Layer 3 (Foreground)
//Storyboard Sound Samples

[TimingPoints]
0,444.444444444444,4,2,0,60,1,0
27777,-100,4,3,0,70,0,0
28444,-100,4,2,0,60,0,0
41999,-100,4,3,0,70,0,0
42666,-100,4,2,1,80,0,0
71111,-100,4,2,0,80,0,0
72888,-100,4,2,0,60,0,0
86444,-100,4,3,0,70,0,0
87111,-100,4,2,0,60,0,0
100666,-100,4,3,0,70,0,0
101333,-100,4,2,1,80,0,1
115444,-100,4,2,0,80,0,0
115555,-100,4,2,1,80,0,1
129777,-100,4,2,0,80,0,0
131555,-100,4,2,0,60,0,0

[Colours]
Combo1 : 253,26,26
Combo2 : 252,239,3
Combo3 : 51,70,244
SliderBorder : 255,255,0

[HitObjects]
104,112,14222,6,0,P|152:60|216:40,1,140,4|8,0:0|0:0,0:0:0:0:
300,40,14888,2,0,P|365:60|412:112,1,140,2|0,0:0|0:0,0:0:0:0:
444,192,15555,2,0,P|404:296|68:196,1,560,8|8,0:0|0:0,0:0:0:0:
48,32,17777,6,0,P|120:40|176:80,1,140,4|8,0:0|0:0,0:0:0:0:
188,160,18444,2,0,P|256:176|324:160,1,140,2|0,0:0|0:0,0:0:0:0:
337,77,19111,2,0,P|395:38|464:32,1,140,8|2,0:0|0:0,0:0:0:0:
496,196,19999,1,8,0:0:0:0:
424,348,20444,1,2,0:0:0:0:
256,360,20888,1,8,0:0:0:0:
96,304,21333,6,0,P|96:232|148:192,1,140,4|8,0:0|0:0,0:0:0:0:
228,192,21999,2,0,L|368:192,1,140,2|0,0:0|0:0,0:0:0:0:
452,192,22666,2,0,P|454:124|402:80,1,140,8|2,0:0|0:0,0:0:0:0:
236,60,23555,1,8,0:0:0:0:
236,60,23777,1,0,0:0:0:0:
236,60,23999,2,0,P|164:60|96:72,1,140,2|8,0:0|0:0,0:0:0:0:
64,236,24888,6,0,P|92:300|148:344,1,140,4|8,0:0|0:0,0:0:0:0:
188,272,25555,2,0,P|256:256|324:272,1,140,2|0,0:0|0:0,0:0:0:0:
366,342,26222,2,0,P|456:256|412:120,1,280,8|8,0:0|0:0,0:0:0:0:
168,64,27777,1,2,3:0:0:0:
96,108,27999,1,2,3:0:0:0:
40,172,28222,1,2,3:0:0:0:
40,256,28444,6,0,P|69:317|132:344,1,140,4|8,0:0|0:0,0:0:0:0:
216,332,29111,2,0,P|288:308|340:260,1,140
384,196,29777,2,0,B|400:152|400:152|416:92|392:36|328:36|328:36|184:36|184:36|120:36|96:92|112:152|112:152|128:196,1,560,8|8,0:0|0:0,0:0:0:0:
216,340,31999,6,0,P|284:320|324:264,1,140,4|8,0:0|0:0,0:0:0:0:
324,180,32666,2,0,P|282:124|216:106,1,140,2|0,0:0|0:0,0:0:0:0:
132,104,33333,2,0,P|36:208|48:340,1,280,8|8,0:0|0:0,0:0:0:0:
216,340,34666,1,2,0:0:0:0:
216,340,34888,1,0,0:0:0:0:
216,340,35111,1,8,0:0:0:0:
104,204,35555,6,0,P|104:132|128:68,1,140,4|8,0:0|0:0,0:0:0:0:
196,116,36222,2,0,P|256:148|316:116,1,140,2|0,0:0|0:0,0:0:0:0:
384,68,36888,2,0,P|408:134|408:204,1,140,8|4,0:0|0:0,0:0:0:0:
364,368,37777,1,8,0:0:0:0:
364,368,37999,1,0,0:0:0:0:
364,368,38222,2,0,P|296:344|256:288,1,140,2|8,0:0|0:0,0:0:0:0:
256,124,39111,6,0,P|196:80|132:56,1,140,4|8,0:0|0:0,0:0:0:0:
68,108,39777,2,0,P|48:176|48:244,1,140,2|0,0:0|0:0,0:0:0:0:
76,324,40444,2,0,P|216:356|356:312,1,280,8|8,0:0|0:0,0:0:0:0:
472,100,41999,1,2,3:0:0:0:
404,52,42222,1,2,3:0:0:0:
324,24,42444,1,2,3:0:0:0:
240,24,42666,5,4,0:0:0:0:
68,32,43111,1,8,0:0:0:0:
28,192,43555,1,2,0:0:0:0:
108,340,43999,2,0,P|72:352|40:356,2,70,8|0|2,0:0|0:0|0:0,0:0:0:0:
268,292,44888,2,0,P|184:192|268:92,1,280,8|8,0:0|0:0,0:0:0:0:
432,72,46222,5,4,0:0:0:0:
404,236,46666,1,8,0:0:0:0:
256,316,47111,1,2,0:0:0:0:
96,264,47555,2,0,P|84:304|84:340,2,70,8|0|2,0:0|0:0|0:0,0:0:0:0:
96,96,48444,2,0,P|84:56|84:20,2,70,8|0|2,0:0|0:0|0:0,0:0:0:0:
232,192,49333,1,8,0:0:0:0:
248,360,49777,5,4,0:0:0:0:
416,336,50222,1,8,0:0:0:0:
504,192,50666,1,2,0:0:0:0:
416,48,51111,2,0,P|452:40|484:36,2,70,8|0|2,0:0|0:0|0:0,0:0:0:0:
252,76,51999,2,0,P|112:84|40:192,1,280,8|8,0:0|0:0,0:0:0:0:
76,356,53333,6,0,P|136:316|180:260,1,140,4|8,0:0|0:0,0:0:0:0:
348,264,54222,2,0,P|391:318|450:356,1,140,2|8,0:0|0:0,0:0:0:0:
480,192,55111,2,0,P|436:68|204:128,1,420,2|8,0:0|0:0,0:0:0:0:
340,224,56888,5,4,0:0:0:0:
228,348,57333,1,8,0:0:0:0:
116,224,57777,1,2,0:0:0:0:
4,352,58222,2,0,P|36:368|76:372,2,70,8|0|2,0:0|0:0|0:0,0:0:0:0:
116,224,59111,2,0,P|108:148|72:96,2,140,8|2|8,0:0|0:0|0:0,0:0:0:0:
256,320,60444,5,4,0:0:0:0:
256,152,60888,1,8,0:0:0:0:
376,36,61333,1,2,0:0:0:0:
500,148,61777,2,0,P|504:112|504:72,2,70,8|0|2,0:0|0:0|0:0,0:0:0:0:
380,264,62666,2,0,P|376:300|376:340,2,70,8|0|2,0:0|0:0|0:0,0:0:0:0:
256,152,63555,1,8,0:0:0:0:
244,320,63999,5,4,0:0:0:0:
80,348,64444,1,8,0:0:0:0:
12,192,64888,1,2,0:0:0:0:
80,36,65333,2,0,P|116:24|152:24,2,70,8|0|2,0:0|0:0|0:0,0:0:0:0:
148,192,66222,2,0,P|216:168|276:132,2,140,8|2|8,0:0|0:0|0:0,0:0:0:0:
40,320,67555,6,0,P|108:356|168:348,1,140,4|8,0:0|0:0,0:0:0:0:
336,348,68444,2,0,P|404:354|464:320,1,140,2|8,0:0|0:0,0:0:0:0:
464,152,69333,2,0,P|396:116|336:124,1,140,2|8,0:0|0:0,0:0:0:0:
168,124,70222,2,0,P|99:117|39:151,1,140,2|8,0:0|0:0,0:0:0:0:
16,316,71111,5,4,0:0:0:0:
172,380,71555,1,4,0:0:0:0:
256,236,71999,1,4,0:0:0:0:
340,380,72444,1,4,0:0:0:0:
496,316,72888,1,4,0:0:0:0:
256,52,79111,5,2,0:0:0:0:
424,60,79555,1,2,0:0:0:0:
424,228,79999,5,2,0:0:0:0:
284,300,80444,2,0,P|320:348|364:368,2,105,8|2|0,0:0|0:0|0:0,0:0:0:0:
240,136,81555,1,0,0:0:0:0:
240,136,81777,2,0,P|168:128|104:160,1,140,2|8,0:0|0:0,0:0:0:0:
92,240,82444,2,0,P|184:280|264:220,1,210,0|8,0:0|0:0,0:0:0:0:
348,72,83555,6,0,P|376:132|392:208,1,140,4|8,0:0|0:0,0:0:0:0:
384,288,84222,2,0,P|256:336|128:288,1,280
120,203,85334,2,0,P|134:135|164:72,1,140,2|8,0:0|0:0,0:0:0:0:
412,124,86444,1,2,3:0:0:0:
368,52,86666,1,2,3:0:0:0:
288,28,86888,1,2,3:0:0:0:
208,48,87111,5,4,0:0:0:0:
124,192,87556,2,0,P|77:167|48:124,2,105,8|2|0,0:0|0:0|0:0,0:0:0:0:
256,296,88666,2,0,P|344:308|432:232,1,210,0|8,0:0|0:0,0:0:0:0:
431,150,89555,2,0,P|357:79|256:88,1,210,0|8,0:0|0:0,0:0:0:0:
180,236,90666,5,4,0:0:0:0:
12,256,91111,2,0,P|20:300|52:360,2,105,8|2|0,0:0|0:0|0:0,0:0:0:0:
216,108,92444,2,0,P|124:48|24:28,2,210,2|0|8,0:0|0:0|0:0,0:0:0:0:
296,84,93999,1,0,0:0:0:0:
368,124,94222,5,4,0:0:0:0:
408,292,94666,2,0,P|452:272|500:236,2,105,8|2|0,0:0|0:0|0:0,0:0:0:0:
240,268,95777,1,0,0:0:0:0:
240,268,95999,2,0,P|168:276|100:264,1,140,2|8,0:0|0:0,0:0:0:0:
72,188,96666,2,0,P|168:152|266:184,1,210,0|8,0:0|0:0,0:0:0:0:
324,344,97777,6,0,P|352:284|368:208,1,140,4|8,0:0|0:0,0:0:0:0:
368,128,98444,2,0,P|256:56|144:128,1,280
144,212,99555,2,0,P|158:280|188:344,1,140,2|8,0:0|0:0,0:0:0:0:
440,340,100666,1,2,3:0:0:0:
448,256,100888,1,2,3:0:0:0:
444,172,101111,1,2,3:0:0:0:
408,96,101333,5,4,0:0:0:0:
256,28,101778,1,8,0:0:0:0:
104,96,102222,1,2,0:0:0:0:
84,264,102666,2,0,P|44:252|8:232,2,70,8|0|2,0:0|0:0|0:0,0:0:0:0:
240,332,103555,1,8,0:0:0:0:
240,332,103777,2,0,P|312:336|420:256,1,210,0|8,0:0|0:0,0:0:0:0:
424,88,104888,5,4,0:0:0:0:
296,196,105333,1,8,0:0:0:0:
228,348,105778,1,2,0:0:0:0:
72,288,106222,2,0,P|60:328|60:364,2,70,8|0|2,0:0|0:0|0:0,0:0:0:0:
80,124,107111,2,0,P|68:84|68:48,2,70,8|0|2,0:0|0:0|0:0,0:0:0:0:
228,204,108000,1,8,0:0:0:0:
256,368,108444,5,4,0:0:0:0:
420,336,108889,1,8,0:0:0:0:
500,188,109333,1,2,0:0:0:0:
424,40,109778,2,0,P|460:32|492:28,2,70,8|0|2,0:0|0:0|0:0,0:0:0:0:
292,140,110666,1,8,0:0:0:0:
292,140,110888,2,0,P|268:208|156:280,1,210,0|8,0:0|0:0,0:0:0:0:
56,144,111999,6,0,P|99:89|158:51,1,140,4|8,0:0|0:0,0:0:0:0:
328,52,112888,2,0,P|386:90|430:144,1,140,2|8,0:0|0:0,0:0:0:0:
296,244,113777,2,0,P|220:280|160:52,1,420,2|8,0:0|0:0,0:0:0:0:
324,16,115555,5,4,0:0:0:0:
468,108,116000,1,8,0:0:0:0:
324,192,116444,1,2,0:0:0:0:
468,276,116888,2,0,P|476:312|476:352,2,70,8|0|2,0:0|0:0|0:0,0:0:0:0:
320,356,117777,1,8,0:0:0:0:
320,356,117999,2,0,P|220:340|120:296,1,210,0|8,0:0|0:0,0:0:0:0:
20,160,119111,5,4,0:0:0:0:
172,88,119555,1,8,0:0:0:0:
340,88,120000,1,2,0:0:0:0:
492,160,120444,2,0,P|492:200|480:240,2,70,8|0|2,0:0|0:0|0:0,0:0:0:0:
340,88,121333,2,0,P|300:96|272:112,2,70,8|0|2,0:0|0:0|0:0,0:0:0:0:
364,256,122222,1,8,0:0:0:0:
208,324,122666,5,4,0:0:0:0:
52,256,123111,1,8,0:0:0:0:
72,88,123555,1,2,0:0:0:0:
232,36,123999,2,0,P|268:24|304:24,2,70,8|0|2,0:0|0:0|0:0,0:0:0:0:
296,192,124888,1,8,0:0:0:0:
296,192,125111,2,0,P|284:276|192:352,1,210,0|8,0:0|0:0,0:0:0:0:
24,356,126222,6,0,P|16:288|20:216,1,140,4|8,0:0|0:0,0:0:0:0:
36,48,127111,2,0,P|105:40|170:64,1,140,2|8,0:0|0:0,0:0:0:0:
340,64,127999,2,0,P|405:40|474:47,1,140,2|8,0:0|0:0,0:0:0:0:
492,216,128888,2,0,P|496:286|488:356,1,140,2|8,0:0|0:0,0:0:0:0:
320,356,129778,5,4,0:0:0:0:
156,320,130222,1,4,0:0:0:0:
48,192,130666,1,4,0:0:0:0:
156,64,131111,1,4,0:0:0:0:
320,28,131555,1,4,0:0:0:0:
256,192,131999,12,4,135111,0:0:0:0:
