osu file format v14

[General]
AudioFilename: Woofle and Strife - Freedom Planet Official Soundtrack - 16 Fortune Night 1.mp3
AudioLeadIn: 0
PreviewTime: 42666
Countdown: 0
SampleSet: Soft
StackLeniency: 0.7
Mode: 0
LetterboxInBreaks: 1
WidescreenStoryboard: 1

[Editor]
Bookmarks: 14222
DistanceSpacing: 1.2
BeatDivisor: 4
GridSize: 4
TimelineZoom: 1

[Metadata]
Title:Fortune Night 1
TitleUnicode:Fortune Night 1
Artist:Woofle and Strife
ArtistUnicode:Woofle and Strife
Creator:Pereira006
Version:Insane
Source:Freedom Planet
Tags:GalaxyTrail フリーダム・プラネット
BeatmapID:543834
BeatmapSetID:217444

[Difficulty]
HPDrainRate:7
CircleSize:4.2
OverallDifficulty:7
ApproachRate:8
SliderMultiplier:1.8
SliderTickRate:2

[Events]
//Background and Video events
0,0,"bg.jpg",0,0
//Break Periods
2,73088,78222
//Storyboard Layer 0 (Background)
//Storyboard Layer 1 (Fail)
//Storyboard Layer 2 (Pass)
//Storyboard Layer 3 (Foreground)
//Storyboard Sound Samples

[TimingPoints]
0,444.444444444444,4,2,0,60,1,0
27777,-100,4,3,0,70,0,0
28444,-100,4,2,0,60,0,0
41999,-100,4,3,0,70,0,0
42666,-100,4,2,1,80,0,0
71111,-100,4,2,0,80,0,0
72888,-100,4,2,0,60,0,0
86444,-100,4,3,0,70,0,0
87111,-100,4,2,0,60,0,0
100666,-100,4,3,0,70,0,0
101333,-100,4,2,1,80,0,1
115444,-100,4,1,0,100,0,0
115555,-100,4,2,1,80,0,1
129777,-100,4,2,0,80,0,0
131555,-100,4,2,0,60,0,0

[Colours]
Combo1 : 253,26,26
Combo2 : 252,239,3
Combo3 : 51,70,244
SliderBorder : 255,255,0

[HitObjects]
44,224,14222,6,0,P|76:304|156:344,1,180,4|8,0:0|0:0,0:0:0:0:
344,236,14888,2,0,P|256:220|168:236,1,180,2|0,0:0|0:0,0:0:0:0:
355,344,15555,2,0,P|434:305|468:224,1,180,8|2,0:0|0:0,0:0:0:0:
456,116,16222,2,0,L|492:88,2,45,0|0|8,0:0|0:0|0:0,0:0:0:0:
380,40,16666,1,0,0:0:0:0:
336,140,16888,1,2,0:0:0:0:
228,156,17111,2,0,L|200:192,2,45,0|0|8,0:0|0:0|0:0,0:0:0:0:
268,56,17555,1,0,0:0:0:0:
160,48,17777,6,0,P|59:45|26:107,1,180,4|8,0:0|0:0,0:0:0:0:
84,200,18444,2,0,P|155:171|103:113,1,180,2|0,0:0|0:0,0:0:0:0:
7,171,19111,2,0,P|17:255|100:288,1,180,8|2,0:0|0:0,0:0:0:0:
196,228,19777,1,0,0:0:0:0:
345,105,19999,2,0,P|303:122|264:144,1,90,8|0,0:0|0:0,0:0:0:0:
487,170,20444,2,0,P|477:126|453:89,1,90,2|0,0:0|0:0,0:0:0:0:
316,268,20888,2,0,P|359:254|401:237,1,90,8|0,0:0|0:0,0:0:0:0:
344,104,21333,6,0,P|252:100|164:116,1,180,4|8,0:0|0:0,0:0:0:0:
165,268,21999,2,0,P|254:284|344:279,1,180,2|0,0:0|0:0,0:0:0:0:
408,192,22666,2,0,L|136:192,1,270,8|0,0:0|0:0,0:0:0:0:
116,336,23555,1,8,0:0:0:0:
48,252,23777,1,0,0:0:0:0:
224,336,23999,1,2,0:0:0:0:
48,252,24222,2,0,P|36:164|96:96,1,180
220,72,24888,6,0,P|312:72|392:104,1,180,4|8,0:0|0:0,0:0:0:0:
392,279,25555,2,0,P|309:312|220:312,1,180,2|0,0:0|0:0,0:0:0:0:
112,288,26222,1,8,0:0:0:0:
44,204,26444,1,0,0:0:0:0:
44,96,26666,2,0,P|44:52|76:20,1,90,2|0,0:0|0:0,0:0:0:0:
240,95,27111,2,0,P|196:103|152:96,1,90,8|0,0:0|0:0,0:0:0:0:
324,28,27555,1,2,0:0:0:0:
372,156,27777,1,2,0:0:0:0:
320,280,27999,1,2,0:0:0:0:
196,336,28222,1,2,0:0:0:0:
100,244,28444,6,0,P|104:152|144:76,1,180,4|8,0:0|0:0,0:0:0:0:
320,175,29111,2,0,P|256:228|191:175,1,180,2|0,0:0|0:0,0:0:0:0:
367,75,29777,2,0,P|408:154|412:244,1,180,8|2,0:0|0:0,0:0:0:0:
348,332,30444,2,0,L|376:368,2,45,0|0|8,0:0|0:0|0:0,0:0:0:0:
244,312,30888,2,0,P|200:292|168:260,1,90,0|2,0:0|0:0,0:0:0:0:
108,176,31333,2,0,L|64:184,2,45,0|0|8,0:0|0:0|0:0,0:0:0:0:
144,72,31777,1,0,0:0:0:0:
144,72,31888,1,0,0:0:0:0:
144,72,31999,6,0,P|244:64|352:68,1,180,4|8,0:0|0:0,0:0:0:0:
452,108,32666,2,0,P|480:192|452:276,1,180,2|0,0:0|0:0,0:0:0:0:
323,318,33333,2,0,P|233:319|144:312,1,180,8|2,0:0|0:0,0:0:0:0:
36,304,33999,2,0,P|36:256|56:216,1,90,0|8,0:0|0:0,0:0:0:0:
249,144,34444,1,0,0:0:0:0:
327,219,34666,1,2,0:0:0:0:
144,163,34888,1,0,0:0:0:0:
432,200,35111,1,8,0:0:0:0:
432,164,35222,1,0,0:0:0:0:
432,132,35333,1,0,0:0:0:0:
424,100,35444,1,0,0:0:0:0:
412,72,35555,6,0,P|320:56|232:56,1,180,4|8,0:0|0:0,0:0:0:0:
141,165,36222,2,0,P|185:227|232:164,1,180,2|0,0:0|0:0,0:0:0:0:
140,60,36888,2,0,P|64:104|48:200,1,180,8|2,0:0|0:0,0:0:0:0:
48,220,37444,1,0,0:0:0:0:
56,252,37555,1,0,0:0:0:0:
232,336,37777,1,8,0:0:0:0:
336,308,37999,1,0,0:0:0:0:
124,336,38222,1,2,0:0:0:0:
336,308,38444,2,0,P|380:228|388:140,1,180
264,88,39111,6,0,P|174:87|85:103,1,180,4|8,0:0|0:0,0:0:0:0:
85,280,39777,2,0,P|174:296|264:296,1,180,2|0,0:0|0:0,0:0:0:0:
372,288,40444,1,8,0:0:0:0:
460,224,40666,1,0,0:0:0:0:
464,116,40888,2,0,P|424:88|384:76,1,90,2|0,0:0|0:0,0:0:0:0:
284,144,41333,2,0,P|321:170|364:184,1,90,8|0,0:0|0:0,0:0:0:0:
256,40,41777,1,2,0:0:0:0:
124,12,41999,1,2,0:0:0:0:
4,76,42222,1,2,0:0:0:0:
12,212,42444,1,2,0:0:0:0:
120,288,42666,6,0,P|156:313|200:324,1,90,4|0,0:0|0:0,0:0:0:0:
304,100,43111,2,0,P|267:74|224:62,1,90,8|0,0:0|0:0,0:0:0:0:
298,282,43555,2,0,P|323:245|335:202,1,90,2|0,0:0|0:0,0:0:0:0:
123,105,43999,2,0,P|97:141|87:185,2,90,8|0|2,0:0|0:0|0:0,0:0:0:0:
256,268,44666,1,0,0:0:0:0:
256,268,44777,1,0,0:0:0:0:
256,268,44888,1,8,0:0:0:0:
324,180,45111,1,0,0:0:0:0:
196,360,45333,1,2,0:0:0:0:
316,360,45555,1,0,0:0:0:0:
132,272,45777,1,8,0:0:0:0:
380,272,45999,1,0,0:0:0:0:
472,64,46222,6,0,P|428:56|384:64,1,90,4|0,0:0|0:0,0:0:0:0:
295,171,46666,2,0,P|339:180|384:172,1,90,8|0,0:0|0:0,0:0:0:0:
292,64,47111,2,0,P|248:56|204:64,1,90,2|0,0:0|0:0,0:0:0:0:
115,171,47555,2,0,P|159:180|204:172,2,90,8|0|2,0:0|0:0|0:0,0:0:0:0:
12,144,48222,1,0,0:0:0:0:
88,68,48444,1,8,0:0:0:0:
12,252,48666,2,0,P|32:340|112:360,1,180
316,296,49333,1,8,0:0:0:0:
220,348,49555,1,0,0:0:0:0:
368,204,49777,6,0,P|388:164|392:120,1,90,4|0,0:0|0:0,0:0:0:0:
220,60,50222,2,0,P|200:100|196:144,1,90,8|0,0:0|0:0,0:0:0:0:
300,184,50666,2,0,P|320:144|324:100,1,90,2|0,0:0|0:0,0:0:0:0:
156,36,51111,2,0,P|136:76|132:120,2,90,8|0|2,0:0|0:0|0:0,0:0:0:0:
264,32,51777,1,0,0:0:0:0:
264,32,51888,1,0,0:0:0:0:
264,32,51999,1,8,0:0:0:0:
372,52,52222,1,0,0:0:0:0:
464,104,52444,1,2,0:0:0:0:
396,192,52666,1,0,0:0:0:0:
400,300,52888,1,8,0:0:0:0:
492,244,53111,1,0,0:0:0:0:
340,100,53333,5,4,0:0:0:0:
240,140,53555,1,0,0:0:0:0:
396,192,53777,1,8,0:0:0:0:
196,40,53999,1,0,0:0:0:0:
196,40,54111,1,0,0:0:0:0:
196,40,54222,2,0,P|104:48|76:124,1,180,2|8,0:0|0:0,0:0:0:0:
340,184,54888,1,0,0:0:0:0:
84,228,55111,1,2,0:0:0:0:
320,336,55333,1,0,0:0:0:0:
188,156,55555,1,8,0:0:0:0:
164,324,55777,1,0,0:0:0:0:
416,284,55999,2,0,P|480:228|448:148,1,180,2|8,0:0|0:0,0:0:0:0:
364,80,56666,1,0,0:0:0:0:
364,80,56777,1,0,0:0:0:0:
364,80,56888,5,4,0:0:0:0:
268,32,57111,1,0,0:0:0:0:
268,32,57333,2,0,P|224:40|180:60,1,90,8|0,0:0|0:0,0:0:0:0:
256,225,57777,2,0,P|260:180|256:136,1,90,2|0,0:0|0:0,0:0:0:0:
184,308,58222,2,0,P|225:326|269:334,2,90,8|0|2,0:0|0:0|0:0,0:0:0:0:
88,256,58888,1,0,0:0:0:0:
88,256,58999,1,0,0:0:0:0:
88,256,59111,1,8,0:0:0:0:
48,156,59333,1,0,0:0:0:0:
88,56,59555,1,2,0:0:0:0:
188,16,59777,1,0,0:0:0:0:
296,20,59999,1,8,0:0:0:0:
400,52,60222,1,0,0:0:0:0:
400,52,60333,1,0,0:0:0:0:
400,52,60444,5,4,0:0:0:0:
476,128,60666,1,0,0:0:0:0:
400,204,60888,1,8,0:0:0:0:
476,280,61111,1,0,0:0:0:0:
400,356,61333,2,0,P|356:364|304:364,1,90,2|0,0:0|0:0,0:0:0:0:
204,364,61777,1,8,0:0:0:0:
204,364,61999,2,0,P|120:324|92:244,1,180
92,140,62666,1,8,0:0:0:0:
92,140,62888,2,0,P|123:58|204:22,1,180
312,32,63555,1,8,0:0:0:0:
416,52,63777,1,0,0:0:0:0:
416,52,63888,1,0,0:0:0:0:
416,52,63999,5,4,0:0:0:0:
464,148,64222,1,0,0:0:0:0:
464,148,64444,2,0,P|456:192|464:236,1,90,8|0,0:0|0:0,0:0:0:0:
396,320,64888,2,0,P|352:312|308:320,1,90,2|0,0:0|0:0,0:0:0:0:
240,148,65333,2,0,P|248:192|240:236,2,90,8|0|2,0:0|0:0|0:0,0:0:0:0:
180,56,65999,1,0,0:0:0:0:
180,56,66111,1,0,0:0:0:0:
180,56,66222,1,8,0:0:0:0:
76,92,66444,1,0,0:0:0:0:
32,192,66666,1,2,0:0:0:0:
48,300,66888,1,0,0:0:0:0:
144,348,67111,1,8,0:0:0:0:
252,348,67333,1,0,0:0:0:0:
252,348,67444,1,0,0:0:0:0:
252,348,67555,6,0,P|293:330|325:300,1,90,4|0,0:0|0:0,0:0:0:0:
229,152,67999,2,0,P|187:169|155:199,1,90,8|0,0:0|0:0,0:0:0:0:
324,300,68444,2,0,P|335:256|330:212,1,90,2|0,0:0|0:0,0:0:0:0:
155,199,68888,2,0,P|143:242|148:286,1,90,8|0,0:0|0:0,0:0:0:0:
331,213,69333,2,0,P|303:178|264:155,1,90,2|0,0:0|0:0,0:0:0:0:
149,287,69777,2,0,P|176:321|215:344,1,90,8|0,0:0|0:0,0:0:0:0:
264,154,70222,2,0,P|219:155|177:172,1,90,2|0,0:0|0:0,0:0:0:0:
215,345,70666,2,0,P|259:343|301:326,1,90,8|0,0:0|0:0,0:0:0:0:
384,256,71111,5,4,0:0:0:0:
256,84,71555,1,4,0:0:0:0:
128,256,71999,1,4,0:0:0:0:
200,336,72222,1,0,0:0:0:0:
230,343,72333,1,0,0:0:0:0:
261,349,72444,1,4,0:0:0:0:
292,351,72555,1,0,0:0:0:0:
324,351,72666,1,0,0:0:0:0:
355,349,72777,1,0,0:0:0:0:
386,344,72888,1,4,0:0:0:0:
332,336,79111,5,2,0:0:0:0:
444,260,79333,1,2,0:0:0:0:
444,124,79555,1,2,0:0:0:0:
332,48,79777,1,2,0:0:0:0:
332,48,79888,1,0,0:0:0:0:
332,48,79999,5,4,0:0:0:0:
224,64,80222,1,0,0:0:0:0:
224,64,80333,1,0,0:0:0:0:
224,64,80444,1,8,0:0:0:0:
132,120,80666,1,0,0:0:0:0:
132,120,80777,2,0,P|124:164|128:212,1,90,2|0,0:0|0:0,0:0:0:0:
132,240,81111,2,0,P|140:284|164:324,1,90,0|8,0:0|0:0,0:0:0:0:
268,344,81555,1,0,0:0:0:0:
300,348,81666,1,0,0:0:0:0:
332,352,81777,1,2,0:0:0:0:
420,292,81999,1,0,0:0:0:0:
424,260,82111,1,0,0:0:0:0:
428,228,82222,1,8,0:0:0:0:
424,120,82444,2,0,P|402:74|360:56,1,90,0|2,0:0|0:0,0:0:0:0:
264,36,82888,1,0,0:0:0:0:
156,44,83111,1,8,0:0:0:0:
76,120,83333,1,0,0:0:0:0:
72,228,83555,6,0,P|76:296|120:344,1,135,4|0,0:0|0:0,0:0:0:0:
152,348,83999,1,8,0:0:0:0:
296,352,84222,2,0,P|368:344|420:312,1,135,0|2,0:0|0:0,0:0:0:0:
424,280,84666,1,0,0:0:0:0:
420,248,84777,1,0,0:0:0:0:
408,220,84888,1,8,0:0:0:0:
364,120,85111,1,0,0:0:0:0:
260,96,85333,2,0,P|316:24|404:24,1,180,2|8,0:0|0:0,0:0:0:0:
448,116,85999,1,0,0:0:0:0:
464,224,86222,1,2,0:0:0:0:
376,328,86444,1,2,0:0:0:0:
256,264,86666,1,2,0:0:0:0:
128,328,86888,1,2,0:0:0:0:
60,244,87111,5,4,0:0:0:0:
68,136,87333,1,0,0:0:0:0:
68,136,87444,1,0,0:0:0:0:
68,136,87555,1,8,0:0:0:0:
136,52,87777,1,0,0:0:0:0:
136,52,87888,2,0,P|178:36|222:36,1,90,2|0,0:0|0:0,0:0:0:0:
256,36,88222,2,0,P|300:36|344:52,1,90,0|8,0:0|0:0,0:0:0:0:
432,112,88666,1,0,0:0:0:0:
448,140,88777,1,0,0:0:0:0:
456,172,88888,1,2,0:0:0:0:
348,172,89111,1,0,0:0:0:0:
336,200,89222,1,0,0:0:0:0:
312,220,89333,1,8,0:0:0:0:
212,260,89555,1,0,0:0:0:0:
212,260,89666,1,0,0:0:0:0:
212,260,89777,2,0,P|232:300|272:320,1,90,2|0,0:0|0:0,0:0:0:0:
380,304,90222,1,8,0:0:0:0:
452,224,90444,1,0,0:0:0:0:
452,224,90555,1,0,0:0:0:0:
452,224,90666,5,4,0:0:0:0:
436,116,90888,1,0,0:0:0:0:
420,88,90999,1,0,0:0:0:0:
400,64,91111,1,8,0:0:0:0:
296,36,91333,1,0,0:0:0:0:
296,36,91444,2,0,P|252:36|208:48,1,90,2|0,0:0|0:0,0:0:0:0:
184,68,91777,2,0,P|156:104|120:128,1,90,0|8,0:0|0:0,0:0:0:0:
32,192,92222,1,0,0:0:0:0:
36,300,92444,2,0,P|80:320|120:316,1,90,2|0,0:0|0:0,0:0:0:0:
308,240,92888,1,8,0:0:0:0:
200,240,93111,1,0,0:0:0:0:
391,315,93333,2,0,P|435:319|476:300,1,90,2|0,0:0|0:0,0:0:0:0:
492,192,93777,1,8,0:0:0:0:
440,96,93999,1,0,0:0:0:0:
352,36,94222,5,4,0:0:0:0:
244,28,94444,1,0,0:0:0:0:
244,28,94555,1,0,0:0:0:0:
244,28,94666,1,8,0:0:0:0:
140,52,94888,1,0,0:0:0:0:
140,52,94999,2,0,P|104:78|75:117,1,90,2|0,0:0|0:0,0:0:0:0:
58,140,95333,2,0,P|33:177|24:223,1,90,0|8,0:0|0:0,0:0:0:0:
88,308,95777,1,0,0:0:0:0:
108,332,95888,1,0,0:0:0:0:
136,344,95999,1,2,0:0:0:0:
244,348,96222,1,0,0:0:0:0:
272,340,96333,1,0,0:0:0:0:
300,328,96444,1,8,0:0:0:0:
392,272,96666,1,0,0:0:0:0:
432,172,96888,2,0,P|420:128|392:92,1,90,2|0,0:0|0:0,0:0:0:0:
292,56,97333,1,8,0:0:0:0:
184,64,97555,1,0,0:0:0:0:
184,64,97666,1,0,0:0:0:0:
184,64,97777,6,0,P|128:92|92:156,1,135,4|0,0:0|0:0,0:0:0:0:
88,184,98222,1,8,0:0:0:0:
120,292,98444,2,0,P|172:342|230:361,1,135,0|2,0:0|0:0,0:0:0:0:
264,360,98888,1,0,0:0:0:0:
296,356,98999,1,0,0:0:0:0:
320,336,99111,1,8,0:0:0:0:
376,244,99333,1,0,0:0:0:0:
404,140,99555,2,0,P|344:68|260:56,1,180,2|8,0:0|0:0,0:0:0:0:
156,52,100222,1,0,0:0:0:0:
56,92,100444,1,2,0:0:0:0:
36,228,100666,1,2,0:0:0:0:
72,360,100888,1,2,0:0:0:0:
208,348,101111,1,2,0:0:0:0:
408,332,101333,6,0,L|408:232,1,90,4|0,0:0|0:0,0:0:0:0:
192,133,101777,2,0,L|192:232,1,90,8|0,0:0|0:0,0:0:0:0:
300,280,102222,2,0,L|300:176,1,90,2|0,0:0|0:0,0:0:0:0:
84,84,102666,2,0,L|84:184,2,90,8|0|2,0:0|0:0|0:0,0:0:0:0:
180,32,103333,1,0,0:0:0:0:
216,28,103444,1,0,0:0:0:0:
252,32,103555,1,8,0:0:0:0:
356,64,103777,1,0,0:0:0:0:
436,152,103999,1,2,0:0:0:0:
428,32,104222,1,0,0:0:0:0:
368,132,104444,1,8,0:0:0:0:
480,88,104666,1,0,0:0:0:0:
396,260,104888,6,0,P|392:308|374:353,1,90,4|0,0:0|0:0,0:0:0:0:
201,314,105333,2,0,P|204:265|223:220,1,90,8|0,0:0|0:0,0:0:0:0:
329,243,105777,2,0,P|326:292|307:338,1,90,2|0,0:0|0:0,0:0:0:0:
135,299,106222,2,0,P|138:250|157:205,2,90,8|0|2,0:0|0:0|0:0,0:0:0:0:
24,232,106888,1,0,0:0:0:0:
36,340,107111,1,8,0:0:0:0:
64,132,107333,2,0,P|128:84|228:72,1,180
332,64,107999,1,8,0:0:0:0:
440,52,108222,1,0,0:0:0:0:
464,72,108333,1,0,0:0:0:0:
480,100,108444,5,4,0:0:0:0:
464,208,108666,1,0,0:0:0:0:
404,304,108888,2,0,P|372:344|328:360,1,90,8|0,0:0|0:0,0:0:0:0:
212,252,109333,2,0,P|256:244|300:252,1,90,2|0,0:0|0:0,0:0:0:0:
183,359,109777,2,0,P|138:342|108:304,2,90,8|0|2,0:0|0:0|0:0,0:0:0:0:
256,152,110444,1,0,0:0:0:0:
212,252,110666,1,8,0:0:0:0:
360,152,110888,1,0,0:0:0:0:
152,152,111111,1,2,0:0:0:0:
312,56,111333,1,0,0:0:0:0:
200,56,111555,1,8,0:0:0:0:
300,252,111777,1,0,0:0:0:0:
412,280,111999,5,4,0:0:0:0:
460,184,112222,1,0,0:0:0:0:
332,352,112444,1,8,0:0:0:0:
460,184,112666,1,0,0:0:0:0:
460,184,112777,1,0,0:0:0:0:
460,184,112888,2,0,P|420:128|300:152,1,180,2|8,0:0|0:0,0:0:0:0:
256,220,113555,1,0,0:0:0:0:
256,192,113777,12,0,115333,0:0:0:0:
48,216,115555,6,0,P|62:258|90:293,1,90,4|0,0:0|0:0,0:0:0:0:
266,199,115999,2,0,P|253:156|225:121,1,90,8|0,0:0|0:0,0:0:0:0:
182,348,116444,2,0,P|225:334|260:306,1,90,2|0,0:0|0:0,0:0:0:0:
132,67,116888,2,0,P|90:80|55:108,2,90,8|0|2,0:0|0:0|0:0,0:0:0:0:
188,160,117555,1,0,0:0:0:0:
212,140,117666,1,0,0:0:0:0:
224,112,117777,1,8,0:0:0:0:
300,36,117999,1,0,0:0:0:0:
376,176,118222,1,2,0:0:0:0:
376,68,118444,1,0,0:0:0:0:
300,144,118666,1,8,0:0:0:0:
444,92,118888,1,0,0:0:0:0:
460,120,118999,1,0,0:0:0:0:
476,148,119111,5,4,0:0:0:0:
476,356,119333,1,0,0:0:0:0:
508,252,119555,1,8,0:0:0:0:
292,308,119777,1,0,0:0:0:0:
324,204,119999,1,2,0:0:0:0:
404,276,120222,1,0,0:0:0:0:
188,344,120444,1,8,0:0:0:0:
188,344,120666,2,0,P|100:332|76:252,1,180
188,40,121333,1,8,0:0:0:0:
188,40,121555,2,0,P|100:52|76:132,1,180
128,224,122222,1,8,0:0:0:0:
212,292,122444,1,0,0:0:0:0:
240,306,122555,1,0,0:0:0:0:
272,304,122666,5,4,0:0:0:0:
364,360,122888,1,0,0:0:0:0:
336,256,123111,1,8,0:0:0:0:
440,228,123333,1,0,0:0:0:0:
344,180,123555,1,2,0:0:0:0:
380,76,123777,1,0,0:0:0:0:
284,28,123999,1,8,0:0:0:0:
284,28,124222,2,0,P|208:56|168:144,1,180
48,356,124888,1,8,0:0:0:0:
48,356,125111,2,0,P|124:328|164:240,1,180
196,136,125777,1,8,0:0:0:0:
268,56,125999,1,0,0:0:0:0:
300,40,126111,1,0,0:0:0:0:
332,40,126222,6,0,P|376:56|412:80,1,90,4|0,0:0|0:0,0:0:0:0:
331,237,126666,2,0,P|323:192|327:147,1,90,8|0,0:0|0:0,0:0:0:0:
412,304,127111,2,0,P|374:328|332:343,1,90,2|0,0:0|0:0,0:0:0:0:
163,272,127555,2,0,P|207:264|252:272,1,90,8|0,0:0|0:0,0:0:0:0:
84,344,127999,2,0,P|41:328|4:304,1,90,2|0,0:0|0:0,0:0:0:0:
87,142,128444,2,0,P|91:187|84:232,1,90,8|0,0:0|0:0,0:0:0:0:
8,68,128888,2,0,P|45:43|87:28,1,90,2|0,0:0|0:0,0:0:0:0:
264,91,129333,2,0,P|220:99|175:91,1,90,8|0,0:0|0:0,0:0:0:0:
352,28,129777,5,4,0:0:0:0:
492,192,130222,1,4,0:0:0:0:
352,356,130666,1,4,0:0:0:0:
244,356,130888,1,0,0:0:0:0:
212,348,130999,1,0,0:0:0:0:
184,336,131111,1,4,0:0:0:0:
156,320,131222,1,0,0:0:0:0:
132,300,131333,1,0,0:0:0:0:
112,276,131444,1,0,0:0:0:0:
96,248,131555,1,4,0:0:0:0:
256,192,131999,12,4,135111,0:0:0:0:
