osu file format v13

[General]
AudioFilename: Woofle and Strife - Freedom Planet Official Soundtrack - 16 Fortune Night 1.mp3
AudioLeadIn: 0
PreviewTime: 42666
Countdown: 0
SampleSet: Soft
StackLeniency: 0.7
Mode: 0
LetterboxInBreaks: 1
WidescreenStoryboard: 1

[Editor]
Bookmarks: 14222
DistanceSpacing: 1.2
BeatDivisor: 4
GridSize: 4
TimelineZoom: 1

[Metadata]
Title:Fortune Night 1
TitleUnicode:Fortune Night 1
Artist:Woofle and Strife
ArtistUnicode:Woofle and Strife
Creator:Pereira006
Version:Hard
Source:Freedom Planet
Tags:GalaxyTrail フリーダム・プラネット
BeatmapID:511403
BeatmapSetID:217444

[Difficulty]
HPDrainRate:5
CircleSize:4
OverallDifficulty:5
ApproachRate:6
SliderMultiplier:1.6
SliderTickRate:2

[Events]
//Background and Video events
0,0,"bg.jpg",0,0
//Break Periods
2,73088,77999
//Storyboard Layer 0 (Background)
//Storyboard Layer 1 (Fail)
//Storyboard Layer 2 (Pass)
//Storyboard Layer 3 (Foreground)
//Storyboard Sound Samples

[TimingPoints]
0,444.444444444444,4,2,0,60,1,0
27777,-100,4,3,0,70,0,0
28444,-100,4,2,0,60,0,0
41999,-100,4,3,0,70,0,0
42666,-100,4,2,1,80,0,0
71111,-100,4,2,0,80,0,0
72888,-100,4,2,0,60,0,0
86444,-100,4,3,0,70,0,0
87111,-100,4,2,0,60,0,0
100666,-100,4,3,0,70,0,0
101333,-100,4,2,1,80,0,1
115444,-100,4,2,0,80,0,0
115555,-100,4,2,1,80,0,1
129777,-100,4,2,0,80,0,0
131555,-100,4,2,0,60,0,0

[Colours]
Combo1 : 253,26,26
Combo2 : 252,239,3
Combo3 : 51,70,244
SliderBorder : 255,255,0

[HitObjects]
40,188,14222,6,0,P|36:108|96:56,1,160,4|8,0:0|0:0,0:0:0:0:
124,148,14888,2,0,P|200:168|277:148,1,160,2|0,0:0|0:0,0:0:0:0:
308,57,15555,2,0,P|364:110|359:187,1,160,8|2,0:0|0:0,0:0:0:0:
332,280,16222,2,0,L|360:312,2,40,0|0|8,0:0|0:0|0:0,0:0:0:0:
236,264,16666,2,0,P|196:260|156:264,1,80,0|2,0:0|0:0,0:0:0:0:
60,280,17111,2,0,L|32:312,2,40,0|0|8,0:0|0:0|0:0,0:0:0:0:
180,120,17777,6,0,P|254:87|332:70,1,160,4|8,0:0|0:0,0:0:0:0:
428,74,18444,2,0,P|467:142|467:221,1,160,2|0,0:0|0:0,0:0:0:0:
385,271,19111,2,0,P|308:295|229:304,1,160,8|2,0:0|0:0,0:0:0:0:
151,246,19777,2,0,L|154:166,1,80,0|8,0:0|0:0,0:0:0:0:
242,201,20222,2,0,L|245:121,1,80,0|2,0:0|0:0,0:0:0:0:
335,159,20666,2,0,L|338:79,1,80,0|8,0:0|0:0,0:0:0:0:
180,192,21333,6,0,P|100:192|28:228,1,160,4|8,0:0|0:0,0:0:0:0:
29,325,21999,2,0,P|100:359|179:359,1,160,2|0,0:0|0:0,0:0:0:0:
132,276,22666,2,0,L|292:276,1,160,8|2,0:0|0:0,0:0:0:0:
388,280,23333,1,0,0:0:0:0:
432,196,23555,2,0,P|468:216|484:256,2,80,8|0|2,0:0|0:0|0:0,0:0:0:0:
356,140,24222,1,0,0:0:0:0:
260,124,24444,1,8,0:0:0:0:
64,136,24888,6,0,P|68:216|100:292,1,160,4|8,0:0|0:0,0:0:0:0:
179,336,25555,2,0,P|256:356|332:336,1,160,2|0,0:0|0:0,0:0:0:0:
413,289,26222,2,0,P|444:215|448:136,1,160,8|2,0:0|0:0,0:0:0:0:
376,72,26888,2,0,P|336:56|300:52,1,80,0|8,0:0|0:0,0:0:0:0:
312,148,27333,2,0,P|272:143|235:128,1,80,0|2,0:0|0:0,0:0:0:0:
148,88,27777,1,2,0:0:0:0:
60,124,27999,1,2,0:0:0:0:
12,212,28222,1,2,0:0:0:0:
8,304,28444,6,0,P|80:268|100:196,1,160,4|8,0:0|0:0,0:0:0:0:
148,112,29111,2,0,P|224:91|300:112,1,160,2|0,0:0|0:0,0:0:0:0:
348,196,29777,2,0,P|369:270|439:304,1,160,8|2,0:0|0:0,0:0:0:0:
444,208,30444,2,0,L|480:192,2,40,0|0|8,0:0|0:0|0:0,0:0:0:0:
400,120,30888,2,0,P|364:100|324:100,1,80,0|2,0:0|0:0,0:0:0:0:
228,100,31333,2,0,L|228:60,2,40,0|0|8,0:0|0:0|0:0,0:0:0:0:
52,172,31999,6,0,P|31:248|51:324,1,160,4|8,0:0|0:0,0:0:0:0:
148,324,32666,2,0,P|127:247|148:171,1,160,2|0,0:0|0:0,0:0:0:0:
244,172,33333,2,0,P|223:248|243:324,1,160,8|2,0:0|0:0,0:0:0:0:
340,320,33999,2,0,P|380:320|420:304,2,80,0|8|0,0:0|0:0|0:0,0:0:0:0:
364,228,34666,1,2,0:0:0:0:
352,132,34888,1,0,0:0:0:0:
292,56,35111,1,8,0:0:0:0:
104,28,35555,6,0,P|68:100|64:180,1,160,4|8,0:0|0:0,0:0:0:0:
160,192,36222,2,0,L|320:192,1,160,2|0,0:0|0:0,0:0:0:0:
416,204,36888,2,0,P|411:283|375:354,1,160,8|2,0:0|0:0,0:0:0:0:
280,368,37555,1,0,0:0:0:0:
188,348,37777,1,8,0:0:0:0:
148,260,37999,1,0,0:0:0:0:
120,168,38222,2,0,P|76:196|60:224,2,80,2|0|8,0:0|0:0|0:0,0:0:0:0:
268,44,39111,6,0,P|348:44|420:80,1,160,4|8,0:0|0:0,0:0:0:0:
424,176,39777,2,0,P|352:210|273:210,1,160,2|0,0:0|0:0,0:0:0:0:
224,128,40444,2,0,P|64:152|196:336,1,480,8|2,0:0|0:0,0:0:0:0:
288,332,41999,1,2,0:0:0:0:
368,276,42222,1,2,0:0:0:0:
420,196,42444,1,2,0:0:0:0:
400,104,42666,6,0,L|320:88,1,80,4|0,0:0|0:0,0:0:0:0:
304,184,43111,2,0,L|224:168,1,80,8|0,0:0|0:0,0:0:0:0:
248,76,43555,2,0,L|168:60,1,80,2|0,0:0|0:0,0:0:0:0:
152,156,43999,2,0,L|72:140,2,80,8|0|2,0:0|0:0|0:0,0:0:0:0:
112,244,44666,2,0,P|116:324|180:360,1,160
276,360,45333,1,2,0:0:0:0:
296,268,45555,1,0,0:0:0:0:
376,320,45777,1,8,0:0:0:0:
404,228,45999,1,0,0:0:0:0:
420,132,46222,6,0,L|400:52,1,80,4|0,0:0|0:0,0:0:0:0:
324,116,46666,2,0,L|304:193,1,80,8|0,0:0|0:0,0:0:0:0:
207,193,47111,2,0,L|188:116,1,80,2|0,0:0|0:0,0:0:0:0:
108,60,47555,2,0,L|89:138,2,80,8|0|2,0:0|0:0|0:0,0:0:0:0:
204,44,48222,2,0,L|284:28,2,80,0|8|0,0:0|0:0|0:0,0:0:0:0:
220,140,48888,1,2,0:0:0:0:
204,236,49111,2,0,L|282:251,2,80,0|8|0,0:0|0:0|0:0,0:0:0:0:
128,184,49777,6,0,P|116:224|120:264,1,80,4|0,0:0|0:0,0:0:0:0:
136,356,50222,2,0,P|176:348|208:324,1,80,8|0,0:0|0:0,0:0:0:0:
304,324,50666,2,0,P|336:347|375:354,1,80,2|0,0:0|0:0,0:0:0:0:
392,261,51111,2,0,P|395:221|384:184,2,80,8|0|2,0:0|0:0|0:0,0:0:0:0:
300,232,51777,2,0,P|300:192|308:152,2,80,0|8|0,0:0|0:0|0:0,0:0:0:0:
212,192,52444,2,0,P|96:152|72:240,1,240,2|0,0:0|0:0,0:0:0:0:
112,324,53333,5,4,0:0:0:0:
200,364,53555,1,0,0:0:0:0:
296,352,53777,1,8,0:0:0:0:
368,288,53999,2,0,P|424:208|348:108,1,240,0|8,0:0|0:0,0:0:0:0:
256,72,54888,1,0,0:0:0:0:
164,107,55111,2,0,P|88:190|144:288,1,240,2|0,0:0|0:0,0:0:0:0:
200,364,55999,1,2,0:0:0:0:
256,284,56222,1,0,0:0:0:0:
312,364,56444,1,8,0:0:0:0:
384,304,56666,2,0,L|424:324,2,40,0|0|4,0:0|0:0|0:0,0:0:0:0:
404,212,57111,5,0,0:0:0:0:
436,120,57333,2,0,P|408:88|372:72,1,80,8|0,0:0|0:0,0:0:0:0:
296,20,57777,2,0,P|256:16|216:20,1,80,2|0,0:0|0:0,0:0:0:0:
137,72,58222,2,0,P|101:89|76:120,2,80,8|0|2,0:0|0:0|0:0,0:0:0:0:
160,164,58888,2,0,L|107:223,2,80,0|8|0,0:0|0:0|0:0,0:0:0:0:
256,148,59555,1,2,0:0:0:0:
352,164,59777,2,0,L|404:104,2,80,0|8|0,0:0|0:0|0:0,0:0:0:0:
404,244,60444,6,0,P|444:256|476:280,2,80,4|0|8,0:0|0:0|0:0,0:0:0:0:
360,328,61111,1,0,0:0:0:0:
264,324,61333,2,0,P|224:328|184:316,1,80,2|0,0:0|0:0,0:0:0:0:
112,252,61777,2,0,P|80:276|60:312,2,80,8|0|2,0:0|0:0|0:0,0:0:0:0:
188,192,62444,1,0,0:0:0:0:
112,132,62666,2,0,P|80:108|60:72,2,80,8|0|2,0:0|0:0|0:0,0:0:0:0:
160,48,63333,1,0,0:0:0:0:
256,68,63555,2,0,L|256:108,2,40,8|0|0,0:0|0:0|0:0,0:0:0:0:
352,48,63999,5,4,0:0:0:0:
408,132,64222,1,0,0:0:0:0:
408,228,64444,2,0,P|400:272|384:304,1,80,8|0,0:0|0:0,0:0:0:0:
296,336,64888,2,0,P|256:324|220:336,1,80,2|0,0:0|0:0,0:0:0:0:
132,304,65333,2,0,P|108:268|108:228,2,80,8|0|2,0:0|0:0|0:0,0:0:0:0:
196,236,65999,2,0,P|196:156|136:112,1,160
40,100,66666,1,2,0:0:0:0:
112,36,66888,1,0,0:0:0:0:
208,20,67111,1,8,0:0:0:0:
304,20,67333,1,0,0:0:0:0:
400,44,67555,5,4,0:0:0:0:
500,208,67999,1,8,0:0:0:0:
360,340,68444,1,2,0:0:0:0:
352,148,68888,1,8,0:0:0:0:
160,148,69333,1,2,0:0:0:0:
152,340,69777,1,8,0:0:0:0:
12,208,70222,1,2,0:0:0:0:
112,44,70666,1,8,0:0:0:0:
304,48,71111,6,4,P|384:64|440:116,1,160
444,308,71999,2,4,P|385:361|308:375,1,160
120,332,72888,1,4,0:0:0:0:
168,56,79111,6,2,P|92:84|40:144,1,160,0|0,0:0|0:0,0:0:0:0:
104,324,79999,5,4,0:0:0:0:
292,292,80444,2,0,P|356:292|412:304,2,120,8|2|0,0:0|0:0|0:0,0:0:0:0:
256,200,81333,1,8,0:0:0:0:
292,108,81555,1,0,0:0:0:0:
292,108,81666,1,0,0:0:0:0:
292,108,81777,2,0,P|356:108|412:96,2,120,2|0|0,0:0|0:0|0:0,0:0:0:0:
196,92,82666,1,2,0:0:0:0:
20,172,83111,1,8,0:0:0:0:
132,328,83555,6,0,P|188:348|248:352,1,120,4|2,0:0|0:0,0:0:0:0:
296,348,83999,1,8,0:0:0:0:
392,332,84222,2,0,P|420:272|428:220,1,120,0|2,0:0|0:0,0:0:0:0:
420,124,84777,2,0,L|380:104,1,40,0|8,0:0|0:0,0:0:0:0:
292,76,85111,1,0,0:0:0:0:
196,64,85333,2,0,P|112:64|36:84,1,160,2|8,0:0|0:0,0:0:0:0:
164,344,86444,1,2,0:0:0:0:
256,372,86666,1,2,0:0:0:0:
348,344,86888,1,2,0:0:0:0:
400,264,87111,5,4,0:0:0:0:
344,80,87555,2,0,P|404:56|464:56,2,120,8|2|0,0:0|0:0|0:0,0:0:0:0:
256,40,88444,1,8,0:0:0:0:
160,40,88666,1,0,0:0:0:0:
160,40,88777,1,0,0:0:0:0:
160,40,88888,1,2,0:0:0:0:
64,60,89111,1,0,0:0:0:0:
4,136,89333,2,0,P|8:204|32:256,1,120,8|0,0:0|0:0,0:0:0:0:
56,292,89777,1,0,0:0:0:0:
208,176,90222,1,8,0:0:0:0:
252,368,90666,5,4,0:0:0:0:
396,244,91111,2,0,P|440:296|456:352,2,120,8|2|0,0:0|0:0|0:0,0:0:0:0:
304,216,91999,1,8,0:0:0:0:
112,228,92444,2,0,P|120:144|172:92,1,160,2|8,0:0|0:0,0:0:0:0:
264,64,93111,2,0,P|304:68|340:88,1,80,0|2,0:0|0:0,0:0:0:0:
452,244,93777,1,8,0:0:0:0:
392,320,93999,1,0,0:0:0:0:
296,336,94222,5,4,0:0:0:0:
104,348,94666,2,0,P|48:312|16:264,2,120,8|2|0,0:0|0:0|0:0,0:0:0:0:
200,336,95555,1,8,0:0:0:0:
248,252,95777,1,0,0:0:0:0:
248,252,95888,1,0,0:0:0:0:
248,252,95999,1,2,0:0:0:0:
208,164,96222,1,0,0:0:0:0:
144,236,96444,2,0,P|76:228|44:188,1,120,8|2,0:0|0:0,0:0:0:0:
44,144,96888,1,2,0:0:0:0:
200,32,97333,1,8,0:0:0:0:
396,32,97777,6,0,P|456:84|476:160,1,160,4|8,0:0|0:0,0:0:0:0:
476,256,98444,2,0,P|444:302|384:334,1,120,0|2,0:0|0:0,0:0:0:0:
296,348,98999,2,0,L|256:356,1,40,0|8,0:0|0:0,0:0:0:0:
160,368,99333,1,0,0:0:0:0:
64,360,99555,2,0,P|20:296|32:208,1,160,2|8,0:0|0:0,0:0:0:0:
256,52,100666,1,2,0:0:0:0:
348,72,100888,1,2,0:0:0:0:
416,140,101111,1,2,0:0:0:0:
468,220,101333,6,0,P|468:264|460:304,1,80,4|0,0:0|0:0,0:0:0:0:
384,356,101777,2,0,P|344:360|304:352,1,80,8|0,0:0|0:0,0:0:0:0:
206,352,102222,2,0,P|167:360|128:356,1,80,2|0,0:0|0:0,0:0:0:0:
50,299,102666,2,0,P|43:259|44:220,2,80,8|0|2,0:0|0:0|0:0,0:0:0:0:
132,252,103333,2,0,P|140:172|172:100,1,160
256,56,103999,1,2,0:0:0:0:
339,99,104222,2,0,P|372:172|380:252,1,160
308,316,104888,6,0,L|280:240,1,80,4|0,0:0|0:0,0:0:0:0:
184,248,105333,2,0,L|212:172,1,80,8|0,0:0|0:0,0:0:0:0:
308,164,105777,2,0,L|280:88,1,80,2|0,0:0|0:0,0:0:0:0:
184,96,106222,2,0,L|212:20,2,80,8|0|2,0:0|0:0|0:0,0:0:0:0:
96,132,106888,1,0,0:0:0:0:
64,224,107111,1,8,0:0:0:0:
108,308,107333,2,0,P|184:352|256:356,1,160
348,340,107999,1,8,0:0:0:0:
420,276,108222,1,0,0:0:0:0:
424,180,108444,6,0,P|432:140|424:100,1,80,4|0,0:0|0:0,0:0:0:0:
368,24,108888,2,0,P|328:16|288:24,1,80,8|0,0:0|0:0,0:0:0:0:
236,104,109333,2,0,P|228:143|236:182,1,80,2|0,0:0|0:0,0:0:0:0:
292,260,109777,2,0,P|332:268|372:260,2,80,8|0|2,0:0|0:0|0:0,0:0:0:0:
196,256,110444,1,0,0:0:0:0:
144,176,110666,1,8,0:0:0:0:
120,84,110888,1,0,0:0:0:0:
36,40,111111,2,0,P|16:152|52:272,1,240,2|0,0:0|0:0,0:0:0:0:
140,312,111999,5,4,0:0:0:0:
236,328,112222,1,0,0:0:0:0:
332,316,112444,1,8,0:0:0:0:
404,252,112666,2,0,P|428:128|348:60,1,240,0|8,0:0|0:0,0:0:0:0:
256,52,113555,1,0,0:0:0:0:
161,60,113777,2,0,P|79:140|108:252,1,240,2|0,0:0|0:0,0:0:0:0:
172,324,114666,1,2,0:0:0:0:
256,368,114888,1,0,0:0:0:0:
340,324,115111,1,8,0:0:0:0:
404,252,115333,2,0,L|440:268,2,40,0|0|4,0:0|0:0|0:0,0:0:0:0:
408,156,115778,5,0,0:0:0:0:
392,60,115999,2,0,P|352:60|312:68,1,80,8|0,0:0|0:0,0:0:0:0:
296,164,116444,2,0,P|256:172|216:164,1,80,2|0,0:0|0:0,0:0:0:0:
199,67,116888,2,0,P|159:59|120:60,2,80,8|0|2,0:0|0:0|0:0,0:0:0:0:
148,148,117555,2,0,P|124:224|140:304,1,160
228,332,118222,1,2,0:0:0:0:
320,308,118444,2,0,P|334:230|310:154,1,160
244,88,119111,6,0,P|284:64|324:64,2,80,4|0|8,0:0|0:0|0:0,0:0:0:0:
160,132,119777,1,0,0:0:0:0:
160,228,119999,2,0,P|192:248|236:256,1,80,2|0,0:0|0:0,0:0:0:0:
328,260,120444,2,0,P|332:304|316:336,2,80,8|0|2,0:0|0:0|0:0,0:0:0:0:
396,192,121111,1,0,0:0:0:0:
328,124,121333,2,0,P|332:80|316:48,2,80,8|0|2,0:0|0:0|0:0,0:0:0:0:
236,92,121999,1,0,0:0:0:0:
140,108,122222,2,0,L|112:76,2,40,8|0|0,0:0|0:0|0:0,0:0:0:0:
92,192,122666,5,4,0:0:0:0:
140,276,122889,1,0,0:0:0:0:
224,320,123111,2,0,P|264:316|300:300,1,80,8|0,0:0|0:0,0:0:0:0:
368,232,123555,2,0,P|372:192|368:152,1,80,2|0,0:0|0:0,0:0:0:0:
300,84,123999,2,0,P|263:67|224:64,2,80,8|0|2,0:0|0:0|0:0,0:0:0:0:
240,160,124666,1,0,0:0:0:0:
144,160,124888,1,8,0:0:0:0:
52,192,125111,1,0,0:0:0:0:
44,287,125333,2,0,P|109:327|191:341,1,160,2|8,0:0|0:0,0:0:0:0:
286,347,125999,1,0,0:0:0:0:
380,324,126222,5,4,0:0:0:0:
480,160,126666,1,8,0:0:0:0:
332,36,127111,1,2,0:0:0:0:
256,212,127555,1,8,0:0:0:0:
180,36,127999,1,2,0:0:0:0:
32,160,128444,1,8,0:0:0:0:
132,324,128888,1,2,0:0:0:0:
256,176,129333,1,8,0:0:0:0:
440,228,129778,6,4,P|424:308|372:364,1,160
180,368,130666,2,4,P|127:309|113:232,1,160
256,104,131555,1,4,0:0:0:0:
256,192,131999,12,4,135111,0:0:0:0:
