osu file format v14

[General]
AudioFilename: -- RainboW FactorY --.mp3
AudioLeadIn: 0
PreviewTime: -1
Countdown: 1
SampleSet: Normal
StackLeniency: 0.7
Mode: 1
LetterboxInBreaks: 1
WidescreenStoryboard: 1

[Editor]
DistanceSpacing: 1.5
BeatDivisor: 4
GridSize: 8
TimelineZoom: 1.7

[Metadata]
Title:Rainbow Factory
TitleUnicode:Rainbow Factory
Artist:WoodenToaster
ArtistUnicode:WoodenToaster
Creator:electrano
Version:medium
Source:mlp:fim
Tags:rainbow factory
BeatmapID:739263
BeatmapSetID:334116

[Difficulty]
HPDrainRate:3
CircleSize:5
OverallDifficulty:3
ApproachRate:3
SliderMultiplier:1.3
SliderTickRate:1

[Events]
//Background and Video events
0,0,"deal with it osu.jpg",0,0
//Break Periods
2,149535,150733
//Storyboard Layer 0 (Background)
//Storyboard Layer 1 (Fail)
//Storyboard Layer 2 (Pass)
//Storyboard Layer 3 (Foreground)
//Storyboard Sound Samples

[TimingPoints]
3409.70249004773,405.350628293474,4,1,0,100,1,0
84074,405.350628293474,4,1,0,100,1,1
103936,405.350628293474,4,1,0,100,1,0
181054,-100,4,1,0,40,0,0
187641,-100,4,1,0,20,0,0
194025,-100,4,1,0,5,0,0

[HitObjects]
112,100,3409,5,4,0:0:0:0:
96,304,4017,5,0,0:0:0:0:
260,232,4423,1,0,0:0:0:0:
292,196,4625,1,0,0:0:0:0:
376,88,5031,1,12,0:0:0:0:
280,32,5639,1,12,0:0:0:0:
244,120,6044,1,8,0:0:0:0:
112,120,6247,1,2,0:0:0:0:
296,192,6449,1,0,0:0:0:0:
196,256,6652,1,0,0:0:0:0:
356,340,7260,1,0,0:0:0:0:
160,220,7665,1,0,0:0:0:0:
404,252,7868,1,0,0:0:0:0:
432,160,8273,1,6,0:0:0:0:
360,64,8881,1,4,0:0:0:0:
92,88,9287,1,0,0:0:0:0:
72,128,9489,1,0,0:0:0:0:
88,180,9692,1,8,0:0:0:0:
108,220,9895,1,8,0:0:0:0:
248,320,10503,1,12,0:0:0:0:
400,216,11111,1,12,0:0:0:0:
336,56,11516,1,12,0:0:0:0:
152,40,12124,1,8,0:0:0:0:
188,124,12530,1,8,0:0:0:0:
200,168,12732,1,8,0:0:0:0:
216,212,12935,1,0,0:0:0:0:
236,244,13138,1,0,0:0:0:0:
360,117,13543,1,0,0:0:0:0:
460,164,13948,1,0,0:0:0:0:
436,284,14354,1,0,0:0:0:0:
304,312,14759,1,8,0:0:0:0:
168,288,15367,1,0,0:0:0:0:
44,132,15772,1,0,0:0:0:0:
64,104,15975,1,0,0:0:0:0:
100,64,16178,1,8,0:0:0:0:
136,48,16380,1,8,0:0:0:0:
256,56,16786,1,12,0:0:0:0:
356,72,17191,1,12,0:0:0:0:
420,172,17596,1,12,0:0:0:0:
444,256,18002,1,0,0:0:0:0:
448,300,18205,1,8,0:0:0:0:
436,332,18407,1,8,0:0:0:0:
240,320,18813,1,4,0:0:0:0:
315,53,19218,1,0,0:0:0:0:
301,157,19421,1,0,0:0:0:0:
301,157,19623,1,4,0:0:0:0:
93,193,20029,1,12,0:0:0:0:
257,63,20434,1,8,0:0:0:0:
372,120,20637,1,0,0:0:0:0:
210,267,20839,1,8,0:0:0:0:
135,70,21245,1,12,0:0:0:0:
312,181,21650,1,8,0:0:0:0:
222,125,21853,1,8,0:0:0:0:
222,125,22055,1,8,0:0:0:0:
110,303,22461,1,0,0:0:0:0:
214,295,22663,1,0,0:0:0:0:
214,295,22866,1,8,0:0:0:0:
421,267,23271,1,8,0:0:0:0:
317,287,23474,1,8,0:0:0:0:
250,205,23677,1,0,0:0:0:0:
211,107,23879,1,8,0:0:0:0:
172,9,24082,1,0,0:0:0:0:
172,9,24285,1,8,0:0:0:0:
172,9,24487,1,0,0:0:0:0:
246,83,24690,1,0,0:0:0:0:
171,8,24893,1,0,0:0:0:0:
244,81,25095,1,0,0:0:0:0:
169,6,25298,1,0,0:0:0:0:
132,193,26109,1,0,0:0:0:0:
296,322,26514,1,12,0:0:0:0:
352,233,26717,1,0,0:0:0:0:
292,146,26920,1,12,0:0:0:0:
280,355,27325,1,0,0:0:0:0:
132,193,27730,1,0,0:0:0:0:
13,366,28136,1,12,0:0:0:0:
68,277,28338,1,0,0:0:0:0:
49,195,28541,1,12,0:0:0:0:
282,268,28946,1,4,0:0:0:0:
181,236,29149,1,12,0:0:0:0:
80,205,29352,1,4,0:0:0:0:
271,119,29757,1,0,0:0:0:0:
180,65,29960,1,8,0:0:0:0:
180,65,30162,1,8,0:0:0:0:
143,272,30568,1,4,0:0:0:0:
180,65,30973,1,12,0:0:0:0:
316,224,31378,1,8,0:0:0:0:
242,148,31581,1,8,0:0:0:0:
242,148,31784,1,8,0:0:0:0:
346,148,31986,1,0,0:0:0:0:
240,148,32189,1,0,0:0:0:0:
345,148,32392,1,0,0:0:0:0:
240,148,32594,1,8,0:0:0:0:
40,213,33000,1,0,0:0:0:0:
138,247,33202,1,8,0:0:0:0:
232,294,33405,1,0,0:0:0:0:
440,315,33810,1,12,0:0:0:0:
410,106,34216,1,4,0:0:0:0:
408,315,34621,1,8,0:0:0:0:
343,231,34824,1,0,0:0:0:0:
244,194,35027,1,8,0:0:0:0:
192,103,35229,1,0,0:0:0:0:
134,191,35432,1,0,0:0:0:0:
192,103,35635,1,0,0:0:0:0:
133,189,35837,1,0,0:0:0:0:
248,364,36243,1,0,0:0:0:0:
318,286,36445,1,8,0:0:0:0:
392,211,36648,1,0,0:0:0:0:
303,20,37053,1,4,0:0:0:0:
97,62,37459,1,4,0:0:0:0:
84,271,37864,1,0,0:0:0:0:
188,264,38067,1,8,0:0:0:0:
282,309,38269,1,0,0:0:0:0:
386,300,38472,1,8,0:0:0:0:
394,195,38675,1,8,0:0:0:0:
409,298,38877,1,8,0:0:0:0:
353,208,39080,1,8,0:0:0:0:
220,48,39485,1,0,0:0:0:0:
128,101,39688,1,8,0:0:0:0:
42,161,39891,1,0,0:0:0:0:
76,368,40296,1,4,0:0:0:0:
278,312,40701,1,4,0:0:0:0:
484,273,41107,1,0,0:0:0:0:
424,187,41309,1,8,0:0:0:0:
365,99,41512,1,0,0:0:0:0:
262,74,41715,1,8,0:0:0:0:
363,100,41918,1,8,0:0:0:0:
261,74,42120,1,8,0:0:0:0:
362,100,42323,1,8,0:0:0:0:
152,108,42728,1,0,0:0:0:0:
257,103,42931,1,8,0:0:0:0:
151,108,43134,1,0,0:0:0:0:
322,228,43539,1,4,0:0:0:0:
117,275,43944,1,4,0:0:0:0:
327,271,44350,1,0,0:0:0:0:
429,292,44552,1,8,0:0:0:0:
433,186,44755,1,0,0:0:0:0:
398,86,44958,1,8,0:0:0:0:
294,103,45160,1,8,0:0:0:0:
189,94,45363,1,8,0:0:0:0:
84,82,45566,1,8,0:0:0:0:
123,288,45971,1,0,0:0:0:0:
154,187,46174,1,8,0:0:0:0:
216,271,46376,1,0,0:0:0:0:
425,290,46782,1,4,0:0:0:0:
400,81,47187,1,12,0:0:0:0:
190,80,47592,1,4,0:0:0:0:
34,160,47998,1,0,0:0:0:0:
148,240,48200,1,8,0:0:0:0:
62,179,48403,1,0,0:0:0:0:
147,239,48606,1,0,0:0:0:0:
237,186,48808,1,0,0:0:0:0:
237,186,49214,1,4,0:0:0:0:
237,186,49619,1,4,0:0:0:0:
237,186,50025,1,4,0:0:0:0:
237,186,50430,1,8,0:0:0:0:
237,186,50633,1,8,0:0:0:0:
237,186,50835,1,8,0:0:0:0:
237,186,51038,1,8,0:0:0:0:
237,186,51241,1,0,0:0:0:0:
336,152,51443,1,0,0:0:0:0:
435,118,51646,1,0,0:0:0:0:
335,151,51849,1,0,0:0:0:0:
434,118,52051,1,0,0:0:0:0:
225,94,52457,1,0,0:0:0:0:
120,82,52659,1,8,0:0:0:0:
84,180,52862,1,0,0:0:0:0:
231,329,53267,1,0,0:0:0:0:
218,224,53470,1,8,0:0:0:0:
309,276,53673,1,0,0:0:0:0:
407,240,53875,1,8,0:0:0:0:
417,135,54078,1,8,0:0:0:0:
348,55,54281,1,8,0:0:0:0:
246,79,54483,1,8,0:0:0:0:
143,101,54686,1,8,0:0:0:0:
181,208,55294,1,4,0:0:0:0:
368,302,55699,1,4,0:0:0:0:
508,145,56105,1,12,0:0:0:0:
316,59,56510,1,4,0:0:0:0:
106,55,56915,1,12,0:0:0:0:
38,254,57321,1,0,0:0:0:0:
143,255,57524,1,8,0:0:0:0:
246,269,57726,1,0,0:0:0:0:
141,283,57929,1,0,0:0:0:0:
454,316,58537,1,4,0:0:0:0:
441,106,58942,1,0,0:0:0:0:
337,88,59145,1,8,0:0:0:0:
233,71,59348,1,0,0:0:0:0:
23,84,59753,1,12,0:0:0:0:
159,242,60158,1,0,0:0:0:0:
259,272,60361,1,8,0:0:0:0:
259,272,60564,1,8,0:0:0:0:
259,272,60766,1,8,0:0:0:0:
364,272,60969,1,8,0:0:0:0:
497,109,61374,1,4,0:0:0:0:
294,52,61780,1,0,0:0:0:0:
191,28,61982,1,8,0:0:0:0:
103,86,62185,1,8,0:0:0:0:
122,189,62388,1,8,0:0:0:0:
167,283,62590,1,8,0:0:0:0:
373,242,62996,1,12,0:0:0:0:
216,102,63401,1,8,0:0:0:0:
309,150,63604,1,0,0:0:0:0:
398,95,63806,1,0,0:0:0:0:
293,80,64009,1,0,0:0:0:0:
188,88,64212,1,8,0:0:0:0:
175,191,64414,1,8,0:0:0:0:
166,295,64617,1,8,0:0:0:0:
235,216,64820,1,8,0:0:0:0:
185,308,65022,1,8,0:0:0:0:
395,306,65428,1,4,0:0:0:0:
458,105,65833,1,12,0:0:0:0:
251,67,66239,1,4,0:0:0:0:
43,37,66644,1,8,0:0:0:0:
67,139,66847,1,8,0:0:0:0:
92,240,67049,1,8,0:0:0:0:
67,137,67252,1,0,0:0:0:0:
113,189,67455,1,8,0:0:0:0:
213,217,67657,1,8,0:0:0:0:
288,290,67860,1,8,0:0:0:0:
429,134,68265,1,4,0:0:0:0:
239,42,68671,1,12,0:0:0:0:
29,42,69076,1,4,0:0:0:0:
82,244,69481,1,12,0:0:0:0:
278,318,69887,1,8,0:0:0:0:
382,316,70089,1,0,0:0:0:0:
395,211,70292,1,0,0:0:0:0:
367,312,70495,1,8,0:0:0:0:
307,225,70697,1,0,0:0:0:0:
217,169,70900,1,0,0:0:0:0:
25,89,71508,1,4,0:0:0:0:
80,291,71913,1,12,0:0:0:0:
289,311,72319,1,4,0:0:0:0:
401,133,72724,1,0,0:0:0:0:
297,113,72927,1,8,0:0:0:0:
191,109,73130,1,8,0:0:0:0:
96,154,73332,1,0,0:0:0:0:
170,228,73535,1,8,0:0:0:0:
274,236,73738,1,8,0:0:0:0:
433,151,74346,1,4,0:0:0:0:
376,353,74751,1,4,0:0:0:0:
186,263,75156,1,12,0:0:0:0:
23,34,75359,1,4,0:0:0:0:
215,117,75764,1,0,0:0:0:0:
318,135,75967,1,0,0:0:0:0:
421,153,76170,1,0,0:0:0:0:
317,137,76372,1,8,0:0:0:0:
320,242,76575,1,8,0:0:0:0:
317,136,76778,1,8,0:0:0:0:
327,240,76980,1,0,0:0:0:0:
318,135,77183,1,8,0:0:0:0:
232,196,77386,1,8,0:0:0:0:
87,120,77994,1,4,0:0:0:0:
43,325,78399,1,12,0:0:0:0:
147,317,78602,1,4,0:0:0:0:
412,146,79210,1,12,0:0:0:0:
205,111,79615,1,4,0:0:0:0:
104,107,80020,1,12,0:0:0:0:
60,202,80223,1,4,0:0:0:0:
263,252,80628,1,8,0:0:0:0:
343,319,80831,1,8,0:0:0:0:
381,221,81034,1,0,0:0:0:0:
320,135,81237,1,0,0:0:0:0:
227,86,81439,1,0,0:0:0:0:
318,134,81642,1,8,0:0:0:0:
214,150,81845,1,0,0:0:0:0:
58,322,82453,1,8,0:0:0:0:
267,307,82858,1,8,0:0:0:0:
371,299,83061,1,0,0:0:0:0:
438,219,83263,1,0,0:0:0:0:
369,299,83466,1,0,0:0:0:0:
394,197,83669,1,8,0:0:0:0:
202,110,84074,1,8,0:0:0:0:
98,130,84277,1,0,0:0:0:0:
64,229,84479,1,0,0:0:0:0:
64,229,84682,1,8,0:0:0:0:
155,280,84885,1,0,0:0:0:0:
364,272,85290,1,4,0:0:0:0:
360,62,85695,1,0,0:0:0:0:
292,142,85898,1,8,0:0:0:0:
98,130,86101,1,0,0:0:0:0:
103,339,86506,1,12,0:0:0:0:
206,318,86709,1,4,0:0:0:0:
412,340,87317,1,8,0:0:0:0:
422,235,87519,1,8,0:0:0:0:
418,129,87722,1,8,0:0:0:0:
313,135,87925,1,0,0:0:0:0:
211,108,88127,1,0,0:0:0:0:
106,93,88330,1,0,0:0:0:0:
51,183,88533,1,8,0:0:0:0:
57,287,88736,1,0,0:0:0:0:
144,343,88938,1,8,0:0:0:0:
243,376,89141,1,0,0:0:0:0:
338,332,89344,1,0,0:0:0:0:
392,242,89546,1,0,0:0:0:0:
315,169,89749,1,8,0:0:0:0:
210,162,89952,1,0,0:0:0:0:
107,104,90560,1,8,0:0:0:0:
99,208,90762,1,8,0:0:0:0:
133,307,90965,1,0,0:0:0:0:
202,316,91168,1,0,0:0:0:0:
340,332,91370,1,0,0:0:0:0:
235,317,91573,1,0,0:0:0:0:
221,212,91776,1,8,0:0:0:0:
322,185,91978,1,0,0:0:0:0:
322,185,92181,1,0,0:0:0:0:
239,119,92384,1,0,0:0:0:0:
157,53,92586,1,0,0:0:0:0:
365,80,92992,1,12,0:0:0:0:
404,177,93194,1,4,0:0:0:0:
443,383,93600,1,8,0:0:0:0:
293,322,93802,1,8,0:0:0:0:
187,322,94005,1,8,0:0:0:0:
81,316,94208,1,0,0:0:0:0:
20,230,94410,1,0,0:0:0:0:
37,126,94613,1,8,0:0:0:0:
140,107,94816,1,0,0:0:0:0:
233,153,95018,1,0,0:0:0:0:
326,200,95221,1,0,0:0:0:0:
420,246,95424,1,8,0:0:0:0:
229,333,95829,1,0,0:0:0:0:
38,244,96234,1,12,0:0:0:0:
83,149,96437,1,4,0:0:0:0:
236,48,97045,1,8,0:0:0:0:
340,59,97248,1,8,0:0:0:0:
340,59,97451,1,0,0:0:0:0:
405,140,97653,1,0,0:0:0:0:
304,171,97856,1,8,0:0:0:0:
369,253,98059,1,0,0:0:0:0:
306,336,98261,1,8,0:0:0:0:
200,338,98464,1,0,0:0:0:0:
104,293,98667,1,0,0:0:0:0:
55,200,98869,1,8,0:0:0:0:
64,95,99072,1,0,0:0:0:0:
269,53,99477,1,12,0:0:0:0:
369,83,99680,1,0,0:0:0:0:
434,210,100288,1,8,0:0:0:0:
337,169,100491,1,8,0:0:0:0:
281,345,100693,1,8,0:0:0:0:
175,348,100896,1,0,0:0:0:0:
77,308,101099,1,0,0:0:0:0:
24,217,101301,1,0,0:0:0:0:
63,119,101504,1,0,0:0:0:0:
268,75,101909,1,4,0:0:0:0:
478,81,102315,1,4,0:0:0:0:
437,286,102720,1,4,0:0:0:0:
227,298,103125,1,8,0:0:0:0:
43,194,103531,1,8,0:0:0:0:
88,86,103936,1,4,0:0:0:0:
393,155,104544,1,8,0:0:0:0:
409,258,104747,1,0,0:0:0:0:
319,312,104950,1,8,0:0:0:0:
215,293,105152,1,0,0:0:0:0:
122,242,105355,1,0,0:0:0:0:
87,205,105558,1,8,0:0:0:0:
62,46,106166,1,8,0:0:0:0:
166,46,106368,1,0,0:0:0:0:
267,73,106571,1,8,0:0:0:0:
372,74,106774,1,0,0:0:0:0:
372,74,106976,1,0,0:0:0:0:
443,150,107179,1,4,0:0:0:0:
207,359,107787,1,0,0:0:0:0:
109,319,107990,1,8,0:0:0:0:
59,226,108192,1,8,0:0:0:0:
44,121,108395,1,8,0:0:0:0:
124,53,108598,1,8,0:0:0:0:
197,126,108800,1,0,0:0:0:0:
280,67,109408,1,0,0:0:0:0:
371,119,109611,1,8,0:0:0:0:
377,223,109814,1,8,0:0:0:0:
272,233,110016,1,8,0:0:0:0:
169,257,110219,1,8,0:0:0:0:
79,201,110422,1,0,0:0:0:0:
168,25,111030,1,12,0:0:0:0:
269,52,111232,1,4,0:0:0:0:
450,157,111638,1,12,0:0:0:0:
317,319,112043,1,12,0:0:0:0:
2,326,112651,1,8,0:0:0:0:
27,224,112854,1,0,0:0:0:0:
49,121,113057,1,8,0:0:0:0:
121,45,113259,1,0,0:0:0:0:
224,62,113462,1,0,0:0:0:0:
224,62,113665,1,0,0:0:0:0:
431,135,114273,1,8,0:0:0:0:
434,239,114475,1,0,0:0:0:0:
334,272,114678,1,0,0:0:0:0:
230,289,114881,1,0,0:0:0:0:
129,259,115083,1,0,0:0:0:0:
55,184,115286,1,8,0:0:0:0:
319,12,115894,1,8,0:0:0:0:
407,69,116097,1,0,0:0:0:0:
465,155,116299,1,0,0:0:0:0:
474,259,116502,1,0,0:0:0:0:
370,240,116705,1,0,0:0:0:0:
266,257,116907,1,12,0:0:0:0:
141,87,117313,1,4,0:0:0:0:
347,51,117718,1,0,0:0:0:0:
245,78,117921,1,8,0:0:0:0:
338,125,118123,1,8,0:0:0:0:
381,220,118326,1,8,0:0:0:0:
443,304,118529,1,0,0:0:0:0:
235,336,118934,1,4,0:0:0:0:
201,84,119745,1,8,0:0:0:0:
306,87,119948,1,0,0:0:0:0:
306,87,120150,1,8,0:0:0:0:
423,254,120556,1,0,0:0:0:0:
337,313,120758,1,0,0:0:0:0:
232,328,120961,1,8,0:0:0:0:
127,313,121164,1,8,0:0:0:0:
74,222,121366,1,8,0:0:0:0:
248,104,121772,1,4,0:0:0:0:
370,72,122582,1,12,0:0:0:0:
451,201,123393,1,4,0:0:0:0:
275,315,123798,1,12,0:0:0:0:
73,256,124204,1,4,0:0:0:0:
84,46,124609,1,0,0:0:0:0:
186,69,124812,1,8,0:0:0:0:
290,77,125014,1,8,0:0:0:0:
391,106,125217,1,0,0:0:0:0:
438,199,125420,1,0,0:0:0:0:
304,320,125825,1,0,0:0:0:0:
200,338,126028,1,8,0:0:0:0:
95,329,126230,1,0,0:0:0:0:
119,120,126636,1,8,0:0:0:0:
212,72,126838,1,0,0:0:0:0:
310,109,127041,1,8,0:0:0:0:
465,249,127446,1,8,0:0:0:0:
368,289,127649,1,0,0:0:0:0:
269,325,127852,1,8,0:0:0:0:
60,299,128257,1,4,0:0:0:0:
50,120,129068,1,12,0:0:0:0:
466,64,129879,1,4,0:0:0:0:
162,64,132513,1,0,0:0:0:0:
252,117,132716,1,8,0:0:0:0:
338,176,132919,1,0,0:0:0:0:
301,274,133121,1,12,0:0:0:0:
136,315,134743,1,0,0:0:0:0:
86,222,134945,1,8,0:0:0:0:
117,121,135148,1,0,0:0:0:0:
290,131,135554,1,8,0:0:0:0:
386,89,135756,1,8,0:0:0:0:
418,189,135959,1,8,0:0:0:0:
333,251,136162,1,8,0:0:0:0:
245,308,136364,1,0,0:0:0:0:
86,222,136567,1,0,0:0:0:0:
77,117,136770,1,0,0:0:0:0:
177,86,136972,1,8,0:0:0:0:
281,77,137175,1,0,0:0:0:0:
382,105,137378,1,0,0:0:0:0:
334,198,137580,1,0,0:0:0:0:
379,292,137783,1,8,0:0:0:0:
278,321,137986,1,0,0:0:0:0:
173,318,138188,1,0,0:0:0:0:
98,243,138391,1,0,0:0:0:0:
71,141,138594,1,8,0:0:0:0:
144,66,138796,1,0,0:0:0:0:
244,36,138999,1,0,0:0:0:0:
347,52,139202,1,0,0:0:0:0:
450,68,139404,1,0,0:0:0:0:
418,168,139607,1,8,0:0:0:0:
251,250,141228,1,4,0:0:0:0:
165,311,141431,1,0,0:0:0:0:
61,294,141634,1,12,0:0:0:0:
71,95,142039,1,8,0:0:0:0:
277,68,142444,1,0,0:0:0:0:
368,120,142647,1,0,0:0:0:0:
299,200,142850,1,8,0:0:0:0:
358,286,143052,1,0,0:0:0:0:
260,324,143255,1,0,0:0:0:0:
154,329,143458,1,0,0:0:0:0:
82,251,143661,1,8,0:0:0:0:
51,150,143863,1,0,0:0:0:0:
123,74,144066,1,0,0:0:0:0:
226,58,144269,1,0,0:0:0:0:
330,46,144471,1,8,0:0:0:0:
410,113,144674,1,0,0:0:0:0:
384,215,144877,1,0,0:0:0:0:
311,290,145079,1,0,0:0:0:0:
209,318,145282,1,8,0:0:0:0:
110,281,145485,1,0,0:0:0:0:
56,191,145687,1,0,0:0:0:0:
66,86,145890,1,0,0:0:0:0:
166,53,146093,1,12,0:0:0:0:
373,84,147714,1,0,0:0:0:0:
350,186,147917,1,8,0:0:0:0:
259,238,148119,1,0,0:0:0:0:
69,199,148525,1,12,0:0:0:0:
140,65,148930,1,8,0:0:0:0:
245,60,149133,1,0,0:0:0:0:
349,51,149335,1,8,0:0:0:0:
203,78,152173,5,4,0:0:0:0:
284,144,152578,1,12,0:0:0:0:
102,185,154200,1,4,0:0:0:0:
259,46,154605,1,12,0:0:0:0:
462,96,155010,1,4,0:0:0:0:
437,304,155416,1,12,0:0:0:0:
228,323,155821,1,4,0:0:0:0:
123,35,156429,1,8,0:0:0:0:
75,128,156632,1,0,0:0:0:0:
276,185,157037,1,12,0:0:0:0:
485,172,157442,1,4,0:0:0:0:
212,330,158050,1,8,0:0:0:0:
110,304,158253,1,0,0:0:0:0:
74,205,158456,1,8,0:0:0:0:
105,105,158658,1,0,0:0:0:0:
206,78,158861,1,8,0:0:0:0:
307,49,159064,1,8,0:0:0:0:
452,328,159672,1,8,0:0:0:0:
347,340,159875,1,0,0:0:0:0:
242,344,160077,1,8,0:0:0:0:
142,310,160280,1,8,0:0:0:0:
92,216,160483,1,8,0:0:0:0:
161,137,160685,1,0,0:0:0:0:
329,58,161293,1,0,0:0:0:0:
417,114,161496,1,8,0:0:0:0:
434,217,161699,1,0,0:0:0:0:
380,307,161901,1,0,0:0:0:0:
276,327,162104,1,0,0:0:0:0:
171,334,162307,1,8,0:0:0:0:
46,44,162915,1,8,0:0:0:0:
150,39,163117,1,0,0:0:0:0:
127,141,163320,1,8,0:0:0:0:
357,71,163523,1,0,0:0:0:0:
259,108,163725,1,0,0:0:0:0:
207,155,163928,1,0,0:0:0:0:
474,321,164536,1,8,0:0:0:0:
404,324,164739,1,0,0:0:0:0:
264,330,164941,1,8,0:0:0:0:
158,332,165144,1,0,0:0:0:0:
83,257,165347,1,0,0:0:0:0:
79,187,165549,1,0,0:0:0:0:
160,56,166157,1,0,0:0:0:0:
264,44,166360,1,0,0:0:0:0:
361,83,166563,1,0,0:0:0:0:
441,150,166766,1,0,0:0:0:0:
456,253,166968,1,8,0:0:0:0:
362,301,167171,1,8,0:0:0:0:
51,355,167779,1,8,0:0:0:0:
76,252,167982,1,8,0:0:0:0:
132,164,168184,1,0,0:0:0:0:
224,113,168387,1,0,0:0:0:0:
325,85,168590,1,0,0:0:0:0:
266,257,168792,1,8,0:0:0:0:
141,87,169198,1,12,0:0:0:0:
347,51,169603,1,8,0:0:0:0:
245,78,169806,1,8,0:0:0:0:
338,125,170008,1,0,0:0:0:0:
381,220,170211,1,0,0:0:0:0:
443,304,170414,1,8,0:0:0:0:
235,336,170819,1,4,0:0:0:0:
201,84,171630,1,0,0:0:0:0:
306,87,171833,1,0,0:0:0:0:
306,87,172035,1,8,0:0:0:0:
423,254,172441,1,0,0:0:0:0:
337,313,172643,1,0,0:0:0:0:
232,328,172846,1,8,0:0:0:0:
127,313,173049,1,8,0:0:0:0:
74,222,173251,1,0,0:0:0:0:
248,104,173656,1,4,0:0:0:0:
370,72,174467,1,4,0:0:0:0:
451,201,175278,1,12,0:0:0:0:
275,315,175683,1,12,0:0:0:0:
73,256,176089,1,4,0:0:0:0:
84,46,176494,1,8,0:0:0:0:
186,69,176697,1,8,0:0:0:0:
290,77,176899,1,0,0:0:0:0:
391,106,177102,1,0,0:0:0:0:
438,199,177305,1,0,0:0:0:0:
304,320,177710,1,0,0:0:0:0:
200,338,177913,1,8,0:0:0:0:
95,329,178115,1,0,0:0:0:0:
119,120,178521,1,8,0:0:0:0:
212,72,178723,1,0,0:0:0:0:
310,109,178926,1,8,0:0:0:0:
465,249,179331,1,0,0:0:0:0:
368,289,179534,1,8,0:0:0:0:
269,325,179737,1,0,0:0:0:0:
60,299,180142,1,12,0:0:0:0:
50,120,180953,1,4,0:0:0:0:
255,78,181358,1,8,0:0:0:0:
360,78,181561,1,0,0:0:0:0:
445,137,181763,1,8,0:0:0:0:
308,283,182169,1,0,0:0:0:0:
205,308,182372,1,8,0:0:0:0:
107,269,182574,1,0,0:0:0:0:
120,59,182980,1,8,0:0:0:0:
223,70,183182,1,0,0:0:0:0:
252,117,184601,1,0,0:0:0:0:
338,176,184804,1,8,0:0:0:0:
301,274,185006,1,0,0:0:0:0:
163,115,185412,1,4,0:0:0:0:
371,88,185817,1,12,0:0:0:0:
427,290,186222,1,12,0:0:0:0:
136,315,186628,1,12,0:0:0:0:
274,115,187844,1,8,0:0:0:0:
378,107,188046,1,8,0:0:0:0:
483,105,188249,1,0,0:0:0:0:
420,189,188452,1,8,0:0:0:0:
323,229,188654,1,0,0:0:0:0:
220,251,188857,1,8,0:0:0:0:
123,208,189060,1,0,0:0:0:0:
251,42,189465,1,4,0:0:0:0:
335,104,189668,1,12,0:0:0:0:
272,212,190884,1,4,0:0:0:0:
306,31,191289,1,8,0:0:0:0:
388,143,191492,1,0,0:0:0:0:
131,85,191897,1,12,0:0:0:0:
162,197,192303,1,4,0:0:0:0:
293,384,192708,1,12,0:0:0:0:
227,78,193113,1,4,0:0:0:0:
156,312,194329,1,0,0:0:0:0:
91,228,194532,1,8,0:0:0:0:
106,123,194735,1,0,0:0:0:0:
332,73,195140,1,12,0:0:0:0:
406,219,195545,1,4,0:0:0:0:
238,346,195951,1,8,0:0:0:0:
149,290,196153,1,0,0:0:0:0:
103,112,197572,1,4,0:0:0:0:
309,75,197978,1,4,0:0:0:0:
429,214,198383,1,12,0:0:0:0:
242,309,198788,1,12,0:0:0:0:
99,176,199194,1,0,0:0:0:0:
224,7,199599,1,8,0:0:0:0:
