osu file format v14

[General]
AudioFilename: -- RainboW FactorY --.mp3
AudioLeadIn: 0
PreviewTime: -1
Countdown: 1
SampleSet: Normal
StackLeniency: 0.7
Mode: 1
LetterboxInBreaks: 1
WidescreenStoryboard: 1

[Editor]
DistanceSpacing: 1.5
BeatDivisor: 4
GridSize: 8
TimelineZoom: 1.7

[Metadata]
Title:Rainbow Factory
TitleUnicode:Rainbow Factory
Artist:WoodenToaster
ArtistUnicode:WoodenToaster
Creator:electrano
Version:easy/medium
Source:mlp:fim
Tags:rainbow factory Wooden Toaster my little pony
BeatmapID:739262
BeatmapSetID:334116

[Difficulty]
HPDrainRate:1
CircleSize:5
OverallDifficulty:3
ApproachRate:0
SliderMultiplier:1.1
SliderTickRate:1

[Events]
//Background and Video events
0,0,"deal with it osu.jpg",0,0
//Break Periods
2,25903,29564
2,77788,82274
2,149535,150373
//Storyboard Layer 0 (Background)
//Storyboard Layer 1 (Fail)
//Storyboard Layer 2 (Pass)
//Storyboard Layer 3 (Foreground)
//Storyboard Sound Samples

[TimingPoints]
3395.70249004773,405.350628293474,4,1,0,100,1,0
84074,405.350628293474,4,1,0,100,1,1
103936,405.350628293474,4,1,0,100,1,0
180851,-100,4,1,0,90,0,0
181155,-100,4,1,0,80,0,0
181662,-100,4,1,0,70,0,0
181966,-100,4,1,0,60,0,0
182372,-100,4,1,0,50,0,0
182878,-100,4,1,0,40,0,0
183081,-100,4,1,0,30,0,0
187236,-100,4,1,0,5,0,0

[HitObjects]
256,192,3397,5,0,0:0:0:0:
96,304,4003,5,0,0:0:0:0:
292,196,4611,1,0,0:0:0:0:
376,88,5017,1,12,0:0:0:0:
280,32,5625,1,12,0:0:0:0:
244,120,6233,1,8,0:0:0:0:
216,212,6638,1,0,0:0:0:0:
356,340,7246,1,0,0:0:0:0:
404,252,7854,1,0,0:0:0:0:
432,160,8259,1,12,0:0:0:0:
360,64,8867,1,4,0:0:0:0:
92,88,9273,1,0,0:0:0:0:
88,180,9475,1,8,0:0:0:0:
136,160,9678,1,0,0:0:0:0:
232,168,9881,1,2,0:0:0:0:
248,320,10489,1,12,0:0:0:0:
400,216,11097,1,12,0:0:0:0:
336,56,11502,1,4,0:0:0:0:
152,40,12110,1,0,0:0:0:0:
216,212,13124,1,8,0:0:0:0:
360,117,13529,1,0,0:0:0:0:
460,164,13934,1,0,0:0:0:0:
436,284,14340,1,0,0:0:0:0:
304,312,14745,1,8,0:0:0:0:
168,288,15353,1,8,0:0:0:0:
44,132,15758,1,0,0:0:0:0:
100,64,16366,1,8,0:0:0:0:
256,56,16772,1,12,0:0:0:0:
356,72,17177,1,12,0:0:0:0:
420,172,17582,1,12,0:0:0:0:
444,256,17988,1,0,0:0:0:0:
240,320,18799,1,4,0:0:0:0:
315,53,19204,1,0,0:0:0:0:
301,157,19609,1,12,0:0:0:0:
93,193,20015,1,4,0:0:0:0:
257,63,20420,1,8,0:0:0:0:
210,267,20825,1,0,0:0:0:0:
135,70,21231,1,12,0:0:0:0:
312,181,21636,1,0,0:0:0:0:
222,125,22041,1,8,0:0:0:0:
214,295,22649,1,0,0:0:0:0:
214,295,22852,1,8,0:0:0:0:
72,136,23257,6,0,L|272:160,2,192.5
176,112,25284,1,12,0:0:0:0:
80,144,31364,6,0,B|312:144|288:136,2,192.5
232,294,33391,1,0,0:0:0:0:
440,315,33796,1,12,0:0:0:0:
410,106,34202,1,4,0:0:0:0:
48,96,34607,2,0,L|128:224,3,137.5
303,20,37039,1,4,0:0:0:0:
97,62,37445,1,4,0:0:0:0:
104,192,37850,2,0,L|416:216,1,302.5
96,304,39877,5,0,0:0:0:0:
292,196,40282,1,0,0:0:0:0:
376,88,40688,1,12,0:0:0:0:
280,32,41498,1,12,0:0:0:0:
244,120,41904,1,8,0:0:0:0:
216,212,42309,1,0,0:0:0:0:
356,340,43120,1,0,0:0:0:0:
404,252,43525,1,0,0:0:0:0:
432,160,43930,1,12,0:0:0:0:
92,88,45146,1,0,0:0:0:0:
88,180,45552,1,8,0:0:0:0:
248,320,46362,1,12,0:0:0:0:
400,216,46768,1,12,0:0:0:0:
336,56,47173,1,4,0:0:0:0:
92,88,48389,1,0,0:0:0:0:
88,180,48794,1,8,0:0:0:0:
248,320,49605,1,12,0:0:0:0:
400,216,50011,1,12,0:0:0:0:
336,56,50416,1,4,0:0:0:0:
237,186,50821,5,8,0:0:0:0:
152,40,51024,1,0,0:0:0:0:
368,184,51227,1,0,0:0:0:0:
188,124,51430,1,0,0:0:0:0:
432,208,51632,1,8,0:0:0:0:
216,212,52038,1,8,0:0:0:0:
360,117,52443,1,0,0:0:0:0:
84,180,52848,1,0,0:0:0:0:
436,284,53254,1,0,0:0:0:0:
309,276,53659,1,0,0:0:0:0:
417,135,54064,1,8,0:0:0:0:
246,79,54469,1,8,0:0:0:0:
181,208,55280,1,4,0:0:0:0:
368,302,55685,1,4,0:0:0:0:
508,145,56091,1,12,0:0:0:0:
316,59,56496,1,4,0:0:0:0:
106,55,56901,1,12,0:0:0:0:
38,254,57307,1,0,0:0:0:0:
143,255,57510,1,8,0:0:0:0:
141,283,57915,1,0,0:0:0:0:
454,316,58523,1,4,0:0:0:0:
441,106,58928,1,8,0:0:0:0:
233,71,59334,1,0,0:0:0:0:
23,84,59739,1,12,0:0:0:0:
159,242,60144,1,0,0:0:0:0:
259,272,60550,1,8,0:0:0:0:
364,272,60955,1,8,0:0:0:0:
497,109,61360,1,4,0:0:0:0:
294,52,61766,1,0,0:0:0:0:
103,86,62171,1,8,0:0:0:0:
167,283,62576,1,8,0:0:0:0:
373,242,62982,1,4,0:0:0:0:
144,104,63387,2,0,L|224:176,3,82.5
360,160,65008,1,0,0:0:0:0:
208,240,65414,1,8,0:0:0:0:
96,128,65819,1,0,0:0:0:0:
251,67,66225,1,12,0:0:0:0:
408,216,68251,1,0,0:0:0:0:
239,42,68657,1,12,0:0:0:0:
29,42,69062,1,4,0:0:0:0:
82,244,69467,1,12,0:0:0:0:
278,318,69873,1,8,0:0:0:0:
395,211,70278,1,0,0:0:0:0:
307,225,70683,1,8,0:0:0:0:
25,89,71494,1,4,0:0:0:0:
80,291,71899,1,12,0:0:0:0:
289,311,72305,1,4,0:0:0:0:
401,133,72710,1,0,0:0:0:0:
191,109,73116,1,8,0:0:0:0:
170,228,73521,1,8,0:0:0:0:
274,236,73724,1,8,0:0:0:0:
433,151,74332,1,4,0:0:0:0:
376,353,74737,1,4,0:0:0:0:
186,263,75142,1,12,0:0:0:0:
23,34,75345,1,4,0:0:0:0:
421,153,76358,1,0,0:0:0:0:
320,242,76764,1,8,0:0:0:0:
327,240,77169,1,8,0:0:0:0:
256,112,77574,1,0,0:0:0:0:
96,96,84074,5,8,0:0:0:0:
240,104,84479,1,8,0:0:0:0:
155,280,84885,5,0,0:0:0:0:
364,272,85290,1,12,0:0:0:0:
360,62,85695,1,0,0:0:0:0:
98,130,86101,1,8,0:0:0:0:
103,339,86506,1,12,0:0:0:0:
206,318,86709,1,4,0:0:0:0:
412,340,87317,1,8,0:0:0:0:
418,129,87722,1,8,0:0:0:0:
211,108,88127,1,0,0:0:0:0:
51,183,88533,1,0,0:0:0:0:
144,343,88938,1,8,0:0:0:0:
338,332,89344,1,0,0:0:0:0:
315,169,89749,1,8,0:0:0:0:
210,162,89952,1,0,0:0:0:0:
107,104,90560,1,8,0:0:0:0:
133,307,90965,1,0,0:0:0:0:
340,332,91370,1,0,0:0:0:0:
221,212,91776,1,8,0:0:0:0:
322,185,92181,1,0,0:0:0:0:
157,53,92586,1,0,0:0:0:0:
365,80,92992,1,12,0:0:0:0:
404,177,93194,1,4,0:0:0:0:
443,383,93600,1,8,0:0:0:0:
187,322,93802,1,8,0:0:0:0:
20,230,94208,1,0,0:0:0:0:
140,107,94613,1,0,0:0:0:0:
326,200,95018,1,8,0:0:0:0:
280,96,95424,1,0,0:0:0:0:
229,333,95829,1,0,0:0:0:0:
38,244,96234,1,12,0:0:0:0:
83,149,96437,1,4,0:0:0:0:
236,48,97045,1,8,0:0:0:0:
340,59,97451,1,0,0:0:0:0:
304,171,97856,1,0,0:0:0:0:
306,336,98261,1,8,0:0:0:0:
104,293,98667,1,0,0:0:0:0:
64,95,99072,1,0,0:0:0:0:
269,53,99477,1,12,0:0:0:0:
369,83,99680,1,0,0:0:0:0:
434,210,100288,1,8,0:0:0:0:
281,345,100693,1,8,0:0:0:0:
77,308,101099,1,0,0:0:0:0:
63,119,101504,1,8,0:0:0:0:
268,75,101909,1,4,0:0:0:0:
478,81,102315,1,4,0:0:0:0:
437,286,102720,1,4,0:0:0:0:
227,298,103125,1,0,0:0:0:0:
43,194,103531,1,8,0:0:0:0:
88,86,103936,1,12,0:0:0:0:
393,155,104544,1,8,0:0:0:0:
319,312,104747,1,8,0:0:0:0:
87,205,105558,1,8,0:0:0:0:
62,46,106166,1,8,0:0:0:0:
267,73,106368,1,8,0:0:0:0:
372,74,106976,1,0,0:0:0:0:
443,150,107179,1,0,0:0:0:0:
124,53,108598,1,8,0:0:0:0:
197,126,108800,1,0,0:0:0:0:
280,67,109408,1,0,0:0:0:0:
377,223,109814,1,8,0:0:0:0:
169,257,110219,1,8,0:0:0:0:
79,201,110422,1,0,0:0:0:0:
168,25,111030,1,12,0:0:0:0:
269,52,111232,1,4,0:0:0:0:
450,157,111638,1,12,0:0:0:0:
317,319,112043,1,12,0:0:0:0:
2,326,112651,1,8,0:0:0:0:
49,121,112854,1,8,0:0:0:0:
224,62,113462,1,0,0:0:0:0:
224,62,113665,1,0,0:0:0:0:
334,272,114273,1,0,0:0:0:0:
129,259,115083,1,0,0:0:0:0:
55,184,115286,1,8,0:0:0:0:
319,12,115894,1,8,0:0:0:0:
465,155,116299,1,0,0:0:0:0:
370,240,116705,1,0,0:0:0:0:
266,257,116907,1,12,0:0:0:0:
141,87,117313,1,4,0:0:0:0:
347,51,117718,1,0,0:0:0:0:
338,125,118123,1,8,0:0:0:0:
443,304,118529,1,0,0:0:0:0:
235,336,118934,1,4,0:0:0:0:
201,84,119745,1,8,0:0:0:0:
306,87,120150,1,8,0:0:0:0:
423,254,120556,1,0,0:0:0:0:
232,328,120961,1,8,0:0:0:0:
74,222,121366,1,8,0:0:0:0:
248,104,121772,1,4,0:0:0:0:
370,72,122582,1,12,0:0:0:0:
451,201,123393,1,4,0:0:0:0:
275,315,123798,1,12,0:0:0:0:
73,256,124204,1,4,0:0:0:0:
84,46,124609,1,0,0:0:0:0:
290,77,125014,1,8,0:0:0:0:
438,199,125420,1,0,0:0:0:0:
304,320,125825,1,0,0:0:0:0:
95,329,126230,1,0,0:0:0:0:
119,120,126636,1,8,0:0:0:0:
310,109,127041,1,8,0:0:0:0:
465,249,127446,1,8,0:0:0:0:
269,325,127852,1,8,0:0:0:0:
60,299,128257,1,4,0:0:0:0:
50,120,129068,1,12,0:0:0:0:
466,64,129879,1,4,0:0:0:0:
162,64,132513,5,0,0:0:0:0:
252,117,132716,1,8,0:0:0:0:
338,176,132919,1,0,0:0:0:0:
301,274,133121,1,12,0:0:0:0:
136,315,134743,5,0,0:0:0:0:
120,120,135148,1,0,0:0:0:0:
290,131,135554,1,8,0:0:0:0:
418,189,135959,1,8,0:0:0:0:
88,264,136364,2,0,B|328:264|328:264|392:224,2,300
347,52,139202,1,0,0:0:0:0:
418,168,139607,1,8,0:0:0:0:
251,250,141228,1,4,0:0:0:0:
61,294,141634,1,12,0:0:0:0:
71,95,142039,1,8,0:0:0:0:
277,68,142444,1,0,0:0:0:0:
64,160,142850,2,0,L|192:176,6,116.666666666667
166,53,146093,1,12,0:0:0:0:
373,84,147714,1,0,0:0:0:0:
259,238,148119,1,0,0:0:0:0:
69,199,148525,1,12,0:0:0:0:
140,65,148930,1,8,0:0:0:0:
349,51,149335,1,12,0:0:0:0:
203,78,152173,5,4,0:0:0:0:
284,144,152578,1,12,0:0:0:0:
102,185,154200,5,4,0:0:0:0:
259,46,154605,1,12,0:0:0:0:
462,96,155010,1,4,0:0:0:0:
437,304,155416,1,12,0:0:0:0:
228,323,155821,1,4,0:0:0:0:
123,35,156429,1,8,0:0:0:0:
75,128,156632,1,0,0:0:0:0:
276,185,157037,1,12,0:0:0:0:
485,172,157442,1,4,0:0:0:0:
212,330,158050,1,8,0:0:0:0:
74,205,158253,1,8,0:0:0:0:
206,78,158658,1,8,0:0:0:0:
307,49,159064,1,8,0:0:0:0:
452,328,159672,1,8,0:0:0:0:
242,344,160077,1,8,0:0:0:0:
92,216,160483,1,8,0:0:0:0:
161,137,160685,1,0,0:0:0:0:
329,58,161293,1,0,0:0:0:0:
434,217,161699,1,0,0:0:0:0:
288,216,162104,1,0,0:0:0:0:
171,334,162307,1,8,0:0:0:0:
46,44,162915,1,8,0:0:0:0:
127,141,163320,1,8,0:0:0:0:
357,71,163523,1,0,0:0:0:0:
207,155,163928,1,0,0:0:0:0:
474,321,164536,1,8,0:0:0:0:
264,330,164941,1,8,0:0:0:0:
83,257,165347,1,0,0:0:0:0:
79,187,165549,1,8,0:0:0:0:
160,56,166157,1,0,0:0:0:0:
361,83,166563,1,8,0:0:0:0:
441,150,166766,1,0,0:0:0:0:
362,301,167171,1,8,0:0:0:0:
51,355,167779,1,8,0:0:0:0:
132,164,168184,1,0,0:0:0:0:
325,85,168590,1,0,0:0:0:0:
266,257,168792,1,8,0:0:0:0:
141,87,169198,1,12,0:0:0:0:
347,51,169603,1,8,0:0:0:0:
338,125,170008,1,0,0:0:0:0:
443,304,170414,1,8,0:0:0:0:
235,336,170819,1,4,0:0:0:0:
201,84,171630,1,0,0:0:0:0:
306,87,172035,1,8,0:0:0:0:
423,254,172441,1,0,0:0:0:0:
232,328,172846,1,8,0:0:0:0:
74,222,173251,1,0,0:0:0:0:
248,104,173656,1,12,0:0:0:0:
370,72,174467,1,4,0:0:0:0:
451,201,175278,1,12,0:0:0:0:
275,315,175683,1,12,0:0:0:0:
73,256,176089,1,4,0:0:0:0:
84,46,176494,1,8,0:0:0:0:
290,77,176899,1,0,0:0:0:0:
438,199,177305,1,0,0:0:0:0:
304,320,177710,1,0,0:0:0:0:
95,329,178115,1,0,0:0:0:0:
119,120,178521,1,8,0:0:0:0:
310,109,178926,1,8,0:0:0:0:
465,249,179331,1,0,0:0:0:0:
269,325,179737,1,0,0:0:0:0:
60,299,180142,1,12,0:0:0:0:
50,120,180953,1,4,0:0:0:0:
424,192,181358,1,0,0:0:0:0:
304,112,181763,1,8,0:0:0:0:
308,283,182169,1,0,0:0:0:0:
107,269,182574,1,0,0:0:0:0:
120,59,182980,1,8,0:0:0:0:
223,70,183182,1,0,0:0:0:0:
252,117,184601,1,0,0:0:0:0:
301,274,185006,1,0,0:0:0:0:
163,115,185412,1,4,0:0:0:0:
371,88,185817,1,12,0:0:0:0:
427,290,186222,1,12,0:0:0:0:
136,315,186628,1,12,0:0:0:0:
256,192,187844,12,0,200410,0:0:0:0:
