osu file format v6

[General]
AudioFilename: Wonder Girls - Tell me (Rap Version).mp3
AudioLeadIn: 0
PreviewTime: 48984
Countdown: 1
SampleSet: Normal
StackLeniency: 0.7
Mode: 0
LetterboxInBreaks: 1

[Editor]
Bookmarks: 44114,48760
DistanceSpacing: 1
BeatDivisor: 4
GridSize: 8

[Metadata]
Title:Tell Me
Artist:Wonder Girls
Creator:orioncomet
Version:Normal
Source:
Tags:

[Difficulty]
HPDrainRate:5
CircleSize:3
OverallDifficulty:4
SliderMultiplier:1.7
SliderTickRate:1

[Events]
//Background and Video events
0,0,"tellmee.jpg"
//Break Periods
2,33120,47784
2,78947,93374
2,139420,153611
//Storyboard Layer 0 (Background)
//Storyboard Layer 1 (Fail)
//Storyboard Layer 2 (Pass)
//Storyboard Layer 3 (Foreground)
//Storyboard Sound Samples
//Background Colour Transformations
3,100,255,206,255

[TimingPoints]
3630,472.44094488189,4,1,0,60,1,0
177411,-100,4,1,0,60,0,1
192488,-100,4,1,0,60,0,0
192606,-100,4,1,0,60,0,1
212803,-100,4,1,0,0,0,1

[Colours]
Combo1 : 169,83,255
Combo2 : 255,66,160
Combo3 : 255,128,64
Combo4 : 0,191,0

[HitObjects]
32,32,3629,2,0,B|32:224,3,170,0|0|0|0
136,64,5519,6,0,B|136:256,3,170,0|0|0|0
304,232,7409,6,0,B|496:232,3,170,0|0|0|0
304,240,9299,6,0,B|368:16|80:48,1,340
112,128,10480,2,2,L|16:128,1,85
112,280,11189,6,0,B|304:280,3,170,0|0|0|0
288,112,13078,6,0,B|384:16|544:144|384:304,1,340,0|0
344,328,14259,2,2,L|248:328,1,85
232,160,14968,6,0,B|168:32|72:0|40:256,1,340
56,304,16149,2,2,L|152:304,1,85,2|2
312,304,16858,6,0,B|472:208|312:112,2,255
144,288,18748,5,0
144,288,18984,1,0
144,288,19220,1,0
144,120,19692,5,0
144,120,19929,1,0
144,120,20165,1,0
312,120,20637,6,0,B|312:312,3,170
144,288,22527,2,0,L|144:184,1,85
56,200,23000,2,0,B|120:104|296:40|328:32|352:24,1,340,0|0
424,32,24181,1,2
424,112,24417,1,2
256,112,24889,2,0,B|16:88|-32:208|72:256|104:272,1,340
240,224,26307,5,0
72,224,26779,1,0
72,56,27252,1,0
72,56,27724,1,0
72,224,28196,5,0
160,224,28433,1,0
160,224,28669,2,0,B|224:96|320:128|320:256,1,255,0|0
416,96,29850,1,2
416,176,30086,1,0
416,256,30322,2,0,B|304:256,3,85,0|0|0|0
160,256,31504,5,0
240,256,31740,1,0
240,256,31976,1,0
232,168,32212,1,0
232,168,32448,2,0,B|304:16|160:96|136:120,1,170,0|0
56,64,48984,6,8,B|248:64,3,170,8|8|8|8
392,64,50874,6,8,L|392:160,3,85,8|8|8|8
312,176,51818,2,8,B|504:224,1,170,8|8
320,288,52763,6,2,L|416:288,2,85,2|2|2
232,288,53472,2,2,L|144:288,3,85,2|2|2|2
136,120,54653,6,0,L|40:120,6,85,0|0|0|0|0|0|0
240,256,56543,6,8,L|312:312,2,85,8|8|8
368,152,57488,2,8,L|448:216,2,85,8|8|8
232,256,58433,2,8,L|160:192,3,85
168,112,59378,2,8,B|80:136|40:240,1,170,8|8
208,168,60322,5,0
208,256,60559,1,0
288,256,60795,1,0
288,336,61031,1,0
200,336,61267,1,0
200,336,61504,1,0
112,336,61740,1,0
112,248,61976,1,0
296,72,62685,2,0,L|296:168,1,85
280,328,63393,2,2,B|387:328,1,85,2|2
352,160,64102,6,8,B|288:128|168:168,1,170
40,256,65047,2,10,B|136:320|232:256,1,170
368,256,65992,2,8,L|280:304,3,85
208,296,66937,2,8,B|120:216|191:131|208:136,1,170,8|8
336,64,67881,5,0
336,64,68118,1,0
336,64,68354,1,0
336,232,68826,2,0,B|448:232,2,85,0|0|0
264,80,69771,1,0
264,80,70007,2,0,L|176:80,1,85,0|0
96,88,70480,1,0
96,88,70716,2,0,B|96:176,3,85,0|0|0|0
96,256,71661,6,8,B|96:360|512:320|64:64|320:32|448:192,1,510
320,304,73551,2,0,L|224:240,3,85,0|0|0|0
248,168,74496,2,8,B|56:168,1,170
224,256,75441,6,0,L|136:312,2,85
248,176,76149,2,0,L|248:72,4,85
464,40,77803,1,0
464,120,78039,1,0
312,192,78511,2,2,L|312:80,1,85,2|6
160,64,94574,6,0,L|256:64,9,85,0|0|0|0|0|0|0|0|0|0
328,64,96937,2,0,B|328:264,1,170,0|0
240,232,97645,1,0
96,144,98118,5,0
56,64,98354,2,0,B|152:64,5,85,0|0|0|0|0|0
168,144,99771,2,2,B|224:56,5,85
160,232,101425,5,0
328,232,101897,1,0
328,64,102370,1,2
328,64,102606,1,0
328,64,102842,1,0
328,64,103078,1,0
328,64,103315,1,2
328,64,103551,1,0
328,64,103787,2,0,B|424:64,3,85
160,64,105204,1,6
152,232,105677,1,0
256,192,106622,12,0,108984
352,288,109456,6,8,B|176:288,3,170
184,120,111346,6,8,L|184:32,3,85,8|8|8|8
184,120,112291,2,8,B|280:120|368:176,1,170,8|8
456,288,113236,6,0,L|384:336,6,85,0|0|0|0|0|0|0
344,152,115126,6,0,L|264:208,6,85,0|0|0|0|0|0|0
192,80,117015,5,8
24,80,117488,1,8
32,248,117960,1,8
200,248,118433,1,8
200,248,118905,2,8,L|200:152,3,85
208,80,119850,2,8,B|400:80,1,170,8|8
256,192,120795,12,8,124102
160,88,124574,5,0
160,88,125047,1,0
160,256,125519,1,8
328,256,125992,1,8
328,88,126464,6,8,L|224:88,3,85
160,88,127409,2,8,B|160:248|160:280,1,170
264,120,128354,6,0,B|264:216,1,85,0|0
344,208,128826,2,0,B|344:112,1,85,0|0
432,120,129299,2,0,B|432:224,1,85,0|0
432,288,129771,1,0
264,288,130244,6,0,B|264:184,1,85,0|0
176,208,130716,2,0,B|176:296,1,85
88,288,131189,2,0,B|88:192,1,85
64,120,131661,2,0,B|152:120,1,85,0|0
232,128,132133,5,8
400,128,132606,1,8
400,296,133078,1,8
232,296,133551,1,8
232,128,134023,6,8,L|136:128,2,85
312,272,134968,2,8,B|464:240|272:184,1,170
216,48,135913,2,0,B|56:80|24:176|24:272|88:336|256:144,1,510
312,208,137567,1,0
72,112,138275,1,0
152,112,138511,1,0
296,200,138984,2,0,L|224:128,1,85,0|0
96,64,154811,6,8,B|192:64,5,85
264,64,156228,1,8
104,128,156700,6,8,B|104:224,5,85
104,296,158118,1,8
272,296,158590,5,8
272,296,158826,1,8
272,208,159063,1,8
272,120,159299,1,8
272,120,159535,1,8
352,120,159771,1,8
432,120,160007,1,10
288,216,160480,2,8,B|384:160|456:232,1,170
304,128,161425,2,0,B|384:64|472:144,1,170,8|0
352,264,162370,6,0,L|296:328,4,85
312,192,163551,2,0,L|272:248,2,42.5
192,72,164259,2,8,B|104:-16|24:88,3,170
128,264,166149,5,0
128,264,166385,1,0
128,264,166622,1,0
128,264,166858,1,0
128,96,167330,1,0
128,96,167567,1,0
128,96,167803,1,0
208,96,168039,2,8,B|304:96|376:152,3,170
400,224,169692,5,0
400,224,169929,1,0
400,224,170165,1,0
232,224,170637,1,0
232,224,170874,1,0
232,224,171110,1,0
232,224,171346,1,0
120,96,171818,5,0
120,96,172055,1,0
200,96,172291,1,0
200,176,172527,1,0
280,176,172763,1,0
280,264,173000,1,0
192,264,173236,1,6
112,112,173708,1,6
280,104,174181,2,0,B|200:200|288:264,2,170
256,192,175598,12,0,177015
208,200,177488,6,8,B|144:40,3,170
312,72,179378,6,8,L|312:168,3,85
312,240,180322,1,10
312,240,180795,1,10
304,72,181267,6,8,L|408:72,6,85
304,240,183157,6,8,L|408:240,6,85,4|4|4|4|4|4|4
136,240,185047,5,8
136,240,185519,1,8
304,232,185992,1,8
304,232,186464,1,8
136,232,186937,6,8,L|136:344,3,85,8|8|8|8
216,312,187881,2,8,B|392:312,1,170,8|8
256,192,188826,12,0,192133
192,128,192606,5,8
192,128,193078,1,8
192,128,193551,1,8
192,128,194023,1,8
360,128,194496,6,8,L|464:128,3,85,8|8|8|8
360,128,195441,2,8,B|360:320,1,170
192,296,196385,5,0
264,248,196622,1,0
192,200,196858,1,0
264,152,197094,1,0
192,96,197330,1,0
120,144,197567,1,0
56,200,197803,1,0
224,208,198275,5,0
304,208,198511,1,0
304,296,198748,1,0
304,296,198984,1,0
304,296,199220,1,0
304,296,199456,1,0
304,296,199692,1,0
304,296,199929,1,0
296,208,200165,6,8,L|384:208,6,85
128,208,202055,6,8,L|128:312,3,85
216,296,203000,2,8,B|392:296,1,170
256,192,203944,12,4,207252
160,160,207724,5,0
160,160,208196,1,0
160,160,208669,1,8
328,160,209141,1,8
328,328,209614,6,8,L|224:328,6,85,12|8|8|8|8|8|0
248,176,211504,6,8,L|352:176,6,85,8|8|8|8|8|8|4
