osu file format v6

[General]
AudioFilename: Wonder Girls - Tell me (Rap Version).mp3
AudioLeadIn: 0
PreviewTime: 48984
Countdown: 2
SampleSet: Normal
StackLeniency: 0.7
Mode: 0
LetterboxInBreaks: 1

[Editor]
Bookmarks: 44114,48760
DistanceSpacing: 1
BeatDivisor: 4
GridSize: 32

[Metadata]
Title:Tell Me
Artist:Wonder Girls
Creator:orioncomet
Version:Easy
Source:
Tags:

[Difficulty]
HPDrainRate:2
CircleSize:3
OverallDifficulty:1
SliderMultiplier:0.999999999999999
SliderTickRate:2

[Events]
//Background and Video events
0,0,"tellmee.jpg"
//Break Periods
2,33356,47184
2,78947,92774
2,139892,153011
//Storyboard Layer 0 (Background)
//Storyboard Layer 1 (Fail)
//Storyboard Layer 2 (Pass)
//Storyboard Layer 3 (Foreground)
//Storyboard Sound Samples
//Background Colour Transformations
3,100,255,206,255

[TimingPoints]
3630,472.44094488189,4,1,0,48,1,0
177488,-100,4,1,0,48,0,1
192488,-100,4,1,0,48,0,0
192606,-100,4,1,0,48,0,1
207606,-100,4,1,0,48,0,0
207724,-100,4,1,0,48,0,1

[Colours]
Combo1 : 0,191,0
Combo2 : 255,70,163
Combo3 : 164,72,255

[HitObjects]
224,224,3629,2,0,B|192:288|128:224,7,99.9999999999999
160,128,7409,6,0,B|192:64|256:128,3,99.9999999999999,0|0|0|0
224,224,9299,6,0,C|192:288|128:224,2,150
320,224,11189,6,0,B|320:288,6,50
320,128,13078,6,0,B|224:128|256:0,2,150
320,224,14968,6,0,B|384:160|480:224,2,150
320,128,16858,6,0,B|256:32|192:128,2,150
320,224,18748,6,0,L|264:224,6,50,0|0|0|8|0|0|8
416,224,20637,6,0,B|416:288,6,50,0|0|0|8|0|0|8
320,224,22527,6,0,B|32:192|320:128,1,300,0|8
352,32,24417,6,0,B|512:64|328:160|432:208|528:248,1,300,0|8
448,320,26307,5,0
256,320,27252,1,0
64,320,28196,1,0
64,224,28669,2,0,B|224:224,1,150,0|0
224,64,30086,6,0,B|160:64,4,50
416,64,31976,5,0
416,160,32448,2,0,B|240:160,1,150,0|8
160,288,48984,6,8,B|280:272,3,99.9999999999999,8|8|8|8
352,256,50874,6,8,L|352:320,6,50
352,160,52763,6,8,L|416:160,6,50,0|8|8|8|8|8|0
256,160,54653,6,0,L|192:160,6,50,0|0|0|0|0|0|0
352,160,56543,6,8,L|416:192,6,50
256,128,58433,6,8,L|192:64,2,74.9999999999999
224,160,59378,2,8,B|160:160|128:224,1,99.9999999999999,8|8
64,288,60322,5,0
160,288,60795,1,0
256,288,61267,1,0
256,192,61740,1,0
352,192,62212,1,0
448,192,62685,2,0,L|512:192,4,50,0|0|0|0|0
448,96,64102,6,8,B|416:64|352:96,3,99.9999999999999
256,128,65992,6,8,L|192:160,6,50,8|8|8|8|8|8|8
352,128,67881,5,0
352,32,68354,1,0
256,32,68826,2,0,B|192:32,2,50,0|0|0
224,128,69771,6,0,L|288:128,6,50
128,128,71661,6,8,B|-64:352|192:224,1,300
256,192,73551,6,0,L|192:160,6,50
320,256,75441,6,0,L|256:288,7,50,0|0|0|0|0|0|0|0
128,288,77803,6,2,L|128:64,1,200,2|6
224,64,94574,6,0,B|160:64,8,50
320,64,96937,6,0,B|320:224,1,150,0|0
352,352,98354,6,0,B|352:288,9,50,0|0|0|0|0|0|0|0|0|0
256,352,100952,1,0
160,352,101425,5,0
64,352,101897,1,0
64,256,102370,1,2
160,256,102842,1,0
256,256,103315,1,2
256,160,103787,2,0,B|256:32|128:32,1,200,0|0
96,128,105204,6,6,C|64:224|128:288|192:192,1,300
256,192,107094,12,0,108984
352,288,109456,6,8,B|240:288,3,99.9999999999999
160,288,111346,6,8,L|160:224,6,50,8|8|8|8|8|8|8
256,288,113236,6,0,C|320:288,6,50
160,288,115126,2,0,C|96:288,6,50
64,288,117015,6,8,L|32:256|64:192,1,99.9999999999999
160,160,117960,2,8,L|192:192|160:256,1,99.9999999999999,8|8
160,352,118905,6,8,L|224:352,6,50,8|8|8|8|8|8|8
256,192,120795,12,8,124574
104,216,125519,6,8,L|192:160,1,99.9999999999999,8|8
224,64,126464,6,8,L|160:64,6,50
320,64,128354,6,0,B|384:96|320:160,1,99.9999999999999
320,256,129299,2,0,B|384:256,2,50
224,256,130244,6,0,B|192:192|224:160,1,99.9999999999999
320,160,131189,2,0,B|384:160,2,50,0|0|0
320,64,132133,5,8
224,64,132606,1,8
128,64,133078,1,8
128,160,133551,1,8
128,256,134023,6,8,L|64:256,2,50,8|8|8
224,256,134968,2,8,B|288:224|224:160,1,99.9999999999999
256,64,135913,6,0,B|480:160|0:160|416:288,1,400
480,224,138275,6,0,L|448:160,1,50
416,96,138984,2,0,L|352:96|288:32,1,150,0|0
96,64,154811,6,8,B|160:64,6,50
96,160,156700,6,8,B|96:224,6,50
192,128,158590,6,8,B|192:192,6,50
288,128,160480,6,8,B|320:64|384:128,3,99.9999999999999
416,192,162370,6,0,L|352:224,6,50
384,96,164259,6,8,B|384:32|288:64,3,99.9999999999999
224,96,166149,6,0,L|160:128,6,50
256,192,168039,6,0,B|288:160|352:192,3,99.9999999999999,0|0|0|8
416,256,169929,6,0,B|384:320,6,50
320,192,171818,6,0,B|288:256,6,50
224,160,173708,6,0,B|128:160|224:224,3,99.9999999999999
256,192,175598,12,0,177015
208,200,177488,6,8,B|240:96,3,99.9999999999999
128,96,179378,2,8,L|128:160,6,50,8|8|8|8|8|8|8
224,96,181267,6,8,L|288:96,6,50
224,192,183157,6,8,L|288:192,6,50
128,192,185047,6,8,L|160:160|128:96,1,99.9999999999999
32,96,185992,2,8,L|0:128|0:128|32:192,1,99.9999999999999
128,192,186937,6,8,L|192:192,6,50
256,192,188826,12,0,192133
128,96,192606,5,8
224,96,193078,1,8
320,96,193551,1,8
320,192,194023,1,8
320,288,194496,6,8,L|256:288,3,50
224,288,195441,2,8,B|192:224|224:192,1,99.9999999999999
160,128,196385,5,0
256,128,196858,1,0
352,128,197330,1,0
352,32,197803,1,0
256,32,198275,5,0
160,32,198748,1,0
64,32,199220,1,0
64,128,199692,1,0
160,128,200165,6,8,L|160:192,6,50,8|8|8|8|8|8|8
256,128,202055,6,8,L|256:192,2,50
352,128,203000,2,8,B|384:96|448:128,1,99.9999999999999
256,192,203944,12,4,207252
384,160,207724,6,8,L|272:160,1,99.9999999999999
192,160,208669,2,8,L|80:160,1,99.9999999999999
256,192,209614,12,4,212921
