osu file format v7

[General]
AudioFilename: Wonder girls tears (mianhan maeum).mp3
AudioLeadIn: 1235
PreviewTime: 17250
Countdown: 1
SampleSet: Normal
StackLeniency: 0.7
Mode: 0
LetterboxInBreaks: 1

[Editor]
DistanceSpacing: 0.800000011920929
BeatDivisor: 2
GridSize: 8

[Metadata]
Title:Mianhan Maeum
Artist:Wonder Girls
Creator:_llkey_18
Version:Easy
Source:
Tags:K-Pop

[Difficulty]
HPDrainRate:0
CircleSize:3
OverallDifficulty:0
SliderMultiplier:1.5
SliderTickRate:2

[Events]
//Background and Video events
0,0,"Background.jpg"
//Break Periods
2,22526,22834
//Storyboard Layer 0 (Background)
//Storyboard Layer 1 (Fail)
//Storyboard Layer 2 (Pass)
//Storyboard Layer 3 (Foreground)
//Storyboard Sound Samples
//Background Colour Transformations
3,100,163,162,255

[TimingPoints]
2481,461.538461538462,4,1,0,55,1,0
45634,-100,4,2,0,55,0,0
46788,-100,4,2,0,68,0,1
52327,-100,4,2,0,68,0,0
61557,-100,4,2,0,68,0,1
67096,-100,4,1,0,68,0,0

[HitObjects]
104,72,17250,1,0
208,136,17711,1,0
216,256,18173,1,0
328,288,18634,2,0,B|400:272|440:240|448:208|440:168|424:152|400:144|360:120,1,225
224,80,20019,6,8,B|224:136|232:152|256:152|272:144|296:120|304:104|304:88|296:80,1,150,8|0
416,56,20942,1,2
424,176,21404,1,0
424,232,21634,1,0
304,232,22096,2,0,B|168:240,1,75
352,96,24634,5,0
232,96,25096,1,0
328,168,25557,1,8
208,168,26019,2,0,B|192:208|184:208|160:200|152:200|136:192|128:184|120:176|112:168|112:152|112:136|112:128|112:120,1,150
264,40,27173,5,0
256,160,27634,2,0,B|40:240,1,225,0|0
160,272,28788,1,8
160,272,29019,1,8
256,192,29480,12,4,31096
360,72,32019,5,0
424,168,32480,1,0
304,192,32942,1,0
240,192,33173,2,0,B|200:272,4,75,0|0|0|0|0
200,80,34557,5,0
320,56,35019,1,0
320,56,35250,2,0,B|384:56|400:56|408:56|416:72|368:192|368:192,2,150
328,176,36634,1,0
208,176,37096,1,0
256,192,37327,12,0,38481
240,80,38942,5,0
168,176,39404,1,0
288,176,39865,1,0
360,80,40327,1,8
360,80,40557,1,0
368,264,41250,1,0
248,264,41711,1,0
128,264,42173,2,0,B|192:192|192:184|208:168|208:152|200:144|192:128|192:120,1,150
320,136,43096,5,0
440,136,43557,1,0
440,256,44019,1,8
320,256,44481,2,0,B|224:256|240:144|248:88,1,150
456,48,45865,5,8
352,112,46327,1,2
240,160,46788,2,2,B|248:168|256:216|240:240|224:256|192:264|120:264|88:264,1,225,2|2
88,144,47942,1,0
256,88,48634,1,2
360,144,49096,1,2
144,256,50019,6,0,B|208:256|256:256|288:232|280:200|280:184,1,150
328,104,50942,1,2
208,104,51404,1,10
88,104,51865,2,0,B|88:128|88:152|88:176|72:192|40:192|8:192|-16:192|-24:192,1,150,0|2
224,280,53250,5,8
288,176,53711,1,0
240,136,53942,2,0,B|304:56,2,75,2|2|2
416,96,55096,5,8
424,216,55557,1,0
368,208,55788,2,2,B|432:128,2,75,2|2|2
248,208,56711,5,0
256,152,56942,2,0,B|176:112,1,75
168,64,57404,2,0,B|152:144|152:152|144:160|136:168|136:168|136:176|128:176|128:168|120:152|104:144|104:128|88:112|88:96|88:88|80:72|72:64|72:56|72:88|72:88|64:72|64:112|56:128|48:152|48:160|48:176|40:176|32:168|32:168|24:168|16:152|16:136|8:120|8:104|0:88|-8:72|8:112,1,450,0|8
240,88,59711,5,2
360,88,60173,1,2
384,208,60634,1,10
264,184,61096,1,2
264,64,61557,2,8,B|256:64|224:64|184:64|152:80|144:128|144:160|144:192|144:224|152:248,1,225
240,280,62711,2,0,B|304:248|280:248,2,37.5
336,208,63404,1,2
336,208,63865,1,2
144,64,64788,5,0
160,184,65250,1,2
256,112,65711,1,0
320,216,66173,1,10
424,160,66634,2,0,B|432:80|360:72|320:64,1,150
120,96,68481,5,2
240,96,68942,1,2
248,216,69404,1,2
248,216,69634,1,0
368,240,70096,2,2,B|208:272,1,150
120,200,71019,1,0
168,88,71481,1,0
272,152,71942,1,2
272,152,72173,1,2
256,192,72634,12,4,74481
