osu file format v14

[General]
AudioFilename: .mp3
AudioLeadIn: 0
PreviewTime: 31110
Countdown: 0
SampleSet: Normal
StackLeniency: 0.7
Mode: 1
LetterboxInBreaks: 0
WidescreenStoryboard: 0

[Editor]
DistanceSpacing: 0.6
BeatDivisor: 2
GridSize: 32
TimelineZoom: 0.6999999

[Metadata]
Title:Asu no Yozora Shoukaihan
TitleUnicode:アスノヨゾラ哨戒班
Artist:Wolpis Carter
ArtistUnicode:ウォルピスカーター
Creator:EdamaMe411
Version:Muzukashii
Source:
Tags:utaite IA orangestar vocaloid MikanseiP Nardoxyribonucleic
BeatmapID:773043
BeatmapSetID:338260

[Difficulty]
HPDrainRate:5
CircleSize:5
OverallDifficulty:5
ApproachRate:5
SliderMultiplier:1.4
SliderTickRate:2

[Events]
//Background and Video events
0,0,"49529785_p0.jpg",0,0
//Break Periods
//Storyboard Layer 0 (Background)
//Storyboard Layer 1 (Fail)
//Storyboard Layer 2 (Pass)
//Storyboard Layer 3 (Foreground)
//Storyboard Sound Samples

[TimingPoints]
1332,294.840294840295,4,1,0,70,1,0
1332,-125,4,1,0,70,0,0
10766,-100,4,1,0,70,0,0
20496,-133.333333333333,4,1,0,60,0,0
24771,-100,4,1,0,70,0,0
31774,-100,4,1,0,90,0,1
55435,-100,4,1,0,70,0,0
119268,-100,4,1,0,90,0,1
142707,-100,4,1,0,90,0,0

[HitObjects]
256,192,1332,5,0,0:0:0:0:
256,192,1626,1,8,0:0:0:0:
256,192,2069,1,0,0:0:0:0:
256,192,2363,1,8,0:0:0:0:
256,192,2658,1,0,0:0:0:0:
224,160,2953,1,8,0:0:0:0:
256,192,3101,1,0,0:0:0:0:
256,192,3248,1,0,0:0:0:0:
256,192,3543,1,8,0:0:0:0:
256,192,3838,1,0,0:0:0:0:
256,192,4132,1,8,0:0:0:0:
256,192,4280,1,0,0:0:0:0:
256,192,4427,1,0,0:0:0:0:
256,192,4722,1,0,0:0:0:0:
256,192,5017,1,8,0:0:0:0:
256,192,5312,1,0,0:0:0:0:
256,192,5459,1,0,0:0:0:0:
256,192,5607,1,8,0:0:0:0:
256,192,5902,1,8,0:0:0:0:
256,192,6344,1,8,0:0:0:0:
256,192,6786,1,0,0:0:0:0:
288,192,7081,1,8,0:0:0:0:
256,192,7376,1,0,0:0:0:0:
256,192,7671,1,0,0:0:0:0:
256,224,7818,1,0,0:0:0:0:
256,192,7965,1,0,0:0:0:0:
288,192,8260,1,8,0:0:0:0:
256,192,8555,1,0,0:0:0:0:
256,192,8703,1,8,0:0:0:0:
256,160,8850,1,0,0:0:0:0:
256,192,9145,1,0,0:0:0:0:
256,192,9440,1,8,0:0:0:0:
256,192,9882,1,0,0:0:0:0:
256,192,10766,1,4,0:0:0:0:
256,192,11061,1,8,0:0:0:0:
256,192,11503,1,0,0:0:0:0:
256,192,11651,1,8,0:0:0:0:
256,192,11798,1,0,0:0:0:0:
256,192,12093,1,0,0:0:0:0:
256,192,12388,1,8,0:0:0:0:
256,192,12535,1,8,0:0:0:0:
256,192,12683,1,0,0:0:0:0:
256,192,12978,1,0,0:0:0:0:
256,192,13273,1,8,0:0:0:0:
256,192,13567,1,8,0:0:0:0:
256,192,13715,1,0,0:0:0:0:
256,192,13862,1,0,0:0:0:0:
256,192,14157,1,8,0:0:0:0:
256,192,14452,1,8,0:0:0:0:
256,192,14747,1,0,0:0:0:0:
256,192,14894,1,8,0:0:0:0:
256,192,15042,1,0,0:0:0:0:
256,192,15336,1,12,0:0:0:0:
256,192,15631,1,0,0:0:0:0:
256,192,15779,1,8,0:0:0:0:
256,192,16074,1,0,0:0:0:0:
256,192,16368,1,0,0:0:0:0:
256,192,16516,1,8,0:0:0:0:
256,192,16811,1,8,0:0:0:0:
256,192,16958,1,8,0:0:0:0:
256,192,17105,1,0,0:0:0:0:
256,192,17400,1,0,0:0:0:0:
256,192,17548,1,8,0:0:0:0:
256,192,17695,1,0,0:0:0:0:
256,192,17990,1,0,0:0:0:0:
256,192,18137,1,8,0:0:0:0:
256,192,18285,1,0,0:0:0:0:
256,192,18580,1,8,0:0:0:0:
256,192,18874,1,8,0:0:0:0:
256,192,19022,1,0,0:0:0:0:
256,192,19317,1,0,0:0:0:0:
256,192,19612,1,8,0:0:0:0:
256,192,19759,1,8,0:0:0:0:
256,192,19906,1,0,0:0:0:0:
256,192,20201,1,0,0:0:0:0:
256,192,20791,1,0,0:0:0:0:
256,192,21381,1,0,0:0:0:0:
256,192,21970,1,8,0:0:0:0:
256,192,22560,1,0,0:0:0:0:
256,192,23150,1,0,0:0:0:0:
256,192,23739,1,0,0:0:0:0:
256,192,24329,1,8,0:0:0:0:
256,192,24919,1,4,0:0:0:0:
256,192,25214,1,8,0:0:0:0:
256,192,25361,1,8,0:0:0:0:
256,192,25656,1,0,0:0:0:0:
256,192,25951,1,8,0:0:0:0:
256,192,26246,1,8,0:0:0:0:
256,192,26540,1,0,0:0:0:0:
256,192,26835,1,0,0:0:0:0:
256,192,26983,1,0,0:0:0:0:
256,192,27130,1,8,0:0:0:0:
256,192,27277,1,8,0:0:0:0:
256,192,27572,1,8,0:0:0:0:
256,192,27720,1,0,0:0:0:0:
256,192,27867,1,8,0:0:0:0:
256,192,28162,1,8,0:0:0:0:
256,192,28309,1,0,0:0:0:0:
256,192,28604,1,0,0:0:0:0:
256,192,28752,1,0,0:0:0:0:
256,192,28899,1,0,0:0:0:0:
256,192,29046,1,8,0:0:0:0:
256,192,29341,1,0,0:0:0:0:
256,192,29636,12,0,31405,0:0:0:0:
256,192,31995,5,4,0:0:0:0:
256,192,32290,1,8,0:0:0:0:
256,192,32585,1,8,0:0:0:0:
256,192,33027,1,0,0:0:0:0:
256,192,33322,1,0,0:0:0:0:
192,32,33469,1,0,0:0:0:0:
256,192,33617,1,8,0:0:0:0:
256,192,33764,1,0,0:0:0:0:
256,192,34354,1,0,0:0:0:0:
256,192,34648,1,8,0:0:0:0:
256,192,34796,1,0,0:0:0:0:
256,192,35091,1,0,0:0:0:0:
256,192,35386,1,8,0:0:0:0:
256,192,35680,1,0,0:0:0:0:
256,192,35828,1,8,0:0:0:0:
256,192,36123,1,0,0:0:0:0:
256,192,36417,1,8,0:0:0:0:
256,192,36565,1,4,0:0:0:0:
256,192,37007,1,8,0:0:0:0:
256,192,37155,1,0,0:0:0:0:
256,192,37302,1,8,0:0:0:0:
256,192,37597,1,8,0:0:0:0:
256,192,37744,1,0,0:0:0:0:
256,192,38039,1,0,0:0:0:0:
256,192,38187,1,8,0:0:0:0:
256,192,38481,1,0,0:0:0:0:
256,192,38776,1,8,0:0:0:0:
256,192,38924,1,8,0:0:0:0:
256,192,39071,1,0,0:0:0:0:
256,192,39366,1,8,0:0:0:0:
256,192,39513,1,0,0:0:0:0:
256,192,39808,1,8,0:0:0:0:
256,192,40250,1,0,0:0:0:0:
256,192,40545,1,0,0:0:0:0:
256,192,40693,1,0,0:0:0:0:
256,192,40766,1,0,0:0:0:0:
256,192,40840,1,0,0:0:0:0:
256,192,40988,1,8,0:0:0:0:
256,192,41135,1,0,0:0:0:0:
256,192,41282,1,12,0:0:0:0:
256,192,41725,1,8,0:0:0:0:
256,192,42019,1,0,0:0:0:0:
256,192,42462,1,0,0:0:0:0:
256,192,42757,1,0,0:0:0:0:
256,192,42904,1,8,0:0:0:0:
256,192,43051,1,8,0:0:0:0:
256,192,43199,1,0,0:0:0:0:
256,192,43789,1,0,0:0:0:0:
256,192,44083,1,8,0:0:0:0:
256,192,44231,1,0,0:0:0:0:
256,192,44526,1,8,0:0:0:0:
256,192,44673,1,8,0:0:0:0:
256,192,44820,1,0,0:0:0:0:
256,192,44968,1,0,0:0:0:0:
256,192,45115,1,8,0:0:0:0:
256,192,45263,1,0,0:0:0:0:
256,192,45705,1,0,0:0:0:0:
256,192,46000,1,12,0:0:0:0:
256,192,46295,1,0,0:0:0:0:
256,192,46589,1,0,0:0:0:0:
256,192,46737,1,8,0:0:0:0:
256,192,47032,1,8,0:0:0:0:
256,192,47179,1,8,0:0:0:0:
256,192,47474,1,8,0:0:0:0:
256,192,47621,1,0,0:0:0:0:
256,192,48064,1,8,0:0:0:0:
256,192,48211,1,0,0:0:0:0:
256,192,48359,1,0,0:0:0:0:
256,192,48506,1,8,0:0:0:0:
256,192,48801,1,8,0:0:0:0:
256,192,49096,1,0,0:0:0:0:
256,192,49243,1,0,0:0:0:0:
256,192,49538,1,8,0:0:0:0:
256,192,49833,1,8,0:0:0:0:
256,192,50128,1,0,0:0:0:0:
256,192,50275,1,0,0:0:0:0:
256,192,50422,1,0,0:0:0:0:
256,192,50570,1,8,0:0:0:0:
256,192,50717,1,0,0:0:0:0:
256,192,50865,12,8,54992,0:0:0:0:
256,192,55435,5,4,0:0:0:0:
256,160,55877,1,0,0:0:0:0:
288,192,56172,1,8,0:0:0:0:
224,160,56467,1,8,0:0:0:0:
256,192,56614,1,0,0:0:0:0:
256,192,57056,1,0,0:0:0:0:
256,192,57351,1,0,0:0:0:0:
256,192,57499,1,0,0:0:0:0:
256,160,57646,1,8,0:0:0:0:
256,160,57793,1,0,0:0:0:0:
224,160,58236,1,8,0:0:0:0:
224,160,58531,1,0,0:0:0:0:
256,160,58825,1,8,0:0:0:0:
256,160,58973,1,0,0:0:0:0:
224,160,59415,1,8,0:0:0:0:
288,192,59710,1,0,0:0:0:0:
256,192,59857,1,0,0:0:0:0:
256,192,60005,1,0,0:0:0:0:
256,192,60152,5,4,0:0:0:0:
256,192,60594,1,8,0:0:0:0:
256,192,60889,1,0,0:0:0:0:
256,192,61184,1,8,0:0:0:0:
256,192,61332,1,0,0:0:0:0:
256,192,61774,1,8,0:0:0:0:
256,192,62069,1,0,0:0:0:0:
265,204,62216,1,0,0:0:0:0:
256,192,62363,1,8,0:0:0:0:
256,192,62511,1,0,0:0:0:0:
256,192,62953,1,8,0:0:0:0:
256,192,63248,1,0,0:0:0:0:
256,192,63543,1,8,0:0:0:0:
255,207,63690,1,0,0:0:0:0:
256,192,64132,1,8,0:0:0:0:
256,192,64427,1,0,0:0:0:0:
256,192,64575,1,0,0:0:0:0:
264,182,64722,1,8,0:0:0:0:
256,192,64870,1,4,0:0:0:0:
256,192,65312,1,8,0:0:0:0:
254,200,65607,1,0,0:0:0:0:
256,192,65902,1,8,0:0:0:0:
247,186,66049,1,0,0:0:0:0:
244,224,66344,1,0,0:0:0:0:
256,192,66491,1,8,0:0:0:0:
256,192,66786,1,0,0:0:0:0:
256,192,66933,1,0,0:0:0:0:
256,192,67081,1,8,0:0:0:0:
256,192,67376,1,0,0:0:0:0:
256,192,67671,1,8,0:0:0:0:
257,218,67965,1,0,0:0:0:0:
256,192,68260,1,8,0:0:0:0:
256,192,68408,1,0,0:0:0:0:
256,192,68703,1,0,0:0:0:0:
256,192,68850,1,8,0:0:0:0:
256,224,69145,1,0,0:0:0:0:
246,183,69292,1,0,0:0:0:0:
246,183,69440,1,8,0:0:0:0:
256,192,69587,1,4,0:0:0:0:
256,192,70766,1,0,0:0:0:0:
256,192,71946,1,8,0:0:0:0:
256,192,73125,1,8,0:0:0:0:
256,192,73862,1,0,0:0:0:0:
256,192,74304,1,0,0:0:0:0:
256,192,75484,1,0,0:0:0:0:
256,192,76663,1,0,0:0:0:0:
256,192,77843,1,8,0:0:0:0:
256,192,78580,1,0,0:0:0:0:
256,192,79169,1,0,0:0:0:0:
245,188,79464,1,8,0:0:0:0:
264,169,79906,1,0,0:0:0:0:
255,168,80054,1,0,0:0:0:0:
256,192,80201,1,0,0:0:0:0:
262,197,80496,1,8,0:0:0:0:
261,184,80791,1,0,0:0:0:0:
256,192,81381,1,0,0:0:0:0:
256,192,81675,1,0,0:0:0:0:
256,192,81823,1,0,0:0:0:0:
256,192,81970,1,8,0:0:0:0:
256,192,82265,1,0,0:0:0:0:
256,192,82560,1,8,0:0:0:0:
256,192,83297,1,0,0:0:0:0:
256,192,83592,1,8,0:0:0:0:
256,192,83887,1,8,0:0:0:0:
256,192,84182,1,0,0:0:0:0:
261,185,84329,1,8,0:0:0:0:
249,169,84624,1,8,0:0:0:0:
263,198,84919,1,0,0:0:0:0:
270,181,85214,1,8,0:0:0:0:
265,187,85508,1,0,0:0:0:0:
255,192,86098,1,8,0:0:0:0:
256,192,86246,1,0,0:0:0:0:
256,192,86540,1,0,0:0:0:0:
256,192,86688,1,0,0:0:0:0:
256,192,86983,1,8,0:0:0:0:
256,192,87277,1,0,0:0:0:0:
256,192,88015,1,0,0:0:0:0:
256,192,88309,1,0,0:0:0:0:
256,192,88457,1,8,0:0:0:0:
256,192,88752,1,8,0:0:0:0:
256,192,89046,1,0,0:0:0:0:
256,192,89341,1,0,0:0:0:0:
256,192,89489,1,0,0:0:0:0:
256,192,89636,1,8,0:0:0:0:
256,192,89931,1,8,0:0:0:0:
256,192,90078,1,0,0:0:0:0:
256,192,90373,1,0,0:0:0:0:
256,192,90668,1,0,0:0:0:0:
256,192,90816,1,0,0:0:0:0:
256,192,90963,1,8,0:0:0:0:
256,192,91258,1,8,0:0:0:0:
256,192,91405,1,0,0:0:0:0:
256,192,91700,1,0,0:0:0:0:
256,192,91995,1,8,0:0:0:0:
256,192,92437,1,8,0:0:0:0:
256,192,92585,1,0,0:0:0:0:
256,192,92879,1,8,0:0:0:0:
256,192,93174,1,0,0:0:0:0:
256,192,93617,1,0,0:0:0:0:
256,192,93911,1,0,0:0:0:0:
256,192,94059,1,0,0:0:0:0:
256,192,94206,1,8,0:0:0:0:
256,192,94354,1,0,0:0:0:0:
256,192,94648,1,8,0:0:0:0:
256,192,94943,1,0,0:0:0:0:
256,192,95091,1,0,0:0:0:0:
256,192,95238,1,8,0:0:0:0:
256,192,95533,1,8,0:0:0:0:
256,192,95828,1,8,0:0:0:0:
256,192,95975,1,0,0:0:0:0:
256,192,96123,1,0,0:0:0:0:
256,192,96270,1,8,0:0:0:0:
256,192,96565,1,0,0:0:0:0:
256,192,96712,1,8,0:0:0:0:
256,192,97007,1,0,0:0:0:0:
256,192,97155,1,8,0:0:0:0:
256,192,97302,1,0,0:0:0:0:
256,192,97449,1,0,0:0:0:0:
256,192,97597,1,0,0:0:0:0:
256,192,97892,1,4,0:0:0:0:
256,192,98187,1,0,0:0:0:0:
256,192,98260,1,0,0:0:0:0:
256,192,98334,1,0,0:0:0:0:
256,192,98481,1,0,0:0:0:0:
256,192,98629,1,8,0:0:0:0:
256,192,98924,1,0,0:0:0:0:
256,192,99071,1,8,0:0:0:0:
256,192,99366,1,8,0:0:0:0:
256,192,99513,1,0,0:0:0:0:
256,192,99808,1,0,0:0:0:0:
256,192,100398,1,0,0:0:0:0:
256,192,100693,1,8,0:0:0:0:
256,192,100840,1,0,0:0:0:0:
256,192,101135,1,8,0:0:0:0:
256,192,101282,1,0,0:0:0:0:
256,192,101430,1,8,0:0:0:0:
256,192,101725,1,8,0:0:0:0:
256,192,101872,1,0,0:0:0:0:
256,192,102019,1,0,0:0:0:0:
256,192,102167,1,0,0:0:0:0:
256,192,102609,1,4,0:0:0:0:
256,192,102904,1,0,0:0:0:0:
256,192,102978,1,0,0:0:0:0:
256,192,103051,1,0,0:0:0:0:
256,192,103199,1,0,0:0:0:0:
256,192,103346,1,8,0:0:0:0:
256,192,103641,1,8,0:0:0:0:
256,192,103789,1,0,0:0:0:0:
256,192,104083,1,0,0:0:0:0:
256,192,104231,1,8,0:0:0:0:
256,192,104526,1,0,0:0:0:0:
256,192,104968,1,0,0:0:0:0:
256,192,105115,1,8,0:0:0:0:
256,192,105410,1,8,0:0:0:0:
256,192,105558,1,0,0:0:0:0:
256,192,105705,1,8,0:0:0:0:
256,192,105852,1,0,0:0:0:0:
256,192,106000,1,0,0:0:0:0:
256,192,106147,1,8,0:0:0:0:
256,192,106442,1,0,0:0:0:0:
256,192,106589,1,8,0:0:0:0:
256,192,106737,1,0,0:0:0:0:
256,192,107032,1,8,0:0:0:0:
256,192,107179,1,0,0:0:0:0:
256,192,107327,1,0,0:0:0:0:
256,192,107474,1,0,0:0:0:0:
256,192,108506,1,8,0:0:0:0:
256,192,109833,1,8,0:0:0:0:
256,192,110865,1,0,0:0:0:0:
256,192,111602,1,0,0:0:0:0:
256,192,112044,1,4,0:0:0:0:
256,192,112486,1,8,0:0:0:0:
256,192,112781,1,0,0:0:0:0:
256,192,112929,1,0,0:0:0:0:
256,192,113076,1,8,0:0:0:0:
256,192,113371,1,0,0:0:0:0:
256,192,113666,1,8,0:0:0:0:
256,192,113813,1,0,0:0:0:0:
256,192,113960,1,0,0:0:0:0:
256,192,114255,1,8,0:0:0:0:
256,192,114550,1,4,0:0:0:0:
256,192,114845,1,8,0:0:0:0:
256,192,115140,1,0,0:0:0:0:
256,192,115287,1,0,0:0:0:0:
256,192,115435,1,8,0:0:0:0:
256,192,115730,1,0,0:0:0:0:
256,192,116024,1,0,0:0:0:0:
256,192,116172,1,8,0:0:0:0:
256,192,116467,1,0,0:0:0:0:
256,192,116614,1,8,0:0:0:0:
256,192,116761,1,8,0:0:0:0:
256,192,116909,1,0,0:0:0:0:
256,192,117056,1,0,0:0:0:0:
256,192,117204,1,8,0:0:0:0:
256,192,117499,1,0,0:0:0:0:
256,192,117646,1,0,0:0:0:0:
256,192,117793,1,8,0:0:0:0:
256,192,117941,1,0,0:0:0:0:
256,192,118088,1,8,0:0:0:0:
256,192,118236,1,0,0:0:0:0:
256,192,118309,1,0,0:0:0:0:
256,192,118383,1,0,0:0:0:0:
256,192,118531,1,8,0:0:0:0:
256,192,118825,1,0,0:0:0:0:
256,192,118973,1,0,0:0:0:0:
256,192,119268,1,4,0:0:0:0:
256,192,119562,1,8,0:0:0:0:
256,192,119857,1,0,0:0:0:0:
256,192,120005,1,0,0:0:0:0:
256,192,120152,1,8,0:0:0:0:
256,192,120300,1,0,0:0:0:0:
256,192,120594,1,0,0:0:0:0:
256,192,120742,1,8,0:0:0:0:
256,192,121037,1,0,0:0:0:0:
270,190,121184,1,0,0:0:0:0:
256,192,121332,1,8,0:0:0:0:
236,187,121479,1,0,0:0:0:0:
261,190,121774,1,0,0:0:0:0:
256,192,121921,1,8,0:0:0:0:
256,192,122216,1,0,0:0:0:0:
256,192,122363,1,0,0:0:0:0:
256,192,122511,1,8,0:0:0:0:
256,192,122658,1,8,0:0:0:0:
256,192,122806,1,0,0:0:0:0:
256,192,123101,1,8,0:0:0:0:
256,192,123248,1,0,0:0:0:0:
256,192,123396,1,0,0:0:0:0:
256,192,123543,1,8,0:0:0:0:
256,192,123838,1,4,0:0:0:0:
256,192,124132,1,8,0:0:0:0:
256,192,124280,1,0,0:0:0:0:
256,192,124427,1,0,0:0:0:0:
256,192,124575,1,0,0:0:0:0:
256,192,124722,1,8,0:0:0:0:
256,192,125017,1,4,0:0:0:0:
256,192,125312,1,8,0:0:0:0:
256,192,125459,1,0,0:0:0:0:
256,192,125607,1,0,0:0:0:0:
256,192,125754,1,8,0:0:0:0:
256,192,125902,1,8,0:0:0:0:
256,192,126196,1,12,0:0:0:0:
224,192,126491,1,8,0:0:0:0:
256,192,126639,1,0,0:0:0:0:
224,192,126786,1,8,0:0:0:0:
256,192,126933,1,8,0:0:0:0:
224,192,127081,1,0,0:0:0:0:
256,192,127376,1,12,0:0:0:0:
224,192,127671,1,8,0:0:0:0:
256,192,127818,1,0,0:0:0:0:
256,192,127965,1,0,0:0:0:0:
256,192,128039,1,0,0:0:0:0:
256,192,128113,1,0,0:0:0:0:
224,192,128260,1,0,0:0:0:0:
256,192,128555,1,12,0:0:0:0:
256,192,128997,1,0,0:0:0:0:
256,192,129292,1,8,0:0:0:0:
256,192,129440,1,0,0:0:0:0:
256,192,129587,1,8,0:0:0:0:
256,192,129734,1,0,0:0:0:0:
256,192,130029,1,8,0:0:0:0:
256,192,130177,1,0,0:0:0:0:
256,192,130472,1,8,0:0:0:0:
256,192,130619,1,0,0:0:0:0:
256,192,130766,1,0,0:0:0:0:
256,192,130914,1,8,0:0:0:0:
253,183,131209,1,0,0:0:0:0:
260,186,131356,1,8,0:0:0:0:
256,192,131651,1,8,0:0:0:0:
256,192,131798,1,0,0:0:0:0:
256,192,131946,1,8,0:0:0:0:
256,192,132093,1,8,0:0:0:0:
256,192,132241,1,0,0:0:0:0:
256,192,132535,1,8,0:0:0:0:
256,192,132683,1,8,0:0:0:0:
256,192,132830,1,0,0:0:0:0:
256,192,132978,1,8,0:0:0:0:
256,192,133273,1,4,0:0:0:0:
256,192,133567,1,0,0:0:0:0:
256,192,133715,1,0,0:0:0:0:
256,192,133862,1,8,0:0:0:0:
256,192,134010,1,0,0:0:0:0:
256,192,134157,1,0,0:0:0:0:
256,192,134452,1,4,0:0:0:0:
256,192,134747,1,0,0:0:0:0:
256,192,134894,1,0,0:0:0:0:
256,192,135042,1,8,0:0:0:0:
256,192,135189,1,8,0:0:0:0:
256,192,135336,1,0,0:0:0:0:
256,192,135631,1,12,0:0:0:0:
256,192,135926,1,8,0:0:0:0:
256,192,136074,1,0,0:0:0:0:
256,192,136221,1,0,0:0:0:0:
256,192,136368,1,8,0:0:0:0:
256,192,136516,1,0,0:0:0:0:
256,192,136811,1,12,0:0:0:0:
256,192,137105,1,8,0:0:0:0:
256,192,137253,1,0,0:0:0:0:
256,192,137400,1,0,0:0:0:0:
256,192,137474,1,0,0:0:0:0:
256,192,137548,1,0,0:0:0:0:
256,192,137695,1,0,0:0:0:0:
256,192,137990,1,4,0:0:0:0:
256,192,138285,12,0,142265,0:0:0:0:
256,192,142707,5,4,0:0:0:0:
