osu file format v14

[General]
AudioFilename: .mp3
AudioLeadIn: 0
PreviewTime: 31110
Countdown: 0
SampleSet: Normal
StackLeniency: 0.7
Mode: 1
LetterboxInBreaks: 0
WidescreenStoryboard: 0

[Editor]
DistanceSpacing: 0.6
BeatDivisor: 4
GridSize: 32
TimelineZoom: 1.8

[Metadata]
Title:Asu no Yozora Shoukaihan
TitleUnicode:アスノヨゾラ哨戒班
Artist:Wolpis Carter
ArtistUnicode:ウォルピスカーター
Creator:EdamaMe411
Version:Inner Oni
Source:
Tags:utaite IA orangestar vocaloid MikanseiP Nardoxyribonucleic
BeatmapID:748310
BeatmapSetID:338260

[Difficulty]
HPDrainRate:6
CircleSize:5
OverallDifficulty:6
ApproachRate:5
SliderMultiplier:1.4
SliderTickRate:2

[Events]
//Background and Video events
0,0,"49529785_p0.jpg",0,0
//Break Periods
//Storyboard Layer 0 (Background)
//Storyboard Layer 1 (Fail)
//Storyboard Layer 2 (Pass)
//Storyboard Layer 3 (Foreground)
//Storyboard Sound Samples

[TimingPoints]
1332,294.840294840295,4,1,0,70,1,0
1332,-125,4,1,0,70,0,0
10766,-100,4,1,0,70,0,0
20496,-133.333333333333,4,1,0,60,0,0
24771,-100,4,1,0,70,0,0
31774,-100,4,1,0,90,0,1
55435,-100,4,1,0,70,0,0
55582,-100,4,1,0,70,0,0
119268,-100,4,1,0,90,0,1
142707,-100,4,1,0,90,0,0

[HitObjects]
256,192,1332,5,0,0:0:0:0:
256,192,1626,1,8,0:0:0:0:
256,192,1774,1,0,0:0:0:0:
256,192,2069,1,0,0:0:0:0:
256,192,2216,1,8,0:0:0:0:
256,192,2363,1,0,0:0:0:0:
256,192,2658,1,0,0:0:0:0:
256,192,2806,1,8,0:0:0:0:
256,192,3101,1,0,0:0:0:0:
256,192,3248,1,0,0:0:0:0:
256,192,3395,1,8,0:0:0:0:
256,192,3543,1,0,0:0:0:0:
256,192,3838,1,0,0:0:0:0:
256,192,3985,1,8,0:0:0:0:
256,192,4280,1,0,0:0:0:0:
256,192,4427,1,0,0:0:0:0:
256,192,4575,1,8,0:0:0:0:
256,192,4722,1,0,0:0:0:0:
256,192,5017,1,0,0:0:0:0:
256,192,5164,1,8,0:0:0:0:
256,192,5312,1,0,0:0:0:0:
256,192,5459,1,0,0:0:0:0:
256,192,5607,1,8,0:0:0:0:
256,192,5902,1,8,0:0:0:0:
256,192,6196,1,0,0:0:0:0:
256,192,6344,1,8,0:0:0:0:
256,192,6491,1,0,0:0:0:0:
256,192,6786,1,0,0:0:0:0:
256,192,6933,1,8,0:0:0:0:
256,192,7081,1,0,0:0:0:0:
256,192,7376,1,0,0:0:0:0:
256,192,7523,1,8,0:0:0:0:
256,192,7818,1,0,0:0:0:0:
256,192,7965,1,0,0:0:0:0:
256,192,8113,1,8,0:0:0:0:
256,192,8260,1,0,0:0:0:0:
256,192,8555,1,0,0:0:0:0:
256,192,8703,1,8,0:0:0:0:
256,192,8850,1,0,0:0:0:0:
256,192,9145,1,0,0:0:0:0:
256,192,9292,1,8,0:0:0:0:
256,192,9440,1,0,0:0:0:0:
256,192,9734,1,0,0:0:0:0:
256,192,9882,1,8,0:0:0:0:
256,192,10177,1,0,0:0:0:0:
256,192,10324,1,0,0:0:0:0:
256,192,10472,1,0,0:0:0:0:
256,192,10619,1,0,0:0:0:0:
256,192,10766,1,12,0:0:0:0:
256,192,11061,1,0,0:0:0:0:
256,192,11209,1,8,0:0:0:0:
256,192,11356,1,8,0:0:0:0:
256,192,11503,1,0,0:0:0:0:
256,192,11651,1,0,0:0:0:0:
256,192,11798,1,8,0:0:0:0:
256,192,12093,1,0,0:0:0:0:
256,192,12388,1,0,0:0:0:0:
256,192,12535,1,0,0:0:0:0:
256,192,12683,1,8,0:0:0:0:
256,192,12830,1,0,0:0:0:0:
256,192,12978,1,8,0:0:0:0:
256,192,13273,1,8,0:0:0:0:
256,192,13567,1,8,0:0:0:0:
256,192,13715,1,0,0:0:0:0:
256,192,13862,1,0,0:0:0:0:
256,192,14010,1,0,0:0:0:0:
256,192,14157,1,8,0:0:0:0:
256,192,14452,1,0,0:0:0:0:
256,192,14747,1,8,0:0:0:0:
256,192,14894,1,0,0:0:0:0:
256,192,15042,1,8,0:0:0:0:
256,192,15336,1,12,0:0:0:0:
256,192,15631,1,0,0:0:0:0:
256,192,15779,1,8,0:0:0:0:
256,192,15926,1,0,0:0:0:0:
256,192,16000,1,0,0:0:0:0:
256,192,16074,1,8,0:0:0:0:
256,192,16221,1,0,0:0:0:0:
256,192,16368,1,8,0:0:0:0:
256,192,16442,1,0,0:0:0:0:
256,192,16516,1,8,0:0:0:0:
256,192,16663,1,8,0:0:0:0:
256,192,16811,1,0,0:0:0:0:
256,192,16958,1,0,0:0:0:0:
256,192,17105,1,8,0:0:0:0:
256,192,17400,1,0,0:0:0:0:
256,192,17548,1,8,0:0:0:0:
256,192,17695,1,8,0:0:0:0:
256,192,17990,1,0,0:0:0:0:
256,192,18137,1,8,0:0:0:0:
256,192,18285,1,8,0:0:0:0:
256,192,18580,1,8,0:0:0:0:
256,192,18727,1,0,0:0:0:0:
256,192,18874,1,0,0:0:0:0:
256,192,19022,1,8,0:0:0:0:
256,192,19169,1,0,0:0:0:0:
256,192,19317,1,0,0:0:0:0:
256,192,19464,1,0,0:0:0:0:
256,192,19612,1,8,0:0:0:0:
256,192,19759,1,0,0:0:0:0:
256,192,19906,1,0,0:0:0:0:
256,192,20054,1,0,0:0:0:0:
256,192,20201,1,0,0:0:0:0:
256,192,20791,1,0,0:0:0:0:
256,192,21381,1,0,0:0:0:0:
256,192,21970,1,8,0:0:0:0:
256,192,22560,1,8,0:0:0:0:
256,192,23150,1,0,0:0:0:0:
256,192,23739,1,0,0:0:0:0:
256,192,24329,1,0,0:0:0:0:
256,192,24919,1,12,0:0:0:0:
256,192,25214,1,0,0:0:0:0:
256,192,25361,1,0,0:0:0:0:
256,192,25508,1,8,0:0:0:0:
256,192,25656,1,0,0:0:0:0:
256,192,25803,1,0,0:0:0:0:
256,192,25951,1,0,0:0:0:0:
256,192,26098,1,8,0:0:0:0:
256,192,26393,1,0,0:0:0:0:
256,192,26540,1,0,0:0:0:0:
256,192,26688,1,8,0:0:0:0:
256,192,26835,1,0,0:0:0:0:
256,192,26983,1,0,0:0:0:0:
256,192,27130,1,0,0:0:0:0:
256,192,27277,1,8,0:0:0:0:
256,192,27351,1,8,0:0:0:0:
256,192,27425,1,0,0:0:0:0:
256,192,27572,1,8,0:0:0:0:
256,192,27646,1,8,0:0:0:0:
256,192,27720,1,0,0:0:0:0:
256,192,27867,1,8,0:0:0:0:
256,192,27941,1,8,0:0:0:0:
256,192,28015,1,0,0:0:0:0:
256,192,28088,1,0,0:0:0:0:
256,192,28162,1,8,0:0:0:0:
256,192,28236,1,8,0:0:0:0:
256,192,28309,1,0,0:0:0:0:
256,192,28457,1,8,0:0:0:0:
256,192,28531,1,8,0:0:0:0:
256,192,28604,1,0,0:0:0:0:
256,192,28752,1,8,0:0:0:0:
256,192,28825,1,8,0:0:0:0:
256,192,28899,1,0,0:0:0:0:
256,192,29046,1,8,0:0:0:0:
256,192,29120,1,8,0:0:0:0:
256,192,29194,1,0,0:0:0:0:
256,192,29268,1,0,0:0:0:0:
256,192,29341,1,8,0:0:0:0:
256,192,29415,1,0,0:0:0:0:
256,192,29489,1,0,0:0:0:0:
256,192,29562,1,0,0:0:0:0:
256,192,29636,1,8,0:0:0:0:
256,192,29784,1,0,0:0:0:0:
256,192,29857,1,0,0:0:0:0:
256,192,29931,1,8,0:0:0:0:
256,192,30078,1,0,0:0:0:0:
256,192,30226,1,8,0:0:0:0:
256,192,30300,1,8,0:0:0:0:
256,192,30373,1,0,0:0:0:0:
256,192,30447,1,0,0:0:0:0:
256,192,30521,1,8,0:0:0:0:
256,192,30594,1,8,0:0:0:0:
256,192,30668,1,8,0:0:0:0:
256,192,30742,1,0,0:0:0:0:
256,192,30816,1,8,0:0:0:0:
256,192,30963,1,0,0:0:0:0:
256,192,31110,1,0,0:0:0:0:
256,192,31258,1,8,0:0:0:0:
256,192,31332,1,8,0:0:0:0:
256,192,31405,1,8,0:0:0:0:
256,192,31553,1,0,0:0:0:0:
256,192,31700,1,0,0:0:0:0:
256,192,31847,1,12,0:0:0:0:
256,192,32142,1,0,0:0:0:0:
256,192,32290,1,8,0:0:0:0:
256,192,32437,1,8,0:0:0:0:
256,192,32585,1,0,0:0:0:0:
256,192,32658,1,8,0:0:0:0:
256,192,32732,1,0,0:0:0:0:
256,192,32806,1,0,0:0:0:0:
256,192,32879,1,8,0:0:0:0:
256,192,33027,1,8,0:0:0:0:
256,192,33101,1,8,0:0:0:0:
256,192,33174,1,0,0:0:0:0:
256,192,33322,1,0,0:0:0:0:
256,192,33469,1,8,0:0:0:0:
256,192,33617,1,8,0:0:0:0:
256,192,33764,1,0,0:0:0:0:
256,192,34059,1,8,0:0:0:0:
256,192,34206,1,0,0:0:0:0:
256,192,34280,1,0,0:0:0:0:
256,192,34354,1,8,0:0:0:0:
256,192,34501,1,0,0:0:0:0:
256,192,34648,1,8,0:0:0:0:
256,192,34722,1,0,0:0:0:0:
256,192,34796,1,0,0:0:0:0:
256,192,34870,1,0,0:0:0:0:
256,192,34943,1,8,0:0:0:0:
256,192,35091,1,8,0:0:0:0:
256,192,35238,1,0,0:0:0:0:
256,192,35386,1,8,0:0:0:0:
256,192,35459,1,0,0:0:0:0:
256,192,35533,1,0,0:0:0:0:
256,192,35680,1,8,0:0:0:0:
256,192,35828,1,0,0:0:0:0:
256,192,35902,1,0,0:0:0:0:
256,192,35975,1,8,0:0:0:0:
256,192,36049,1,8,0:0:0:0:
256,192,36123,1,0,0:0:0:0:
256,192,36270,1,0,0:0:0:0:
256,192,36344,1,8,0:0:0:0:
256,192,36417,1,8,0:0:0:0:
256,192,36565,1,4,0:0:0:0:
256,192,36860,1,0,0:0:0:0:
256,192,37007,1,0,0:0:0:0:
256,192,37155,1,8,0:0:0:0:
256,192,37302,1,8,0:0:0:0:
256,192,37449,1,0,0:0:0:0:
256,192,37597,1,8,0:0:0:0:
256,192,37744,1,0,0:0:0:0:
256,192,37818,1,0,0:0:0:0:
256,192,37892,1,8,0:0:0:0:
256,192,38039,1,0,0:0:0:0:
256,192,38187,1,8,0:0:0:0:
256,192,38481,1,0,0:0:0:0:
256,192,38629,1,0,0:0:0:0:
256,192,38776,1,0,0:0:0:0:
256,192,38924,1,8,0:0:0:0:
256,192,39071,1,8,0:0:0:0:
256,192,39218,1,0,0:0:0:0:
256,192,39292,1,0,0:0:0:0:
256,192,39366,1,8,0:0:0:0:
256,192,39513,1,0,0:0:0:0:
256,192,39661,1,0,0:0:0:0:
256,192,39734,1,0,0:0:0:0:
256,192,39808,1,8,0:0:0:0:
256,192,39882,1,8,0:0:0:0:
256,192,39956,1,0,0:0:0:0:
256,192,40103,1,8,0:0:0:0:
256,192,40250,1,0,0:0:0:0:
256,192,40545,1,0,0:0:0:0:
256,192,40693,1,0,0:0:0:0:
256,192,40766,1,0,0:0:0:0:
256,192,40840,1,0,0:0:0:0:
256,192,40988,1,0,0:0:0:0:
256,192,41135,1,8,0:0:0:0:
256,192,41282,1,12,0:0:0:0:
256,192,41577,1,0,0:0:0:0:
256,192,41651,1,0,0:0:0:0:
256,192,41725,1,8,0:0:0:0:
256,192,41872,1,0,0:0:0:0:
256,192,42019,1,8,0:0:0:0:
256,192,42093,1,8,0:0:0:0:
256,192,42167,1,8,0:0:0:0:
256,192,42241,1,8,0:0:0:0:
256,192,42314,1,0,0:0:0:0:
256,192,42462,1,0,0:0:0:0:
256,192,42535,1,0,0:0:0:0:
256,192,42609,1,8,0:0:0:0:
256,192,42757,1,0,0:0:0:0:
256,192,42904,1,8,0:0:0:0:
256,192,43051,1,0,0:0:0:0:
256,192,43199,1,0,0:0:0:0:
256,192,43494,1,0,0:0:0:0:
256,192,43641,1,8,0:0:0:0:
256,192,43715,1,0,0:0:0:0:
256,192,43789,1,0,0:0:0:0:
256,192,43936,1,0,0:0:0:0:
256,192,44083,1,8,0:0:0:0:
256,192,44157,1,0,0:0:0:0:
256,192,44231,1,8,0:0:0:0:
256,192,44304,1,8,0:0:0:0:
256,192,44378,1,0,0:0:0:0:
256,192,44526,1,8,0:0:0:0:
256,192,44673,1,0,0:0:0:0:
256,192,44820,1,8,0:0:0:0:
256,192,44894,1,0,0:0:0:0:
256,192,44968,1,8,0:0:0:0:
256,192,45042,1,0,0:0:0:0:
256,192,45115,1,0,0:0:0:0:
256,192,45188,1,0,0:0:0:0:
256,192,45263,1,8,0:0:0:0:
256,192,45409,1,0,0:0:0:0:
256,192,45557,1,0,0:0:0:0:
256,192,45704,1,8,0:0:0:0:
256,192,45778,1,8,0:0:0:0:
256,192,45852,1,0,0:0:0:0:
256,192,45999,1,12,0:0:0:0:
256,192,46295,1,4,0:0:0:0:
256,192,46589,1,0,0:0:0:0:
256,192,46737,1,8,0:0:0:0:
256,192,46811,1,0,0:0:0:0:
256,192,46884,1,0,0:0:0:0:
256,192,46958,1,8,0:0:0:0:
256,192,47032,1,8,0:0:0:0:
256,192,47179,1,8,0:0:0:0:
256,192,47474,1,8,0:0:0:0:
256,192,47621,1,0,0:0:0:0:
256,192,47769,1,0,0:0:0:0:
256,192,47916,1,0,0:0:0:0:
256,192,48064,1,0,0:0:0:0:
256,192,48137,1,0,0:0:0:0:
256,192,48211,1,8,0:0:0:0:
256,192,48359,1,0,0:0:0:0:
256,192,48506,1,8,0:0:0:0:
256,192,48580,1,0,0:0:0:0:
256,192,48653,1,0,0:0:0:0:
256,192,48727,1,8,0:0:0:0:
256,192,48801,1,0,0:0:0:0:
256,192,48948,1,8,0:0:0:0:
256,192,49022,1,8,0:0:0:0:
256,192,49096,1,8,0:0:0:0:
256,192,49243,1,8,0:0:0:0:
256,192,49538,1,4,0:0:0:0:
256,192,49833,1,12,0:0:0:0:
256,192,50128,1,0,0:0:0:0:
256,192,50201,1,0,0:0:0:0:
256,192,50275,1,8,0:0:0:0:
224,192,50349,1,8,0:0:0:0:
224,192,50422,1,0,0:0:0:0:
256,192,50570,1,8,0:0:0:0:
256,192,50717,1,0,0:0:0:0:
256,192,50865,12,0,54698,0:0:0:0:
256,192,54845,5,0,0:0:0:0:
256,192,54992,5,0,0:0:0:0:
256,192,55140,1,0,0:0:0:0:
256,192,55214,1,0,0:0:0:0:
256,192,55287,1,8,0:0:0:0:
256,192,55435,1,12,0:0:0:0:
256,192,55877,1,0,0:0:0:0:
256,192,56172,1,0,0:0:0:0:
256,192,56319,1,0,0:0:0:0:
256,192,56467,1,8,0:0:0:0:
256,192,56614,1,0,0:0:0:0:
256,192,56909,1,0,0:0:0:0:
256,192,57056,1,0,0:0:0:0:
256,192,57204,1,0,0:0:0:0:
256,192,57351,1,8,0:0:0:0:
256,192,57499,1,0,0:0:0:0:
256,192,57646,1,8,0:0:0:0:
256,192,57793,1,0,0:0:0:0:
256,192,58088,1,0,0:0:0:0:
256,192,58236,1,8,0:0:0:0:
256,192,58383,1,0,0:0:0:0:
256,192,58678,1,0,0:0:0:0:
256,192,58825,1,8,0:0:0:0:
256,192,58973,1,0,0:0:0:0:
256,192,59120,1,0,0:0:0:0:
256,192,59268,1,0,0:0:0:0:
256,192,59415,1,8,0:0:0:0:
256,192,59562,1,0,0:0:0:0:
256,192,59710,1,0,0:0:0:0:
256,192,59857,1,0,0:0:0:0:
256,192,59931,1,0,0:0:0:0:
256,192,60005,1,8,0:0:0:0:
256,192,60152,1,0,0:0:0:0:
256,192,60447,1,0,0:0:0:0:
224,192,60521,1,0,0:0:0:0:
256,192,60594,1,8,0:0:0:0:
224,192,60742,1,0,0:0:0:0:
256,192,60889,1,0,0:0:0:0:
256,192,61037,1,0,0:0:0:0:
256,192,61184,1,8,0:0:0:0:
256,192,61332,1,0,0:0:0:0:
256,192,61479,1,0,0:0:0:0:
256,192,61553,1,0,0:0:0:0:
256,192,61626,1,8,0:0:0:0:
256,192,61774,1,0,0:0:0:0:
256,192,61921,1,8,0:0:0:0:
256,192,61995,1,8,0:0:0:0:
256,192,62069,1,0,0:0:0:0:
256,192,62216,1,8,0:0:0:0:
256,192,62363,1,0,0:0:0:0:
256,192,62437,1,0,0:0:0:0:
256,192,62511,1,8,0:0:0:0:
256,192,62585,1,8,0:0:0:0:
256,192,62658,1,0,0:0:0:0:
256,192,62806,1,8,0:0:0:0:
256,192,62953,1,0,0:0:0:0:
256,192,63101,1,8,0:0:0:0:
256,192,63174,1,8,0:0:0:0:
256,192,63248,1,0,0:0:0:0:
256,192,63395,1,8,0:0:0:0:
256,192,63543,1,0,0:0:0:0:
256,192,63617,1,0,0:0:0:0:
256,192,63690,1,8,0:0:0:0:
256,192,63838,1,0,0:0:0:0:
256,192,63985,1,8,0:0:0:0:
256,192,64132,1,0,0:0:0:0:
256,192,64280,1,8,0:0:0:0:
256,192,64354,1,8,0:0:0:0:
256,192,64427,1,0,0:0:0:0:
256,192,64501,1,0,0:0:0:0:
256,192,64575,1,8,0:0:0:0:
256,192,64722,1,0,0:0:0:0:
256,192,64870,1,0,0:0:0:0:
256,192,65164,1,0,0:0:0:0:
256,192,65238,1,8,0:0:0:0:
256,192,65312,1,0,0:0:0:0:
256,192,65459,1,0,0:0:0:0:
256,192,65533,1,8,0:0:0:0:
256,192,65607,1,0,0:0:0:0:
256,192,65754,1,0,0:0:0:0:
256,192,65902,1,8,0:0:0:0:
256,192,66049,1,0,0:0:0:0:
256,192,66196,1,0,0:0:0:0:
256,192,66344,1,8,0:0:0:0:
256,192,66417,1,0,0:0:0:0:
256,192,66491,1,8,0:0:0:0:
256,192,66639,1,8,0:0:0:0:
256,192,66712,1,0,0:0:0:0:
256,192,66786,1,8,0:0:0:0:
256,192,66933,1,8,0:0:0:0:
256,160,67081,1,0,0:0:0:0:
256,192,67228,1,8,0:0:0:0:
256,192,67376,1,8,0:0:0:0:
256,192,67523,1,0,0:0:0:0:
256,192,67597,1,8,0:0:0:0:
256,192,67671,1,0,0:0:0:0:
256,192,67818,1,0,0:0:0:0:
256,192,67892,1,8,0:0:0:0:
256,192,67965,1,0,0:0:0:0:
256,192,68113,1,8,0:0:0:0:
256,192,68260,1,0,0:0:0:0:
256,192,68408,1,8,0:0:0:0:
256,192,68555,1,0,0:0:0:0:
256,192,68703,1,8,0:0:0:0:
256,192,68776,1,0,0:0:0:0:
256,192,68850,1,8,0:0:0:0:
256,192,68997,1,8,0:0:0:0:
256,192,69071,1,0,0:0:0:0:
256,192,69145,1,8,0:0:0:0:
256,192,69292,1,0,0:0:0:0:
256,192,69440,1,8,0:0:0:0:
256,192,69587,1,4,0:0:0:0:
256,192,70766,1,0,0:0:0:0:
256,192,71946,1,0,0:0:0:0:
256,192,73125,1,8,0:0:0:0:
256,192,73862,1,0,0:0:0:0:
256,192,74304,1,0,0:0:0:0:
256,192,75484,1,0,0:0:0:0:
256,192,76663,1,0,0:0:0:0:
256,192,77843,1,8,0:0:0:0:
256,192,78580,1,0,0:0:0:0:
256,192,79022,1,8,0:0:0:0:
256,192,79169,1,0,0:0:0:0:
256,192,79317,1,8,0:0:0:0:
256,192,79464,1,0,0:0:0:0:
256,192,79612,1,8,0:0:0:0:
256,192,79906,1,0,0:0:0:0:
256,192,80054,1,8,0:0:0:0:
256,192,80201,1,0,0:0:0:0:
256,192,80496,1,8,0:0:0:0:
256,192,80644,1,0,0:0:0:0:
256,192,80791,1,8,0:0:0:0:
224,192,81086,1,0,0:0:0:0:
256,192,81233,1,8,0:0:0:0:
256,192,81381,1,0,0:0:0:0:
256,192,81675,1,8,0:0:0:0:
256,192,81823,1,0,0:0:0:0:
256,192,81970,1,8,0:0:0:0:
256,192,82265,1,0,0:0:0:0:
256,192,82413,1,0,0:0:0:0:
256,192,82560,1,8,0:0:0:0:
256,192,82707,1,0,0:0:0:0:
256,192,82855,1,8,0:0:0:0:
96,128,82929,1,0,0:0:0:0:
256,192,83002,1,0,0:0:0:0:
256,192,83150,1,0,0:0:0:0:
256,192,83297,1,8,0:0:0:0:
256,192,83445,1,8,0:0:0:0:
256,192,83592,1,0,0:0:0:0:
256,192,83739,1,0,0:0:0:0:
256,192,83887,1,8,0:0:0:0:
256,192,84182,1,0,0:0:0:0:
256,192,84329,1,8,0:0:0:0:
256,192,84624,1,8,0:0:0:0:
224,192,84771,1,0,0:0:0:0:
224,192,84919,1,8,0:0:0:0:
224,192,85214,1,0,0:0:0:0:
224,192,85361,1,8,0:0:0:0:
224,192,85508,1,0,0:0:0:0:
256,192,85803,1,0,0:0:0:0:
224,192,85951,1,0,0:0:0:0:
224,192,86098,1,8,0:0:0:0:
224,192,86393,1,0,0:0:0:0:
224,192,86540,1,8,0:0:0:0:
224,192,86688,1,0,0:0:0:0:
256,192,86983,1,0,0:0:0:0:
256,192,87130,1,0,0:0:0:0:
256,192,87277,1,8,0:0:0:0:
256,192,87572,1,0,0:0:0:0:
256,192,87720,1,8,0:0:0:0:
256,192,87867,1,0,0:0:0:0:
256,192,88015,1,0,0:0:0:0:
256,192,88162,1,0,0:0:0:0:
256,192,88309,1,8,0:0:0:0:
256,192,88457,1,0,0:0:0:0:
256,192,88531,1,0,0:0:0:0:
256,192,88604,1,8,0:0:0:0:
256,192,88752,1,0,0:0:0:0:
256,192,88899,1,8,0:0:0:0:
256,192,89046,1,0,0:0:0:0:
256,192,89194,1,8,0:0:0:0:
256,192,89341,1,0,0:0:0:0:
256,192,89415,1,0,0:0:0:0:
256,192,89489,1,8,0:0:0:0:
256,192,89636,1,0,0:0:0:0:
256,192,89784,1,8,0:0:0:0:
256,192,89931,1,0,0:0:0:0:
256,192,90005,1,8,0:0:0:0:
256,192,90078,1,8,0:0:0:0:
256,192,90226,1,8,0:0:0:0:
256,192,90373,1,0,0:0:0:0:
256,192,90594,1,0,0:0:0:0:
256,192,90668,1,0,0:0:0:0:
256,192,90816,1,8,0:0:0:0:
256,192,90963,1,0,0:0:0:0:
256,192,91037,1,0,0:0:0:0:
256,192,91110,1,0,0:0:0:0:
256,192,91258,1,8,0:0:0:0:
256,192,91405,1,8,0:0:0:0:
256,192,91479,1,0,0:0:0:0:
256,192,91553,1,8,0:0:0:0:
256,192,91700,1,0,0:0:0:0:
256,192,91847,1,0,0:0:0:0:
256,192,91995,1,8,0:0:0:0:
256,192,92289,1,0,0:0:0:0:
256,192,92437,1,0,0:0:0:0:
256,192,92585,1,8,0:0:0:0:
256,192,92658,1,8,0:0:0:0:
256,192,92732,1,0,0:0:0:0:
256,192,92806,1,0,0:0:0:0:
256,192,92879,1,8,0:0:0:0:
256,192,92953,1,0,0:0:0:0:
256,192,93027,1,0,0:0:0:0:
256,192,93174,1,0,0:0:0:0:
256,192,93469,1,0,0:0:0:0:
256,192,93617,1,8,0:0:0:0:
256,192,93764,1,8,0:0:0:0:
256,192,93838,1,8,0:0:0:0:
256,192,93911,1,0,0:0:0:0:
256,192,94059,1,8,0:0:0:0:
256,192,94206,1,0,0:0:0:0:
256,192,94354,1,8,0:0:0:0:
256,192,94427,1,0,0:0:0:0:
256,192,94501,1,0,0:0:0:0:
256,192,94648,1,0,0:0:0:0:
256,192,94943,1,0,0:0:0:0:
256,192,95017,1,0,0:0:0:0:
256,192,95091,1,0,0:0:0:0:
256,192,95238,1,8,0:0:0:0:
256,192,95386,1,0,0:0:0:0:
256,192,95533,1,8,0:0:0:0:
256,192,95828,1,8,0:0:0:0:
256,192,95975,1,0,0:0:0:0:
256,192,96123,1,0,0:0:0:0:
256,192,96196,1,0,0:0:0:0:
256,192,96270,1,0,0:0:0:0:
256,192,96344,1,0,0:0:0:0:
256,192,96417,1,8,0:0:0:0:
256,192,96565,1,0,0:0:0:0:
256,192,96712,1,8,0:0:0:0:
256,192,97007,1,0,0:0:0:0:
256,192,97155,1,8,0:0:0:0:
256,192,97302,1,0,0:0:0:0:
256,192,97449,1,0,0:0:0:0:
256,192,97597,1,8,0:0:0:0:
256,192,97671,1,8,0:0:0:0:
256,192,97744,1,0,0:0:0:0:
256,192,97892,1,4,0:0:0:0:
256,192,98187,1,8,0:0:0:0:
256,192,98260,1,0,0:0:0:0:
256,192,98334,1,0,0:0:0:0:
256,192,98481,1,8,0:0:0:0:
256,192,98555,1,0,0:0:0:0:
256,192,98629,1,0,0:0:0:0:
256,192,98776,1,0,0:0:0:0:
256,192,98924,1,8,0:0:0:0:
256,192,99071,1,8,0:0:0:0:
256,192,99366,1,8,0:0:0:0:
256,192,99513,1,0,0:0:0:0:
256,192,99661,1,8,0:0:0:0:
256,192,99808,1,0,0:0:0:0:
256,192,99956,1,8,0:0:0:0:
256,192,100029,1,0,0:0:0:0:
256,192,100103,1,8,0:0:0:0:
256,192,100250,1,0,0:0:0:0:
256,192,100398,1,8,0:0:0:0:
256,192,100545,1,0,0:0:0:0:
256,192,100619,1,0,0:0:0:0:
256,192,100693,1,0,0:0:0:0:
256,192,100840,1,0,0:0:0:0:
256,192,100988,1,8,0:0:0:0:
256,192,101135,1,0,0:0:0:0:
256,192,101282,1,0,0:0:0:0:
256,192,101430,1,8,0:0:0:0:
256,192,101725,1,8,0:0:0:0:
256,192,101872,1,0,0:0:0:0:
256,192,102019,1,0,0:0:0:0:
256,192,102167,1,8,0:0:0:0:
256,192,102314,1,0,0:0:0:0:
256,192,102462,1,0,0:0:0:0:
256,192,102609,1,12,0:0:0:0:
256,192,102904,1,0,0:0:0:0:
256,192,102978,1,0,0:0:0:0:
256,192,103051,1,8,0:0:0:0:
256,192,103199,1,0,0:0:0:0:
256,192,103273,1,0,0:0:0:0:
256,192,103346,1,8,0:0:0:0:
256,192,103494,1,8,0:0:0:0:
256,192,103641,1,0,0:0:0:0:
256,192,103789,1,0,0:0:0:0:
256,192,103936,1,8,0:0:0:0:
256,192,104083,1,0,0:0:0:0:
256,192,104231,1,8,0:0:0:0:
256,192,104526,1,0,0:0:0:0:
256,192,104747,1,0,0:0:0:0:
256,192,104820,1,0,0:0:0:0:
256,192,104968,1,0,0:0:0:0:
256,192,105115,1,0,0:0:0:0:
256,192,105189,1,0,0:0:0:0:
256,192,105263,1,0,0:0:0:0:
256,192,105336,1,0,0:0:0:0:
256,192,105410,1,8,0:0:0:0:
256,192,105558,1,8,0:0:0:0:
256,192,105631,1,0,0:0:0:0:
256,192,105705,1,0,0:0:0:0:
256,192,105852,1,8,0:0:0:0:
256,192,106000,1,0,0:0:0:0:
256,192,106147,1,8,0:0:0:0:
256,192,106442,1,8,0:0:0:0:
256,192,106589,1,0,0:0:0:0:
256,192,106737,1,8,0:0:0:0:
256,192,106884,1,0,0:0:0:0:
256,192,107032,1,8,0:0:0:0:
256,192,107105,1,0,0:0:0:0:
256,192,107179,1,0,0:0:0:0:
256,192,107253,1,0,0:0:0:0:
256,192,107327,1,0,0:0:0:0:
256,192,107400,1,0,0:0:0:0:
256,192,107474,1,0,0:0:0:0:
256,192,108506,1,0,0:0:0:0:
256,192,109833,1,8,0:0:0:0:
256,192,110865,1,8,0:0:0:0:
256,192,111602,1,0,0:0:0:0:
256,192,112044,1,12,0:0:0:0:
256,192,112339,1,0,0:0:0:0:
256,192,112413,1,0,0:0:0:0:
256,192,112486,1,8,0:0:0:0:
256,192,112634,1,0,0:0:0:0:
256,192,112781,1,8,0:0:0:0:
256,192,112929,1,0,0:0:0:0:
256,192,113002,1,0,0:0:0:0:
256,192,113076,1,8,0:0:0:0:
256,192,113223,1,0,0:0:0:0:
256,192,113371,1,0,0:0:0:0:
256,192,113518,1,8,0:0:0:0:
256,192,113592,1,8,0:0:0:0:
256,192,113666,1,0,0:0:0:0:
256,192,113813,1,8,0:0:0:0:
256,192,113960,1,0,0:0:0:0:
256,192,114034,1,0,0:0:0:0:
256,192,114108,1,0,0:0:0:0:
256,192,114182,1,0,0:0:0:0:
256,192,114255,1,8,0:0:0:0:
256,192,114403,1,0,0:0:0:0:
256,192,114550,1,12,0:0:0:0:
256,192,114845,1,0,0:0:0:0:
256,192,114992,1,8,0:0:0:0:
256,192,115066,1,8,0:0:0:0:
256,192,115140,1,0,0:0:0:0:
256,192,115287,1,8,0:0:0:0:
256,192,115435,1,0,0:0:0:0:
256,192,115508,1,0,0:0:0:0:
256,192,115582,1,8,0:0:0:0:
256,192,115656,1,8,0:0:0:0:
256,192,115730,1,0,0:0:0:0:
256,192,115877,1,8,0:0:0:0:
256,192,116024,1,0,0:0:0:0:
256,192,116172,1,8,0:0:0:0:
256,192,116246,1,0,0:0:0:0:
256,192,116319,1,0,0:0:0:0:
256,192,116467,1,0,0:0:0:0:
256,192,116614,1,0,0:0:0:0:
256,192,116761,1,8,0:0:0:0:
256,192,116909,1,12,0:0:0:0:
256,192,117056,1,8,0:0:0:0:
256,192,117130,1,8,0:0:0:0:
256,192,117204,1,0,0:0:0:0:
256,192,117351,1,8,0:0:0:0:
256,192,117499,1,0,0:0:0:0:
256,192,117572,1,0,0:0:0:0:
256,192,117646,1,8,0:0:0:0:
256,192,117720,1,8,0:0:0:0:
256,192,117793,1,0,0:0:0:0:
256,192,117941,1,0,0:0:0:0:
256,192,118088,1,8,0:0:0:0:
256,192,118162,1,8,0:0:0:0:
256,192,118236,1,0,0:0:0:0:
256,192,118309,1,0,0:0:0:0:
256,192,118383,1,8,0:0:0:0:
256,192,118457,1,0,0:0:0:0:
256,192,118531,1,0,0:0:0:0:
256,192,118604,1,0,0:0:0:0:
256,192,118678,1,8,0:0:0:0:
256,160,118825,1,8,0:0:0:0:
256,160,118973,1,0,0:0:0:0:
256,160,119120,1,0,0:0:0:0:
256,160,119268,1,12,0:0:0:0:
256,192,119562,1,8,0:0:0:0:
256,192,119710,1,0,0:0:0:0:
256,192,119857,1,8,0:0:0:0:
256,192,119931,1,0,0:0:0:0:
256,192,120005,1,8,0:0:0:0:
256,192,120152,1,0,0:0:0:0:
256,192,120299,1,8,0:0:0:0:
256,192,120447,1,8,0:0:0:0:
256,192,120521,1,8,0:0:0:0:
256,192,120594,1,0,0:0:0:0:
256,192,120668,1,0,0:0:0:0:
256,192,120742,1,8,0:0:0:0:
256,192,120816,1,0,0:0:0:0:
256,192,120889,1,0,0:0:0:0:
256,192,120963,1,8,0:0:0:0:
256,192,121037,1,8,0:0:0:0:
256,192,121184,1,0,0:0:0:0:
256,192,121332,1,8,0:0:0:0:
256,192,121479,1,0,0:0:0:0:
256,192,121626,1,8,0:0:0:0:
256,192,121774,1,8,0:0:0:0:
256,192,121847,1,8,0:0:0:0:
256,192,121921,1,0,0:0:0:0:
256,192,122068,1,8,0:0:0:0:
256,192,122216,1,0,0:0:0:0:
256,192,122290,1,0,0:0:0:0:
256,192,122363,1,8,0:0:0:0:
256,192,122437,1,8,0:0:0:0:
256,192,122511,1,0,0:0:0:0:
256,192,122585,1,8,0:0:0:0:
256,192,122658,1,0,0:0:0:0:
256,192,122732,1,0,0:0:0:0:
256,192,122806,1,8,0:0:0:0:
256,192,122953,1,0,0:0:0:0:
256,192,123100,1,8,0:0:0:0:
256,192,123248,1,0,0:0:0:0:
256,192,123322,1,0,0:0:0:0:
256,192,123395,1,8,0:0:0:0:
256,192,123543,1,0,0:0:0:0:
256,192,123690,1,8,0:0:0:0:
256,192,123838,1,4,0:0:0:0:
256,192,124132,1,0,0:0:0:0:
256,192,124280,1,8,0:0:0:0:
256,192,124427,1,8,0:0:0:0:
256,192,124501,1,8,0:0:0:0:
256,192,124575,1,0,0:0:0:0:
256,192,124648,1,0,0:0:0:0:
256,192,124722,1,8,0:0:0:0:
256,192,124869,1,0,0:0:0:0:
256,192,125017,1,12,0:0:0:0:
256,192,125312,1,8,0:0:0:0:
256,192,125386,1,8,0:0:0:0:
256,192,125459,1,0,0:0:0:0:
256,192,125607,1,0,0:0:0:0:
256,192,125754,1,0,0:0:0:0:
256,192,125828,1,0,0:0:0:0:
256,192,125901,1,8,0:0:0:0:
256,192,126049,1,0,0:0:0:0:
256,192,126196,1,12,0:0:0:0:
256,192,126491,1,8,0:0:0:0:
256,192,126638,1,8,0:0:0:0:
256,192,126786,1,0,0:0:0:0:
256,192,126933,1,0,0:0:0:0:
256,192,127007,1,0,0:0:0:0:
256,192,127081,1,8,0:0:0:0:
256,192,127154,1,0,0:0:0:0:
256,192,127228,1,8,0:0:0:0:
256,192,127376,1,12,0:0:0:0:
256,192,127670,1,8,0:0:0:0:
256,192,127744,1,0,0:0:0:0:
256,192,127818,1,8,0:0:0:0:
256,192,127965,1,0,0:0:0:0:
256,192,128113,1,8,0:0:0:0:
256,192,128187,1,0,0:0:0:0:
256,192,128260,1,0,0:0:0:0:
256,192,128408,1,0,0:0:0:0:
256,192,128555,1,12,0:0:0:0:
256,192,128850,1,0,0:0:0:0:
256,192,128997,1,8,0:0:0:0:
256,192,129071,1,0,0:0:0:0:
256,192,129145,1,0,0:0:0:0:
256,192,129218,1,0,0:0:0:0:
256,192,129292,1,8,0:0:0:0:
256,192,129366,1,8,0:0:0:0:
256,192,129439,1,0,0:0:0:0:
256,192,129513,1,0,0:0:0:0:
256,192,129587,1,8,0:0:0:0:
256,192,129661,1,8,0:0:0:0:
256,192,129734,1,0,0:0:0:0:
256,192,129808,1,0,0:0:0:0:
256,192,129882,1,8,0:0:0:0:
256,192,130029,1,8,0:0:0:0:
256,192,130103,1,8,0:0:0:0:
256,192,130177,1,0,0:0:0:0:
256,192,130324,1,8,0:0:0:0:
256,192,130472,1,0,0:0:0:0:
256,192,130545,1,0,0:0:0:0:
256,192,130619,1,0,0:0:0:0:
256,192,130766,1,8,0:0:0:0:
256,192,130914,1,8,0:0:0:0:
256,192,131061,1,0,0:0:0:0:
256,192,131209,1,8,0:0:0:0:
256,192,131282,1,8,0:0:0:0:
256,192,131356,1,0,0:0:0:0:
256,192,131430,1,0,0:0:0:0:
256,192,131503,1,8,0:0:0:0:
256,192,131577,1,8,0:0:0:0:
256,192,131651,1,0,0:0:0:0:
256,192,131725,1,8,0:0:0:0:
256,192,131798,1,0,0:0:0:0:
256,192,131872,1,0,0:0:0:0:
256,192,131946,1,8,0:0:0:0:
256,192,132019,1,0,0:0:0:0:
256,192,132093,1,8,0:0:0:0:
256,192,132240,1,0,0:0:0:0:
256,192,132388,1,8,0:0:0:0:
256,192,132462,1,8,0:0:0:0:
256,192,132535,1,0,0:0:0:0:
256,192,132609,1,0,0:0:0:0:
256,192,132683,1,8,0:0:0:0:
64,32,132830,1,0,0:0:0:0:
256,192,132977,1,0,0:0:0:0:
256,192,133124,1,8,0:0:0:0:
256,192,133272,1,4,0:0:0:0:
256,192,133567,1,0,0:0:0:0:
256,192,133715,1,0,0:0:0:0:
256,192,133862,1,8,0:0:0:0:
256,192,133936,1,8,0:0:0:0:
256,192,134009,1,0,0:0:0:0:
256,192,134083,1,0,0:0:0:0:
256,192,134157,1,8,0:0:0:0:
256,192,134304,1,0,0:0:0:0:
256,192,134452,1,12,0:0:0:0:
256,192,134747,1,8,0:0:0:0:
256,192,134820,1,8,0:0:0:0:
256,192,134894,1,0,0:0:0:0:
256,192,135042,1,8,0:0:0:0:
256,192,135189,1,0,0:0:0:0:
256,192,135263,1,0,0:0:0:0:
256,192,135336,1,8,0:0:0:0:
256,192,135484,1,0,0:0:0:0:
256,192,135631,1,12,0:0:0:0:
256,192,135926,1,0,0:0:0:0:
256,192,136073,1,8,0:0:0:0:
256,192,136221,1,8,0:0:0:0:
256,192,136368,1,0,0:0:0:0:
256,192,136442,1,0,0:0:0:0:
256,160,136516,1,8,0:0:0:0:
256,160,136589,1,0,0:0:0:0:
256,160,136663,1,8,0:0:0:0:
256,160,136811,1,12,0:0:0:0:
256,160,137105,1,0,0:0:0:0:
256,192,137179,1,0,0:0:0:0:
256,192,137253,1,8,0:0:0:0:
256,192,137400,1,0,0:0:0:0:
256,192,137548,1,8,0:0:0:0:
256,192,137621,1,8,0:0:0:0:
256,192,137695,1,8,0:0:0:0:
224,192,137769,1,8,0:0:0:0:
224,192,137842,1,0,0:0:0:0:
256,192,137990,1,12,0:0:0:0:
256,192,138137,12,0,142265,0:0:0:0:
256,192,142707,5,4,0:0:0:0:
