osu file format v4

[General]
AudioFilename: 02-04-wolfmother-woman.mp3
AudioLeadIn: 0
AudioHash: 2a2f8df3b7829191b33869cce5cb7325
PreviewTime: -1
SampleSet: Normal

[Metadata]
Title:Woman
Artist:Wolfmother
Creator:P-Drogan
Version:Hard

[Difficulty]
HPDrainRate:5
CircleSize:6
OverallDifficulty:7
SliderMultiplier: 1.4
SliderTickRate: 1

[Events]
2,119396,136875
3,100,128,64,64

[TimingPoints]
8201,443.098737168599,4,1,0

[Colours]
Combo1 : 0,255,0
Combo2 : 255,0,0
Combo3 : 255,255,0
Combo4 : 0,0,255

[HitObjects]
96,64,13961,5,0
160,64,14348,1,0
160,64,14681,1,0
256,64,15179,5,0
256,96,15567,1,0
256,128,15955,1,0
256,128,16342,1,0
256,192,16730,5,0
256,224,17118,1,0
256,256,17506,1,0
256,256,17894,1,0
256,320,18281,5,0
256,352,18724,1,0
352,352,19555,5,0
352,256,20441,1,0
352,192,20884,1,0
352,192,21272,1,0
256,192,21659,5,0
224,160,22047,1,0
224,192,22435,1,0
224,192,22823,1,0
128,96,23210,5,0
160,96,23598,1,0
192,96,23986,1,0
192,96,24373,1,0
256,96,24761,5,0
288,96,25204,1,0
384,96,25980,1,0
384,192,26811,5,0
320,192,27254,1,0
320,192,27641,1,0
256,192,28029,5,0
224,192,28417,1,0
224,192,28860,1,0
224,192,29248,1,0
128,192,29580,5,0
96,192,29968,1,0
96,160,30355,1,0
96,160,30688,1,0
96,96,31131,5,0
128,96,31574,1,0
256,96,32405,5,0
352,96,33236,5,0
256,192,34399,5,0
256,192,34786,1,0
96,320,36060,5,0
96,320,36393,1,0
416,64,37500,5,0
416,64,37888,1,0
256,192,39273,5,0
256,192,39661,1,0
64,64,41156,5,0
128,64,41544,1,0
192,64,41931,1,0
256,64,42319,1,0
320,64,42707,1,0
384,64,43095,1,0
448,64,43482,1,0
256,192,44368,5,0
256,224,44812,1,0
256,256,45144,1,0
256,288,45587,5,0
288,288,45975,1,0
320,288,46418,1,0
352,288,46750,1,0
416,288,47137,5,0
416,256,47525,1,0
416,224,47969,1,0
416,192,48356,1,0
416,128,48689,5,0
384,128,49131,1,0
256,128,49962,5,0
256,192,50848,5,0
256,160,51236,1,0
256,128,51569,1,0
256,64,52066,5,0
224,64,52454,1,0
192,64,52843,1,0
160,64,53230,1,0
96,64,53617,5,0
96,96,54006,1,0
96,128,54449,1,0
96,160,54837,1,0
96,192,55168,5,0
128,192,55611,1,0
256,192,56387,5,0
256,64,57218,5,0
288,64,57606,1,0
320,64,57994,1,0
384,64,58436,5,0
384,96,58824,1,0
384,128,59212,1,0
384,160,59545,1,0
384,192,59987,5,0
384,224,60375,1,0
384,256,60763,1,0
384,288,61151,1,0
320,288,61538,5,0
288,288,61981,1,0
160,288,62812,5,0
256,288,63643,5,0
256,128,64640,5,0
256,64,65083,1,0
256,192,66413,5,0
256,256,66856,1,0
192,224,67853,5,0
320,224,68295,1,0
256,32,69625,5,0
256,96,70068,1,0
64,320,71508,5,0
128,320,71896,1,0
192,320,72283,1,0
256,320,72671,1,0
320,320,73059,1,0
384,320,73447,1,0
448,320,73835,1,0
448,320,74167,1,0
256,128,74665,5,0
256,64,74998,1,0
224,64,75385,1,0
224,64,75939,5,0
256,64,76272,1,0
320,64,76604,1,0
352,64,76936,1,0
352,64,77435,5,0
384,64,77822,1,0
384,96,78155,1,0
384,160,78542,1,0
384,160,78930,5,0
384,192,79262,1,0
384,224,79650,1,0
384,288,80038,1,0
384,288,80481,5,0
352,288,80869,1,0
320,288,81256,1,0
256,288,81644,1,0
256,288,82087,5,0
288,224,82475,1,0
256,160,82863,1,0
224,224,83250,1,0
160,288,83638,5,0
96,256,83970,1,0
160,224,84303,1,0
224,256,84635,1,0
224,192,85078,5,0
224,128,85410,1,0
160,128,85798,1,0
96,128,86186,1,0
128,64,86629,5,0
192,64,87127,5,0
192,64,87294,1,0
192,64,87460,1,0
256,64,87903,5,0
256,64,88070,1,0
256,64,88236,1,0
320,64,88678,5,0
320,64,88845,1,0
320,64,89011,1,0
384,64,89454,5,0
384,64,89621,1,0
384,64,89787,1,0
384,128,90229,5,0
384,128,90396,1,0
384,128,90562,1,0
384,192,91060,5,0
384,192,91227,1,0
384,192,91393,1,0
384,256,91836,5,0
384,256,92003,1,0
384,256,92169,1,0
384,320,92610,5,0
384,320,92777,1,0
384,320,92943,1,0
320,320,93386,5,0
320,320,93553,1,0
320,320,93719,1,0
256,320,94161,5,0
256,320,94328,1,0
256,320,94494,1,0
192,320,94937,5,0
192,320,95104,1,0
192,320,95270,1,0
128,320,95823,5,0
128,320,95990,1,0
128,320,96156,1,0
128,256,96599,5,0
128,256,96766,1,0
128,256,96931,1,0
128,192,97430,5,0
128,192,97597,1,0
128,192,97763,1,0
128,128,98260,5,0
128,128,98427,1,0
128,128,98593,1,0
128,64,99036,5,0
128,64,99203,1,0
128,64,99369,1,0
192,64,99811,5,0
192,64,99978,1,0
192,64,100144,1,0
256,64,100642,5,0
256,64,100809,1,0
256,64,100975,1,0
320,64,101473,5,0
320,64,101640,1,0
320,64,101806,1,0
384,64,102248,5,0
384,64,102415,1,0
384,64,102581,1,0
384,128,103079,5,0
384,128,103246,1,0
384,128,103412,1,0
384,192,103799,5,0
384,192,103966,1,0
384,192,104132,1,0
384,256,104630,5,0
384,256,104797,1,0
384,256,104963,1,0
384,320,105461,5,0
384,320,105628,1,0
384,320,105794,1,0
320,320,106291,5,0
320,320,106458,1,0
320,320,106624,1,0
320,256,107067,5,0
320,256,107234,1,0
320,256,107400,1,0
320,192,107842,5,0
320,192,108009,1,0
320,192,108175,1,0
320,128,108618,5,0
320,128,108785,1,0
320,128,108951,1,0
320,64,109449,5,0
320,64,109616,1,0
320,64,109782,1,0
256,64,110224,5,0
256,64,110391,1,0
256,64,110557,1,0
192,64,110999,5,0
192,64,111166,1,0
192,64,111332,1,0
128,64,111830,5,0
128,64,111997,1,0
128,64,112163,1,0
128,128,112606,5,0
128,128,112773,1,0
128,128,112939,1,0
128,192,113436,5,0
128,192,113603,1,0
128,192,113769,1,0
128,256,114267,5,0
128,256,114434,1,0
128,256,114600,1,0
128,320,115043,5,0
128,320,115210,1,0
128,320,115376,1,0
192,320,115818,5,0
192,320,115985,1,0
192,320,116151,1,0
256,320,116594,5,0
256,320,116761,1,0
256,320,116927,1,0
256,256,117424,5,0
256,256,117591,1,0
256,256,117757,1,0
256,192,118199,5,0
256,192,118366,1,0
256,192,118532,1,0
256,128,118975,5,0
256,128,119142,1,0
256,128,119308,1,0
192,192,138084,6,0,B|192:192|320:192,3,122.5
192,192,139690,6,0,B|192:192|320:192,3,122.5
192,192,141296,6,0,B|192:192|320:192,3,122.5
416,192,142903,1,0
416,288,143789,5,0
192,192,144620,6,0,B|192:192|320:192,3,122.5
192,192,146170,6,0,B|192:192|320:192,3,122.5
192,192,147666,6,0,B|192:192|320:192,3,122.5
320,160,149216,1,0
320,256,150048,5,0
320,192,150823,6,0,B|320:192|192:192,3,122.5
320,192,152374,6,0,B|320:192|192:192,3,122.5
320,192,153925,6,0,B|320:192|192:192,3,122.5
352,192,155531,1,0
352,192,156361,5,0
192,192,157082,6,0,B|192:192|192:128|192:96,1,87.5
256,96,158245,6,0,B|256:96|256:160|256:192,1,87.5
192,96,160017,6,0,B|192:96|256:96|288:96,1,87.5
288,160,161568,6,0,B|288:160|224:160|192:160,1,87.5
32,224,163396,6,0,B|32:224|32:128,1,87.5
128,96,164337,5,0
128,96,164670,1,0
128,96,165057,2,2,B|128:96|352:96,1,210
338,96,165722,2,2,B|338:96|128:288,1,280
131,284,166608,2,2,B|131:284|384:288,1,245
375,287,167771,1,0
375,287,167882,1,0
375,287,167993,1,0
352,224,168436,5,4
320,192,168768,1,4
288,160,169156,1,4
256,192,169544,12,2,171095
