osu file format v4

[General]
AudioFilename: 02-04-wolfmother-woman.mp3
AudioLeadIn: 0
AudioHash: 2a2f8df3b7829191b33869cce5cb7325
PreviewTime: -1
SampleSet: Normal
EditorBookmarks: 116624

[Metadata]
Title:Woman
Artist:Wolfmother
Creator:P-Drogan
Version:Easy

[Difficulty]
HPDrainRate:1
CircleSize:4
OverallDifficulty:1
SliderMultiplier: 1.1
SliderTickRate: 1

[Events]
2,116062,136441
3,100,0,0,128

[TimingPoints]
87530,791.765637371338,4,1,0
88282,791.771364016122,4,1,0
150192,867.52096512,4,1,0

[Colours]
Combo1 : 0,255,0
Combo2 : 255,0,0
Combo3 : 255,255,0
Combo4 : 0,0,255

[HitObjects]
96,64,13938,1,0
384,64,15513,5,0
64,320,17062,5,0
160,192,18766,5,0
352,192,19570,1,0
256,192,20361,5,0
256,32,21945,5,0
256,192,23545,5,0
192,320,25244,5,0
320,320,25904,1,0
256,192,26696,5,0
416,192,28279,5,0
416,32,29845,5,0
256,32,31578,5,0
256,128,32313,1,0
256,192,33030,5,0
64,320,34613,5,0
448,320,36303,5,0
448,64,37878,5,0
192,64,39496,5,0
192,160,41133,6,6,B|192:160|416:160|416:480|-32:480|-32:160|160:159|160:160,1,623.333333333333
416,160,47149,5,0
256,32,48813,5,0
256,96,49218,1,0
256,224,49953,1,0
256,320,52032,5,0
256,192,53630,5,0
320,192,55228,5,0
256,192,55625,1,0
128,192,56387,1,0
128,64,58353,5,0
256,192,59950,5,0
448,320,61533,5,0
448,256,61929,1,0
448,160,62721,1,0
448,64,63498,5,0
256,192,65073,5,0
64,64,66698,5,0
64,320,68263,5,0
352,320,69935,5,0
256,160,71562,6,6,B|256:160|64:160|64:64|319:62|320:64|416:128,1,421.666666666667
416,320,75785,5,0
128,320,77369,5,0
128,64,78902,5,0
384,64,80453,5,0
384,320,81978,5,0
128,320,83448,5,0
384,192,85128,5,0
160,96,86606,5,0
288,64,87398,6,0,B|288:64|416:64,6,110
224,160,92900,6,2,B|224:160|96:160,9,110
288,160,100950,6,0,B|288:160|416:160,8,110
320,256,108076,6,4,B|320:256|192:256,8,110
320,128,115202,5,0
224,128,115730,1,6
256,192,138121,5,0
96,64,139747,5,0
416,64,141330,5,0
256,64,142914,5,0
256,192,143704,1,0
128,128,144497,5,0
384,128,146087,5,0
416,320,147664,5,0
160,320,149248,5,0
160,192,150040,1,0
256,64,151927,5,0
256,320,153517,5,0
64,192,155107,5,0
128,192,155541,1,0
256,192,156264,1,0
352,256,156987,5,0
128,256,158577,5,0
384,256,160313,5,0
128,256,161758,5,0
256,64,163493,5,0
256,192,165093,12,4,171012
