osu file format v13

[General]
AudioFilename: Wolfgun - Number Three With a Bullet - 11 Big Bonus Land.mp3
AudioLeadIn: 2500
PreviewTime: 42905
Countdown: 0
SampleSet: Normal
StackLeniency: 0.7
Mode: 0
LetterboxInBreaks: 0
WidescreenStoryboard: 0

[Editor]
DistanceSpacing: 1
BeatDivisor: 4
GridSize: 4
TimelineZoom: 1

[Metadata]
Title:Big Bonus Land
TitleUnicode:Big Bonus Land
Artist:Wolfgun
ArtistUnicode:Wolfgun
Creator:MoodyRPG
Version:Hard
Source:Bullet Bill 3
Tags:Newgrounds Number Three With a Bullet dnb drum and bass smb3 Koji Kondo Nintendo Super Mario Bros
BeatmapID:367860
BeatmapSetID:148814

[Difficulty]
HPDrainRate:7
CircleSize:4
OverallDifficulty:7
ApproachRate:7
SliderMultiplier:1.5
SliderTickRate:1

[Events]
//Background and Video events
0,0,"BG.png",0,0
//Break Periods
//Storyboard Layer 0 (Background)
//Storyboard Layer 1 (Fail)
//Storyboard Layer 2 (Pass)
//Storyboard Layer 3 (Foreground)
//Storyboard Sound Samples
//Background Colour Transformations
3,100,163,162,255

[TimingPoints]
0,335.195530726257,4,1,0,50,1,0
91173,-100,4,1,0,50,0,0
92513,-100,4,1,0,40,0,0
93854,-100,4,1,0,30,0,0
95195,-100,4,1,0,20,0,0
96536,-100,4,1,0,10,0,0

[Colours]
Combo1 : 255,255,128
Combo2 : 0,255,128
Combo3 : 255,128,64
Combo4 : 17,177,255

[HitObjects]
256,25,0,5,0,0:0:0:0:
397,74,335,1,8,0:0:0:0:
397,74,502,1,0,0:0:0:0:
397,73,670,2,0,P|350:119|264:109,1,150,0|8,0:0|0:0,0:0:0:0:
231,177,1173,1,0,0:0:0:0:
168,135,1340,2,0,L|86:131,1,75
47,71,1675,2,0,P|91:139|76:211,1,150,8|0,0:0|0:0,0:0:0:0:
36,347,2346,2,0,P|72:350|109:332,1,75,8|0,0:0|0:0,0:0:0:0:
177,310,2681,6,0,L|332:310,1,150,0|8,0:0|0:0,0:0:0:0:
379,255,3184,1,0,0:0:0:0:
322,205,3351,2,0,P|256:173|191:205,1,150,0|8,0:0|0:0,0:0:0:0:
66,120,4022,2,0,B|98:74|98:74|152:87|190:38,1,150,0|8,0:0|0:0,0:0:0:0:
332,47,4692,2,0,B|362:87|416:74|416:74|448:120,1,150,0|8,0:0|0:0,0:0:0:0:
333,216,5363,6,0,P|404:216|470:277,1,150,0|8,0:0|0:0,0:0:0:0:
408,315,5865,1,0,0:0:0:0:
333,324,6033,2,0,B|257:340|257:340|184:322,1,150,0|8,0:0|0:0,0:0:0:0:
45,287,6703,2,0,P|60:250|60:211,1,75
25,148,7039,2,0,P|46:85|130:51,1,150,8|0,0:0|0:0,0:0:0:0:
256,130,7709,1,8,0:0:0:0:
391,194,8044,6,0,P|256:250|119:189,1,300,2|0,0:0|0:0,0:0:0:0:
256,130,9050,1,8,0:0:0:0:
149,24,9385,2,0,P|149:67|130:101,1,75,2|0,0:0|0:0,0:0:0:0:
65,122,9720,2,0,P|19:177|26:259,1,150,8|0,0:0|0:0,0:0:0:0:
171,269,10391,1,8,0:0:0:0:
192,341,10558,1,0,0:0:0:0:
243,286,10726,6,0,P|310:264|376:306,1,150,0|8,0:0|0:0,0:0:0:0:
446,282,11229,2,0,L|453:120,1,150,0|0,0:0|0:0,0:0:0:0:
421,63,11731,2,0,P|348:41|298:170,1,225,8|0,0:0|0:0,0:0:0:0:
235,206,12402,1,8,0:0:0:0:
114,111,12737,2,0,P|121:74|116:37,1,75
51,151,13072,2,0,P|44:187|52:224,1,75,8|0,0:0|0:0,0:0:0:0:
119,189,13407,6,0,P|181:223|181:305,1,150,0|8,0:0|0:0,0:0:0:0:
234,353,13910,1,0,0:0:0:0:
293,308,14078,2,0,L|458:303,1,150,0|8,0:0|0:0,0:0:0:0:
491,244,14581,1,0,0:0:0:0:
491,244,14748,2,0,P|495:195|492:166,1,75
429,128,15083,2,0,P|434:57|498:9,2,150,8|0|8,0:0|0:0|0:0,0:0:0:0:
377,182,15921,1,0,0:0:0:0:
325,127,16089,6,0,P|259:98|191:130,1,150,0|8,0:0|0:0,0:0:0:0:
147,188,16592,1,0,0:0:0:0:
83,148,16759,2,0,P|58:117|52:77,1,75
147,188,17094,2,0,P|149:265|189:331,1,150,8|0,0:0|0:0,0:0:0:0:
333,342,17765,1,8,0:0:0:0:
480,317,18100,1,0,0:0:0:0:
456,168,18435,1,8,0:0:0:0:
344,68,18770,6,2,B|188:32|152:219|256:215|360:219|324:32|168:68,1,450,2|8,0:0|0:0,0:0:0:0:
143,210,20111,2,0,B|174:347|174:347|255:306|336:347|336:347|367:210,1,450,0|8,0:0|0:0,0:0:0:0:
443,72,21452,6,0,P|480:131|476:213,2,150,0|8|0,0:0|0:0|0:0,0:0:0:0:
380,30,22290,1,0,0:0:0:0:
321,76,22458,1,8,0:0:0:0:
321,76,22625,2,0,L|161:88,1,150,0|8,0:0|0:0,0:0:0:0:
34,148,23296,2,0,P|22:183|31:227,1,75,0|8,0:0|0:0,0:0:0:0:
88,335,23631,2,0,P|100:300|95:264,1,75,0|8,0:0|0:0,0:0:0:0:
237,311,24134,6,0,P|318:323|390:285,1,150,0|8,0:0|0:0,0:0:0:0:
411,149,24804,2,0,L|501:139,2,75,0|0|8,0:0|0:0|0:0,0:0:0:0:
341,120,25307,2,0,P|285:81|204:96,1,150,0|8,0:0|0:0,0:0:0:0:
88,194,25977,2,0,P|50:184|10:184,1,75,0|8,0:0|0:0,0:0:0:0:
147,245,26312,2,0,P|185:255|225:255,1,75,0|8,0:0|0:0,0:0:0:0:
320,339,26815,6,0,P|399:336|447:266,1,150,0|8,0:0|0:0,0:0:0:0:
193,340,27486,2,0,P|114:337|66:267,1,150,0|8,0:0|0:0,0:0:0:0:
25,226,27988,1,0,0:0:0:0:
58,158,28156,2,0,L|35:79,2,75,0|0|8,0:0|0:0|0:0,0:0:0:0:
128,182,28659,1,0,0:0:0:0:
169,119,28826,2,0,P|232:83|314:102,1,150,0|8,0:0|0:0,0:0:0:0:
425,186,29497,6,0,B|448:258|448:258|444:337,2,150,0|8|0,0:0|0:0|0:0,0:0:0:0:
350,178,30335,2,0,P|311:176|261:190,1,75,0|8,0:0|0:0,0:0:0:0:
253,255,30670,2,0,P|206:269|104:210,1,150,0|8,0:0|0:0,0:0:0:0:
61,91,31340,2,0,P|25:107|1:137,1,75,0|8,0:0|0:0,0:0:0:0:
136,82,31675,2,0,P|172:66|196:36,1,75,0|8,0:0|0:0,0:0:0:0:
344,34,32178,6,0,P|418:27|490:87,2,150,0|8|0,0:0|0:0|0:0,0:0:0:0:
360,107,33016,2,0,P|397:104|432:126,1,75,0|8,0:0|0:0,0:0:0:0:
379,179,33351,2,0,L|328:329,1,150,0|8,0:0|0:0,0:0:0:0:
182,338,34022,2,0,L|96:328,1,75,0|8,0:0|0:0,0:0:0:0:
8,249,34357,2,0,L|83:258,1,75,0|8,0:0|0:0,0:0:0:0:
127,114,34860,6,0,P|165:180|160:268,2,150,0|8|0,0:0|0:0|0:0,0:0:0:0:
166,50,35698,1,0,0:0:0:0:
232,84,35865,1,8,0:0:0:0:
232,84,36033,2,0,P|310:94|382:93,1,150,0|8,0:0|0:0,0:0:0:0:
456,223,36703,2,0,P|467:182|456:142,2,75,0|8|0,0:0|0:0|0:0,0:0:0:0:
417,287,37206,1,8,0:0:0:0:
417,287,37541,6,0,P|342:292|253:285,1,150,0|8,0:0|0:0,0:0:0:0:
149,194,38212,2,0,L|138:272,1,75
73,306,38547,1,8,0:0:0:0:
9,262,38715,2,0,P|2:185|12:104,1,150,0|8,0:0|0:0,0:0:0:0:
154,71,39385,2,0,P|116:73|80:63,2,75,0|8|0,0:0|0:0|0:0,0:0:0:0:
227,47,39888,1,8,0:0:0:0:
357,120,40223,6,0,P|399:129|435:128,1,75
447,55,40558,2,0,L|425:220,1,150,8|0,0:0|0:0,0:0:0:0:
377,259,41061,1,0,0:0:0:0:
316,311,41229,2,0,P|256:275|191:314,1,150,8|0,0:0|0:0,0:0:0:0:
121,285,41731,5,0,0:0:0:0:
57,246,41899,2,0,P|65:210|56:167,1,75,8|0,0:0|0:0,0:0:0:0:
122,61,42234,2,0,P|115:97|123:136,1,75,0|0,0:0|0:0,0:0:0:0:
182,179,42569,2,0,P|260:180|326:128,1,150,8|4,0:0|0:0,0:0:0:0:
429,40,43240,5,8,0:0:0:0:
465,182,43575,2,0,L|450:266,1,75
505,308,43910,2,0,P|445:257|367:272,1,150,8|0,0:0|0:0,0:0:0:0:
334,325,44413,2,0,L|243:336,2,75,0|8|0,0:0|0:0|0:0,0:0:0:0:
378,264,44916,1,0,0:0:0:0:
309,236,45083,1,0,0:0:0:0:
303,162,45251,2,0,P|257:114|207:162,1,150,8|0,0:0|0:0,0:0:0:0:
91,257,45921,5,8,0:0:0:0:
23,122,46256,2,0,P|56:104|101:109,1,75
150,58,46592,2,0,P|205:87|306:85,1,150,8|0,0:0|0:0,0:0:0:0:
351,133,47094,2,0,L|425:139,2,75,0|8|0,0:0|0:0|0:0,0:0:0:0:
215,197,47765,1,0,0:0:0:0:
215,197,47932,2,0,P|259:249|260:332,1,150,8|0,0:0|0:0,0:0:0:0:
410,339,48603,6,0,L|327:351,1,75,8|0,0:0|0:0,0:0:0:0:
263,326,48938,2,0,P|184:316|112:344,1,150,0|8,0:0|0:0,0:0:0:0:
54,301,49441,1,0,0:0:0:0:
54,301,49608,2,0,L|47:139,1,150,0|8,0:0|0:0,0:0:0:0:
148,57,50279,2,0,L|156:212,1,150,0|8,0:0|0:0,0:0:0:0:
151,356,50949,6,0,P|258:268|365:357,1,300,2|0,0:0|0:0,0:0:0:0:
455,236,51955,1,8,0:0:0:0:
424,89,52290,2,0,P|390:106|349:102,1,75,2|0,0:0|0:0,0:0:0:0:
298,155,52625,1,8,0:0:0:0:
298,155,52793,2,0,P|261:153|229:170,1,75,0|0,0:0|0:0,0:0:0:0:
136,52,53296,2,0,P|99:71|60:71,1,75,8|0,0:0|0:0,0:0:0:0:
4,30,53631,6,0,P|60:79|56:161,1,150,0|8,0:0|0:0,0:0:0:0:
59,225,54134,2,0,L|112:377,1,150
178,339,54636,2,0,L|124:187,1,150,8|0,0:0|0:0,0:0:0:0:
259,114,55307,1,8,0:0:0:0:
309,169,55474,1,0,0:0:0:0:
335,99,55642,2,0,P|388:87|474:168,1,150,0|8,0:0|0:0,0:0:0:0:
476,211,56145,1,0,0:0:0:0:
414,255,56312,6,0,B|364:267|364:267|345:325|294:325,1,150,0|8,0:0|0:0,0:0:0:0:
218,325,56815,2,0,B|167:324|148:266|148:266|96:254,1,150,0|0,0:0|0:0,0:0:0:0:
46,200,57318,2,0,P|73:105|191:86,1,225,8|0,0:0|0:0,0:0:0:0:
222,149,57988,1,8,0:0:0:0:
327,42,58324,2,0,L|313:135,1,75
393,159,58659,2,0,L|405:74,2,75,8|0|0,0:0|0:0|0:0,0:0:0:0:
349,302,59329,5,8,0:0:0:0:
203,321,59664,2,0,L|126:298,1,75
62,330,60000,2,0,P|133:296|133:205,1,150,8|0,0:0|0:0,0:0:0:0:
125,158,60502,1,0,0:0:0:0:
139,83,60670,2,0,P|179:65|216:65,1,75,8|0,0:0|0:0,0:0:0:0:
302,63,61005,2,0,P|339:66|373:83,1,75
256,123,61340,1,8,0:0:0:0:
376,208,61675,6,2,B|375:309|306:349|306:349|256:291|206:349|206:349|137:309|136:208,1,450,2|8,0:0|0:0,0:0:0:0:
108,56,63016,2,0,B|184:38|215:95|215:95|195:169|256:199|317:169|297:95|297:95|328:38|404:56,1,450,0|8,0:0|0:0,0:0:0:0:
485,190,64357,6,0,P|500:264|477:345,2,150,0|8|0,0:0|0:0|0:0,0:0:0:0:
434,133,65195,1,0,0:0:0:0:
405,201,65363,1,8,0:0:0:0:
405,201,65530,2,0,L|240:191,1,150,0|8,0:0|0:0,0:0:0:0:
125,267,66201,2,0,P|92:282|44:274,2,75,0|8|0,0:0|0:0|0:0,0:0:0:0:
80,206,66703,1,8,0:0:0:0:
86,56,67039,6,0,P|18:89|1:167,2,150,0|8|0,0:0|0:0|0:0,0:0:0:0:
158,76,67877,2,0,L|240:93,1,75,0|8,0:0|0:0,0:0:0:0:
280,36,68212,2,0,P|356:35|427:71,1,150,0|8,0:0|0:0,0:0:0:0:
465,202,68882,2,0,P|468:162|463:123,1,75,0|8,0:0|0:0,0:0:0:0:
410,258,69217,2,0,P|407:298|412:337,1,75,0|8,0:0|0:0,0:0:0:0:
482,356,69553,1,0,0:0:0:0:
412,332,69720,6,0,P|325:327|253:339,1,150,0|8,0:0|0:0,0:0:0:0:
124,268,70391,2,0,P|85:269|49:253,2,75,0|0|8,0:0|0:0|0:0,0:0:0:0:
101,196,70893,2,0,L|150:42,1,150,0|8,0:0|0:0,0:0:0:0:
296,44,71564,2,0,P|331:34|383:37,1,75,0|8,0:0|0:0,0:0:0:0:
489,82,71899,2,0,P|453:92|416:92,1,75,0|8,0:0|0:0,0:0:0:0:
347,222,72402,6,0,B|386:272|386:272|437:272|460:312,2,150,0|8|0,0:0|0:0|0:0,0:0:0:0:
295,168,73240,2,0,B|257:162|257:162|216:169,1,75,0|8,0:0|0:0,0:0:0:0:
165,218,73575,2,0,B|126:268|126:268|75:268|52:308,1,150,0|8,0:0|0:0,0:0:0:0:
117,347,74078,1,0,0:0:0:0:
10,240,74245,2,0,P|0:202|6:162,1,75,0|8,0:0|0:0,0:0:0:0:
53,42,74581,2,0,P|63:78|59:116,1,75,0|8,0:0|0:0,0:0:0:0:
166,11,75083,6,0,B|213:37|213:86|213:86|213:155,1,150,0|8,0:0|0:0,0:0:0:0:
255,204,75586,1,0,0:0:0:0:
300,143,75754,2,0,B|300:86|300:86|300:37|347:11,1,150,0|8,0:0|0:0,0:0:0:0:
379,79,76256,1,0,0:0:0:0:
440,122,76424,2,0,L|434:207,1,75
364,231,76759,2,0,L|359:306,1,75,8|0,0:0|0:0,0:0:0:0:
359,306,77094,1,0,0:0:0:0:
424,344,77262,1,0,0:0:0:0:
358,307,77430,2,0,P|277:302|216:347,1,150,8|0,0:0|0:0,0:0:0:0:
96,257,78100,6,0,P|85:220|97:177,1,75,8|0,0:0|0:0,0:0:0:0:
167,183,78435,2,0,P|85:181|26:115,1,150,0|8,0:0|0:0,0:0:0:0:
9,68,78938,1,0,0:0:0:0:
73,32,79106,2,0,L|226:48,2,150,0|8|0,0:0|0:0|0:0,0:0:0:0:
164,150,80111,1,8,0:0:0:0:
164,150,80279,1,0,0:0:0:0:
163,151,80446,6,0,B|173:237|173:237|223:301,1,150,0|8,0:0|0:0,0:0:0:0:
258,346,80949,1,0,0:0:0:0:
316,299,81117,2,0,P|391:280|453:321,1,150,0|8,0:0|0:0,0:0:0:0:
495,250,81620,2,0,L|500:93,1,150,0|8,0:0|0:0,0:0:0:0:
355,60,82290,2,0,P|390:44|428:47,2,75,0|8|0,0:0|0:0|0:0,0:0:0:0:
306,117,82793,1,8,0:0:0:0:
168,58,83128,6,0,L|152:137,1,75
210,180,83463,2,0,P|146:129|74:145,1,150,8|0,0:0|0:0,0:0:0:0:
34,196,83966,1,0,0:0:0:0:
55,267,84134,2,0,L|212:285,1,150,8|0,0:0|0:0,0:0:0:0:
265,327,84636,1,0,0:0:0:0:
334,299,84804,2,0,P|366:278|415:278,1,75,8|0,0:0|0:0,0:0:0:0:
421,203,85139,2,0,P|339:206|271:257,1,150,0|8,0:0|0:0,0:0:0:0:
257,94,85810,5,4,0:0:0:0:
257,94,86145,1,8,0:0:0:0:
257,94,86480,2,0,L|169:89,1,75
140,26,86815,2,0,P|79:55|61:132,1,150,8|0,0:0|0:0,0:0:0:0:
15,273,87486,1,8,0:0:0:0:
138,358,87821,1,0,0:0:0:0:
212,351,87988,1,0,0:0:0:0:
286,343,88156,2,0,P|369:337|434:297,1,150,8|0,0:0|0:0,0:0:0:0:
431,154,88826,6,0,P|391:155|357:169,1,75,8|0,0:0|0:0,0:0:0:0:
386,237,89162,2,0,L|327:98,1,150,0|8,0:0|0:0,0:0:0:0:
193,38,89832,2,0,P|178:73|179:110,1,75
151,179,90167,2,0,P|79:200|11:173,2,150,8|0|8,0:0|0:0|0:0,0:0:0:0:
256,192,91173,12,4,96536,0:0:0:0:
