osu file format v13

[General]
AudioFilename: Wolfgun - Number Three With a Bullet - 11 Big Bonus Land.mp3
AudioLeadIn: 2500
PreviewTime: 42905
Countdown: 0
SampleSet: Normal
StackLeniency: 0.7
Mode: 0
LetterboxInBreaks: 0
WidescreenStoryboard: 0

[Editor]
DistanceSpacing: 1
BeatDivisor: 4
GridSize: 4
TimelineZoom: 1

[Metadata]
Title:Big Bonus Land
TitleUnicode:Big Bonus Land
Artist:Wolfgun
ArtistUnicode:Wolfgun
Creator:MoodyRPG
Version:Easy
Source:Bullet Bill 3
Tags:Newgrounds Number Three With a Bullet dnb drum and bass smb3 Koji Kondo Nintendo Super Mario Bros
BeatmapID:367834
BeatmapSetID:148814

[Difficulty]
HPDrainRate:3
CircleSize:2
OverallDifficulty:3
ApproachRate:3
SliderMultiplier:0.7
SliderTickRate:1

[Events]
//Background and Video events
0,0,"BG.png",0,0
//Break Periods
//Storyboard Layer 0 (Background)
//Storyboard Layer 1 (Fail)
//Storyboard Layer 2 (Pass)
//Storyboard Layer 3 (Foreground)
//Storyboard Sound Samples
//Background Colour Transformations
3,100,163,162,255

[TimingPoints]
0,335.195530726257,4,1,0,50,1,0
91173,-100,4,1,0,50,0,0
92513,-100,4,1,0,40,0,0
93854,-100,4,1,0,30,0,0
95195,-100,4,1,0,20,0,0
96536,-100,4,1,0,10,0,0

[Colours]
Combo1 : 255,255,128
Combo2 : 0,255,128
Combo3 : 255,128,64
Combo4 : 17,177,255

[HitObjects]
260,292,0,6,0,P|314:329|395:311,1,140,0|8,0:0|0:0,0:0:0:0:
449,194,1340,2,0,L|426:53,1,140,0|8,0:0|0:0,0:0:0:0:
311,136,2681,6,0,P|245:157|171:142,1,140,0|8,0:0|0:0,0:0:0:0:
51,83,4022,2,0,P|12:141|23:216,2,140,0|8|0,0:0|0:0|0:0,0:0:0:0:
142,192,6033,5,8,0:0:0:0:
202,318,6703,2,0,P|263:284|336:294,1,140,0|8,0:0|0:0,0:0:0:0:
455,355,8044,2,0,L|465:141,1,210,2|8,0:0|0:0,0:0:0:0:
454,76,9385,1,2,0:0:0:0:
320,33,10055,1,8,0:0:0:0:
186,80,10726,6,0,L|76:69,2,105,0|8|0,0:0|0:0|0:0,0:0:0:0:
241,122,12067,2,0,P|243:193|209:264,1,140,0|8,0:0|0:0,0:0:0:0:
81,294,13407,5,0,0:0:0:0:
205,357,14078,2,0,L|282:353,1,70,8|0,0:0|0:0,0:0:0:0:
344,345,14748,2,0,P|394:316|477:325,1,140,0|8,0:0|0:0,0:0:0:0:
500,187,16089,6,0,L|485:42,1,140,0|8,0:0|0:0,0:0:0:0:
348,20,17430,1,0,0:0:0:0:
226,88,18100,2,0,L|152:84,2,70,8|0|2,0:0|0:0|0:0,0:0:0:0:
320,191,19441,2,0,P|256:216|187:182,2,140,8|0|8,0:0|0:0|0:0,0:0:0:0:
438,116,21452,6,0,L|455:39,2,70,0|0|8,0:0|0:0|0:0,0:0:0:0:
469,216,22625,2,0,P|457:331|341:346,1,245,8|8,0:0|0:0,0:0:0:0:
282,319,24134,2,0,L|212:323,2,70,0|0|8,0:0|0:0|0:0,0:0:0:0:
341,232,25307,2,0,P|256:158|170:237,1,245,8|8,0:0|0:0,0:0:0:0:
114,272,26815,5,0,0:0:0:0:
68,139,27486,2,0,P|22:169|10:260,2,140,8|0|8,0:0|0:0|0:0,0:0:0:0:
199,90,29497,2,0,L|189:11,2,70,0|0|8,0:0|0:0|0:0,0:0:0:0:
141,178,30670,2,0,B|193:220|256:187|322:154|383:207,1,245,8|8,0:0|0:0,0:0:0:0:
425,250,32178,6,0,L|504:264,2,70,0|0|8,0:0|0:0|0:0,0:0:0:0:
357,330,33351,2,0,P|288:353|217:333,1,140,8|0,0:0|0:0,0:0:0:0:
131,290,34525,1,8,0:0:0:0:
79,242,34860,6,0,P|59:176|97:111,1,140,0|8,0:0|0:0,0:0:0:0:
166,44,36033,2,0,L|242:52,1,70,8|0,0:0|0:0,0:0:0:0:
278,147,36871,2,0,L|354:154,1,70,0|8,0:0|0:0,0:0:0:0:
393,100,37541,6,0,P|443:147|443:224,1,140,0|8,0:0|0:0,0:0:0:0:
376,340,38882,1,0,0:0:0:0:
274,243,39553,2,0,P|261:269|254:315,1,70,0|8,0:0|0:0,0:0:0:0:
256,192,40223,12,4,42905,0:0:0:0:
86,71,43575,5,8,0:0:0:0:
27,197,44245,2,0,P|6:266|51:326,1,140,0|8,0:0|0:0,0:0:0:0:
175,353,45586,6,0,P|232:314|312:322,1,140,0|8,0:0|0:0,0:0:0:0:
437,347,46927,2,8,L|449:204,1,140,0|8,0:0|0:0,0:0:0:0:
324,142,48268,6,0,B|256:123|256:123|185:142,2,140,0|8|0,0:0|0:0|0:0,0:0:0:0:
423,240,50279,1,8,0:0:0:0:
312,325,50949,6,0,P|257:253|201:327,1,210,2|8,0:0|0:0,0:0:0:0:
138,357,52290,2,0,L|-9:337,1,140,2|8,0:0|0:0,0:0:0:0:
54,209,53631,6,0,P|30:168|46:103,2,105,0|8|0,0:0|0:0|0:0,0:0:0:0:
123,202,54972,2,0,L|272:190,1,140,0|8,0:0|0:0,0:0:0:0:
390,251,56312,6,0,P|443:249|490:270,2,105,0|8|0,0:0|0:0|0:0,0:0:0:0:
382,320,57653,2,0,L|240:353,1,140,0|8,0:0|0:0,0:0:0:0:
139,259,58994,6,0,P|76:287|0:268,2,140,0|8|0,0:0|0:0|0:0,0:0:0:0:
53,148,61005,1,8,0:0:0:0:
161,60,61675,6,2,B|225:60|255:89|255:89|286:61|358:61,1,210,2|8,0:0|0:0,0:0:0:0:
416,100,63016,2,0,L|430:247,1,140,0|8,0:0|0:0,0:0:0:0:
320,327,64357,6,0,L|396:340,2,70,0|0|8,0:0|0:0|0:0,0:0:0:0:
216,343,65530,2,0,P|106:339|57:224,1,245,8|8,0:0|0:0,0:0:0:0:
38,159,67039,2,0,L|23:80,2,70,0|0|8,0:0|0:0|0:0,0:0:0:0:
139,133,68212,2,0,B|206:133|256:99|256:99|304:132|381:132,1,245,8|8,0:0|0:0,0:0:0:0:
433,100,69720,5,0,0:0:0:0:
486,229,70391,2,0,P|490:306|451:365,1,140,8|0,0:0|0:0,0:0:0:0:
329,304,71731,2,0,L|258:312,1,70,8|0,0:0|0:0,0:0:0:0:
195,282,72402,2,0,P|106:251|63:347,2,210,0|8|8,0:0|0:0|0:0,0:0:0:0:
257,156,75083,5,0,0:0:0:0:
189,33,75754,2,0,P|257:18|330:35,2,140,8|0|8,0:0|0:0|0:0,0:0:0:0:
100,141,77765,2,0,L|21:128,2,70,0|0|8,0:0|0:0|0:0,0:0:0:0:
162,225,78938,2,0,B|183:268|183:268|258:248|331:267|331:267|357:221,1,245,8|8,0:0|0:0,0:0:0:0:
388,164,80446,6,0,P|452:144|481:80,1,140,0|8,0:0|0:0,0:0:0:0:
384,39,81620,2,0,L|313:50,1,70,8|0,0:0|0:0,0:0:0:0:
262,141,82458,2,0,L|183:153,1,70,0|8,0:0|0:0,0:0:0:0:
256,192,83128,12,4,85810,0:0:0:0:
397,328,86480,5,8,0:0:0:0:
274,260,87150,2,0,L|129:289,1,140,0|8,0:0|0:0,0:0:0:0:
46,180,88491,6,0,P|23:116|46:48,2,140,0|8|0,0:0|0:0|0:0,0:0:0:0:
171,117,90502,1,8,0:0:0:0:
256,192,91173,12,4,96536,0:0:0:0:
