osu file format v5

[General]
AudioFilename: OmegaSector.mp3
AudioLeadIn: 0
PreviewTime: -1
Countdown: 0
SampleSet: Normal
StackLeniency: 0.7
Mode: 0
LetterboxInBreaks: 1

[Metadata]
Title:Omega Sector
Artist:Wizet, Nexon
Creator:Metroid
Version:Normal
Source:Maplestory Mapledump
Tags:Maplestory HQ Headquarters Ossyria Ludi Ludibrium

[Difficulty]
HPDrainRate:4
CircleSize:4
OverallDifficulty:4
SliderMultiplier:1.3
SliderTickRate:1

[Events]
//Background and Video events
0,0,"maple0494nt8.jpg"
//Break Periods
2,56745,69699
//Storyboard Layer 0 (Background)
//Storyboard Layer 1 (Failing)
//Storyboard Layer 2 (Passing)
//Storyboard Layer 3 (Foreground)
//Storyboard Sound Samples
//Background Colour Transformations
3,100,163,162,255

[TimingPoints]
3863,428.571428571429,4,1,0,71,1,0
19053,-100,4,1,0,32,0,0
19910,-100,4,1,0,46,0,0
20767,-100,4,1,0,57,0,0
21838,-100,4,1,0,71,0,0
22522,-100,4,1,0,71,0,0
43048,-100,4,1,0,40,0,0
43905,-100,4,1,0,51,0,0
44762,-100,4,1,0,61,0,0
45619,-100,4,1,0,69,0,0
49951,-100,4,1,0,69,0,0
50760,-100,4,1,0,39,0,0
51617,-100,4,1,0,70,0,0
52474,-100,4,1,0,38,0,0
52474,-100,4,1,0,70,0,0
53330,-100,4,1,0,70,0,0
56758,-100,4,2,0,80,0,0
70685,-100,4,1,0,61,0,0
97893,-100,4,1,0,33,0,0
98750,-100,4,1,0,43,0,0
99607,-100,4,1,0,56,0,0
100464,-100,4,1,0,70,0,0
104808,-100,4,1,0,69,0,0
105606,-100,4,1,0,36,0,0
106463,-100,4,1,0,70,0,0
107320,-100,4,1,0,34,0,0
108177,-100,4,1,0,69,0,0

[Colours]
Combo1 : 0,213,0
Combo2 : 202,0,0
Combo3 : 4,4,187
Combo4 : 192,192,192

[HitObjects]
288,32,2148,1,0
400,32,2577,1,0
336,128,3005,1,0
416,208,3434,1,0
336,288,3863,1,8
224,288,4291,1,8
112,288,4720,1,8
112,176,5148,1,8
224,176,5577,6,0,B|368:176,1,130
416,80,6434,1,0
480,176,6862,1,0
416,272,7291,1,8
304,272,7720,1,8
192,272,8148,1,8
80,272,8577,1,8
80,160,9005,5,0
80,48,9434,1,0
192,48,9862,1,0
192,160,10291,1,0
304,160,10720,1,8
304,48,11148,1,8
304,160,11577,1,8
304,48,12005,1,8
416,48,12434,6,0,B|416:208,1,130
416,288,13291,1,0
304,288,13720,1,0
304,176,14148,1,8
416,176,14577,1,8
304,176,15005,1,8
192,176,15434,1,8
192,64,15862,6,0,B|96:64,2,65
304,64,16720,2,0,B|400:64,2,65
304,176,17577,2,0,B|304:256,3,65
304,352,18648,1,4
304,352,18863,1,4
416,352,19291,6,0,B|496:352,2,65
400,240,20148,2,0,B|304:240,2,65
416,128,21005,2,0,B|512:128,3,65
416,32,22077,1,4
416,32,22291,1,4
304,32,22720,5,0
192,32,23148,1,0
192,144,23577,1,0
256,144,23791,1,0
320,144,24005,1,0
320,256,24434,1,0
256,256,24648,1,0
192,256,24863,1,0
80,256,25291,1,0
80,144,25720,1,0
192,144,26148,5,0
304,144,26577,1,0
416,144,27005,1,0
416,208,27220,1,0
416,272,27434,1,0
304,272,27863,1,0
304,208,28077,1,0
304,144,28291,1,0
192,144,28720,1,0
80,144,29148,1,0
80,32,29577,5,0
192,32,30005,1,0
304,32,30434,2,0,B|384:32,1,65
480,32,31077,2,0,B|480:192,3,130
480,224,32577,6,0,B|384:224,1,65
352,224,33005,1,0
240,224,33434,1,0
240,112,33863,1,0
240,112,34077,1,0
352,112,34505,1,0
256,192,34934,12,0,36005
400,288,36434,5,0
400,176,36863,1,0
288,176,37291,2,0,B|192:176,1,65
112,176,37934,2,0,B|112:336,3,130
176,304,39434,6,0,B|256:304,1,65
304,304,39863,1,0
304,192,40291,1,0
304,80,40720,1,0
368,80,40934,1,0
480,80,41363,1,0
256,192,41577,12,0,42863
96,64,43291,5,0
160,64,43505,1,0
224,64,43720,1,0
336,64,44148,1,0
400,64,44362,1,0
464,64,44577,1,0
464,176,45005,1,0
400,176,45220,1,0
336,176,45434,1,0
224,176,45862,1,0
160,176,46077,1,0
96,176,46291,1,0
96,288,46720,5,0
208,288,47148,1,0
272,288,47362,1,0
336,288,47577,1,0
400,288,47791,1,0
464,288,48005,1,0
256,192,48220,12,0,49720
256,96,50148,6,0,B|256:0,2,65
368,96,51005,2,0,B|448:96,2,65
368,208,51862,2,0,B|368:288,2,65
256,208,52720,2,0,B|160:208,2,65
256,96,53577,5,0
256,96,53791,1,0
368,96,54220,2,0,B|416:96|464:128|464:192,1,130
464,224,54862,1,0
352,224,55291,1,4
240,224,55720,1,4
128,224,56148,1,4
16,224,56577,1,4
48,304,70934,5,0
112,304,71148,1,0
176,304,71362,1,0
288,304,71791,2,0,B|288:256,2,32.5
400,304,72434,1,0
400,240,72648,1,0
400,176,72862,2,0,B|400:80,1,65
288,112,73505,1,8
112,112,74148,5,0
112,176,74362,1,0
176,176,74577,1,0
176,240,74791,1,0
288,240,75220,1,8
400,240,75648,1,0
400,176,75862,2,0,B|400:96,1,65
400,48,76291,1,8
288,48,76720,1,8
176,48,77148,1,8
112,48,77362,1,8
48,48,77577,6,0,B|48:192,3,130
48,352,79505,1,0
112,352,79720,1,0
176,352,79934,1,0
240,352,80148,1,0
352,352,80577,1,0
464,352,81005,2,0,B|464:208,3,130
464,160,82505,1,0
464,48,82934,5,0
400,48,83148,1,0
336,48,83362,1,0
272,48,83577,1,0
208,48,83791,1,0
144,48,84005,1,0
80,48,84220,1,2
80,112,84434,5,0
192,112,84862,1,0
304,112,85291,1,0
368,112,85505,1,0
480,112,85934,2,0,B|480:272,3,130
416,240,87434,5,0
352,240,87648,1,0
288,240,87862,1,0
176,240,88291,1,0
64,240,88720,2,0,B|64:160,2,65
256,192,89362,12,0,90862
368,80,91291,5,0
480,80,91720,1,0
480,192,92148,1,0
480,192,92362,1,0
368,192,92791,2,0,B|208:192,3,130
176,192,94291,5,0
112,192,94505,1,0
48,192,94720,1,0
48,80,95148,1,0
160,80,95577,2,0,B|160:16,2,32.5
256,192,96220,12,0,97720
192,352,98148,5,0
256,352,98362,1,0
320,352,98577,1,0
320,240,99005,1,0
256,240,99220,1,0
192,240,99434,1,0
192,128,99862,1,0
256,128,100077,1,0
320,128,100291,1,0
320,16,100720,1,0
256,16,100934,1,0
192,16,101148,1,0
256,192,101577,12,0,104577
320,128,105005,6,0,B|320:48,2,65
208,128,105862,2,0,B|112:128,2,65
208,240,106720,2,0,B|208:320,2,65
320,240,107577,2,0,B|400:240,2,65
320,128,108434,1,0
256,128,108648,1,0
144,128,109077,1,0
144,304,109720,1,0
256,304,110148,1,0
368,304,110577,1,0
368,192,111005,1,0
256,192,111434,1,0
