osu file format v5

[General]
AudioFilename: OmegaSector.mp3
AudioLeadIn: 0
PreviewTime: -1
Countdown: 0
SampleSet: Normal
StackLeniency: 0.7
Mode: 0
LetterboxInBreaks: 1

[Metadata]
Title:Omega Sector
Artist:Wizet, Nexon
Creator:Metroid
Version:Hard
Source:Maplestory Mapledump
Tags:Maplestory HQ Headquarters Ossyria Ludi Ludibrium

[Difficulty]
HPDrainRate:7
CircleSize:6
OverallDifficulty:7
SliderMultiplier:1.3
SliderTickRate:1

[Events]
//Background and Video events
0,0,"maple0494nt8.jpg"
//Break Periods
//Storyboard Layer 0 (Background)
//Storyboard Layer 1 (Failing)
//Storyboard Layer 2 (Passing)
//Storyboard Layer 3 (Foreground)
//Storyboard Sound Samples
//Background Colour Transformations
3,100,163,162,255

[TimingPoints]
3863,428.571428571429,4,1,0,71,1,0
19053,-100,4,1,0,32,0,0
19910,-100,4,1,0,46,0,0
20767,-100,4,1,0,57,0,0
21838,-100,4,1,0,71,0,0
43048,-100,4,1,0,40,0,0
43905,-100,4,1,0,51,0,0
44762,-100,4,1,0,61,0,0
45619,-100,4,1,0,69,0,0
49951,-100,4,1,0,100,0,0
50760,-100,4,1,0,39,0,0
51617,-100,4,1,0,70,0,0
52474,-100,4,1,0,70,0,0
52474,-100,4,1,0,30,0,0
53330,-100,4,1,0,70,0,0
56758,-100,4,2,0,80,0,0
70685,-100,4,1,0,61,0,0
77487,-100,4,1,0,61,0,0
84237,-100,4,1,0,69,0,0
97893,-100,4,1,0,33,0,0
98750,-100,4,1,0,43,0,0
99607,-100,4,1,0,56,0,0
100464,-100,4,1,0,70,0,0
104808,-100,4,1,0,69,0,0
105606,-100,4,1,0,36,0,0
106463,-100,4,1,0,70,0,0
107320,-100,4,1,0,34,0,0
108177,-100,4,1,0,69,0,0

[Colours]
Combo1 : 0,213,0
Combo2 : 202,0,0
Combo3 : 4,4,187
Combo4 : 192,192,192

[HitObjects]
96,320,2148,2,0,B|176:320,1,65
208,288,2577,1,0
208,352,2791,1,0
256,320,3005,1,0
288,272,3220,1,0
288,240,3327,1,0
288,208,3434,1,0
288,144,3648,1,0
288,80,3863,2,0,B|192:160|288:32|176:112,3,130
144,144,5363,1,2
96,112,5577,6,0,B|48:144|32:304|160:320,1,260
208,336,6648,1,0
240,336,6755,1,0
272,336,6862,1,0
320,304,7077,1,0
352,256,7291,2,0,B|384:208|384:160|304:176,3,130
288,224,8791,1,2
240,256,9005,6,0,B|160:256,1,65
112,256,9434,1,0
48,256,9648,1,0
48,256,9755,1,0
48,256,9862,1,0
48,192,10077,1,0
112,192,10291,1,0
112,128,10505,1,0
176,128,10720,2,0,B|336:128,3,130
368,128,12220,1,2
416,96,12434,6,0,B|464:48|480:96|480:192|416:240,1,195
384,256,13291,1,0
320,272,13505,1,0
288,272,13612,1,0
256,272,13720,1,0
256,208,13934,1,2
192,208,14148,2,0,B|32:208,1,130
64,144,14791,1,2
128,144,15005,2,0,B|288:144,1,130
320,144,15648,1,2
320,208,15862,5,0
384,208,16077,1,0
448,208,16291,1,0
448,96,16720,1,0
448,32,16934,1,0
384,32,17148,1,0
272,32,17577,1,0
208,32,17791,1,0
144,32,18005,1,0
144,96,18220,1,0
144,208,18648,1,4
208,208,18863,1,4
208,96,19291,5,0
272,96,19505,1,0
336,96,19720,1,0
448,96,20148,1,0
448,160,20363,1,0
448,224,20577,1,0
336,224,21005,1,0
272,224,21220,1,0
208,224,21434,1,0
272,224,21648,1,0
272,336,22077,1,4
208,336,22291,1,4
208,224,22720,6,0,B|368:224,2,130
160,192,23791,1,0
128,144,24005,1,0
128,32,24434,1,0
176,0,24648,1,0
224,32,24863,1,0
320,96,25291,1,0
416,32,25720,1,0
512,96,26148,6,0,B|512:240,2,130
448,96,27220,1,0
384,96,27434,1,0
384,208,27863,1,0
384,272,28077,1,0
320,272,28291,1,0
208,272,28720,1,0
320,272,29148,1,0
320,144,29577,6,0,B|224:144,1,65
224,96,30005,2,0,B|320:96,1,65
336,64,30434,1,0
384,96,30648,1,0
336,128,30863,1,0
384,160,31077,2,0,B|240:160,3,130
208,192,32577,5,0
160,160,32791,1,0
208,128,33005,2,0,B|208:48,1,65,0|0
240,16,33434,1,0
272,64,33648,1,0
272,96,33755,1,0
272,128,33863,1,0
304,176,34077,1,0
240,176,34291,1,0
272,224,34505,2,0,B|272:272|304:304|368:304,1,130
400,272,35148,1,0
352,240,35363,1,0
400,208,35577,2,0,B|480:208,1,65
464,96,36220,1,0
464,32,36434,6,0,B|384:32,1,65
336,32,36863,2,0,B|336:112,1,65
368,144,37291,1,0
336,192,37505,1,0
304,144,37720,1,0
336,192,37934,2,0,B|336:336,3,130
288,352,39434,5,0
240,320,39648,1,0
192,352,39863,2,0,B|112:352,1,65
80,320,40291,1,0
128,288,40505,1,0
160,288,40613,1,0
192,288,40720,1,0
224,240,40934,1,0
336,240,41363,1,0
256,192,41577,12,0,42863
192,32,43291,5,0
256,32,43505,1,0
320,32,43720,1,0
320,144,44148,1,0
256,144,44362,1,0
192,144,44577,1,0
192,256,45005,1,0
256,256,45220,1,0
320,256,45434,1,0
320,368,45862,1,0
256,368,46077,1,0
192,368,46291,1,0
80,368,46720,5,0
80,304,46934,2,0,B|144:272,1,65
80,240,47362,2,0,B|144:208,1,65
80,176,47791,2,0,B|144:144,1,65
256,192,48220,12,0,49720
256,336,50148,5,0
320,336,50362,2,0,B|400:336,1,65
384,224,51005,1,0
320,224,51220,2,0,B|240:224,1,65
144,224,51862,1,0
80,224,52077,2,0,B|80:144,1,65
80,48,52720,1,0
144,48,52934,2,0,B|240:48,1,65
320,48,53577,1,0
384,48,53791,1,0
496,48,54220,2,0,B|496:128|400:128,1,130
352,128,54862,1,0
240,128,55291,2,0,B|160:128|176:240,3,130
288,224,57005,6,0,B|384:224,1,65
416,224,57434,1,2
416,112,57862,1,0
416,48,58077,1,2
304,48,58505,2,0,B|160:48,3,130
128,80,60005,5,0
128,16,60220,1,2
80,48,60434,2,0,B|0:48,1,65
16,112,60862,1,2
16,224,61291,1,0
80,224,61505,1,2
192,224,61934,2,0,B|336:224,3,130
384,224,63434,5,0
432,192,63648,1,2
464,144,63862,1,0
432,96,64077,2,0,B|336:96,1,65,0|2
240,96,64720,1,0
240,96,64934,1,2
160,176,65362,2,0,B|160:256|272:256,3,130
304,272,66862,5,0
352,304,67077,1,2
352,240,67291,1,0
400,272,67505,2,0,B|480:272,1,65,0|2
464,160,68148,1,0
400,160,68362,1,2
288,160,68791,2,0,B|128:160,2,130
400,160,70077,1,0
464,160,70291,1,4
288,160,70934,5,0
288,224,71148,1,0
240,192,71362,1,0
128,192,71791,1,0
80,160,72005,1,0
80,224,72220,1,0
128,256,72434,1,0
80,288,72648,1,0
128,320,72862,2,0,B|208:320,1,65
304,320,73505,1,0
432,208,74148,5,0
384,176,74362,1,0
432,144,74577,1,0
384,112,74791,1,0
288,48,75220,1,8
176,48,75648,1,0
112,48,75862,1,0
112,112,76077,1,0
176,112,76291,1,0
176,176,76505,1,0
112,176,76720,1,0
112,256,77041,1,8
192,288,77362,1,8
256,288,77577,6,0,B|416:288,4,130
224,240,79505,1,0
272,208,79720,1,0
320,176,79934,1,0
368,144,80148,1,0
304,48,80577,1,8
192,32,81005,6,0,B|112:32|112:128,3,130
144,160,82505,1,0
32,160,82934,1,0
80,192,83148,1,0
32,224,83362,1,0
80,256,83577,1,0
32,288,83791,1,0
80,320,84005,1,0
192,320,84434,5,0
304,320,84862,1,0
416,320,85291,2,0,B|416:240,1,65
416,192,85720,1,0
416,128,85934,2,0,B|416:80|368:48|304:48,3,130
272,48,87434,5,0
224,80,87648,1,0
176,48,87862,2,0,B|96:48,1,65
48,48,88291,1,0
48,112,88505,1,0
48,144,88612,1,0
48,176,88720,1,0
48,240,88934,1,0
48,304,89148,1,0
96,272,89362,2,0,B|240:272,3,130
288,272,90862,1,2
400,272,91291,5,0
400,160,91720,1,0
400,48,92148,2,0,B|320:48,1,65
272,48,92577,1,0
208,48,92791,2,0,B|64:48,3,130
80,112,94291,5,0
32,144,94505,1,0
80,176,94720,1,0
192,176,95148,1,0
256,176,95362,1,0
288,176,95470,1,0
320,176,95577,1,0
384,176,95791,1,0
256,192,96220,12,0,97720
208,48,98148,5,0
256,16,98362,1,0
304,48,98577,1,0
304,160,99005,1,0
256,128,99220,1,0
208,160,99434,1,0
208,272,99862,1,0
256,240,100077,1,0
304,272,100291,1,0
256,368,100720,1,0
256,304,100934,1,0
256,240,101148,1,0
256,192,101577,12,0,104577
192,48,105005,5,0
192,48,105220,2,0,B|272:48,1,65
368,48,105862,1,0
368,48,106077,2,0,B|368:128,1,65
368,224,106720,1,0
368,224,106934,2,0,B|272:224,1,65
192,224,107577,1,0
192,224,107791,2,0,B|192:144,1,65
192,48,108434,1,0
256,48,108648,1,0
368,48,109077,1,0
368,224,109720,1,0
240,224,110148,2,0,B|80:224,3,130
