osu file format v13

[General]
AudioFilename: MissingYou.mp3
AudioLeadIn: 0
PreviewTime: 70646
Countdown: 0
SampleSet: Soft
StackLeniency: 0.7
Mode: 0
LetterboxInBreaks: 0
WidescreenStoryboard: 0

[Editor]
Bookmarks: 15580,41698,59345,104527,110174,115115,121463,127115,129938,132761
DistanceSpacing: 0.6
BeatDivisor: 2
GridSize: 8
TimelineZoom: 0.6999999

[Metadata]
Title:Missing You
TitleUnicode:Missing You
Artist:Wizet, Nexon
ArtistUnicode:Wizet, Nexon
Creator:Kamidachi
Version:Snail - Easy
Source:Maplestory
Tags:Ellinia Slime Tree Dungeon mushroom mmo rpg
BeatmapID:520982
BeatmapSetID:222936

[Difficulty]
HPDrainRate:3
CircleSize:3
OverallDifficulty:1
ApproachRate:3
SliderMultiplier:0.7
SliderTickRate:1

[Events]
//Background and Video events
0,0,"Ellinia_tree_wallpaper_2_by_Syrabi.jpg",0,0
//Break Periods
2,48251,52258
//Storyboard Layer 0 (Background)
//Storyboard Layer 1 (Fail)
//Storyboard Layer 2 (Pass)
//Storyboard Layer 3 (Foreground)
//Storyboard Sound Samples

[TimingPoints]
2875,352.941176470588,4,2,0,50,1,0
53698,-100,4,2,0,10,0,0
55110,-100,4,2,0,20,0,0
56522,-100,4,2,0,30,0,0
57933,-100,4,2,0,40,0,0
58639,-100,4,2,0,50,0,0
93227,-100,4,2,0,60,0,1
98874,-100,4,2,0,10,0,1
100286,-100,4,2,0,20,0,1
101698,-100,4,2,0,30,0,1
103110,-100,4,2,0,60,0,1
122169,-100,4,2,0,20,0,0
130286,-100,4,2,0,55,0,0
130639,-100,4,2,0,50,0,0
130992,-100,4,2,0,45,0,0
131345,-100,4,2,0,40,0,0
131698,-100,4,2,0,35,0,0
132051,-100,4,2,0,30,0,0
132404,-100,4,2,0,25,0,0
132757,-100,4,2,0,20,0,0

[Colours]
Combo1 : 255,138,21
Combo2 : 17,255,17
Combo3 : 238,251,4

[HitObjects]
72,279,2875,6,0,B|72:115|272:115,1,280,2|0,0:0|0:0,0:0:0:0:
257,194,4992,1,8,0:0:0:0:
256,272,5698,6,0,B|441:273|441:109,1,280,0|2,0:0|0:0,0:0:0:0:
356,112,7816,1,8,0:0:0:0:
325,190,8522,6,0,B|85:334,1,280,0|2,0:0|0:0,0:0:0:0:
6,303,10639,1,8,0:0:0:0:
72,248,11345,2,0,B|312:104,1,280,0|2,0:0|0:0,0:0:0:0:
248,52,13463,1,8,0:0:0:0:
118,104,14169,5,2,0:0:0:0:
177,163,14875,1,0,0:0:0:0:
260,163,15580,2,0,P|306:115|376:123,1,140,0|10,0:0|0:0,0:0:0:0:
334,190,16992,6,0,P|288:238|218:230,1,140,2|0,0:0|0:0,0:0:0:0:
256,152,18404,1,2,0:0:0:0:
334,182,19110,1,8,0:0:0:0:
384,112,19816,6,0,B|374:29|312:33|312:33|228:81,1,210,2|2,0:0|0:0,0:0:0:0:
234,162,21580,2,0,L|168:204,1,70,0|8,0:0|0:0,0:0:0:0:
102,157,22639,2,0,B|24:201|24:201|-10:254|56:303,1,210,2|2,0:0|0:0,0:0:0:0:
115,362,24404,2,0,L|201:362,1,70,0|8,0:0|0:0,0:0:0:0:
244,260,25463,6,0,P|184:176|212:76,1,210,2|2,0:0|0:0,0:0:0:0:
268,138,27227,2,0,L|344:122,1,70,0|8,0:0|0:0,0:0:0:0:
372,48,28286,2,0,P|432:132|404:232,1,210,2|2,0:0|0:0,0:0:0:0:
322,228,30051,2,0,L|322:148,1,70,0|8,0:0|0:0,0:0:0:0:
256,156,30757,5,2,0:0:0:0:
213,156,31110,2,2,P|152:240|180:340,1,210,2|0,0:0|0:0,0:0:0:0:
262,336,32875,2,0,L|344:220,1,140,0|0,0:0|0:0,0:0:0:0:
406,193,33933,5,2,0:0:0:0:
347,134,34639,1,0,0:0:0:0:
273,175,35345,2,0,P|206:176|158:125,1,140,0|8,0:0|0:0,0:0:0:0:
192,48,36757,6,0,L|328:100,1,140,2|0,0:0|0:0,0:0:0:0:
406,97,38169,1,0,0:0:0:0:
406,181,38875,1,8,0:0:0:0:
322,181,39580,6,0,L|191:131,1,140,2|0,0:0|0:0,0:0:0:0:
131,190,40992,1,0,0:0:0:0:
92,265,41698,2,0,P|159:272|206:223,1,140,8|2,0:0|0:0,0:0:0:0:
231,249,43463,5,2,0:0:0:0:
172,189,44169,1,2,0:0:0:0:
116,252,44875,2,0,B|192:336|192:336|290:336,1,210,2|0,0:0|0:0,0:0:0:0:
372,328,46639,5,2,0:0:0:0:
416,192,47345,1,2,0:0:0:0:
372,58,48051,1,12,0:0:0:0:
256,192,53698,12,0,58639,0:0:0:0:
356,176,59345,5,2,0:0:0:0:
294,114,60051,1,0,0:0:0:0:
209,114,60757,1,2,0:0:0:0:
149,173,61463,1,0,0:0:0:0:
89,232,62169,6,0,B|112:256|112:256|112:328|168:352,1,140,2|0,0:0|0:0,0:0:0:0:
269,346,63580,2,0,B|314:327|314:255|314:255|337:231,1,140,2|0,0:0|0:0,0:0:0:0:
448,231,64992,6,0,P|423:161|368:123,1,140,2|0,0:0|0:0,0:0:0:0:
259,124,66404,1,0,0:0:0:0:
210,153,66757,1,0,0:0:0:0:
202,209,67110,1,8,0:0:0:0:
307,247,67816,6,0,P|265:302|200:323,1,140,2|0,0:0|0:0,0:0:0:0:
88,323,69227,1,2,0:0:0:0:
32,315,69580,1,0,0:0:0:0:
3,266,69933,1,8,0:0:0:0:
88,192,70639,6,0,B|152:128|280:256|358:190,1,280,2|0,0:0|0:0,0:0:0:0:
430,152,72757,1,8,0:0:0:0:
317,152,73463,6,0,B|253:152|189:216|189:216|125:152|61:152,1,280,2|0,0:0|0:0,0:0:0:0:
116,79,75580,1,8,0:0:0:0:
179,30,76286,6,0,B|243:110|107:230|204:342,1,280,2|0,0:0|0:0,0:0:0:0:
94,301,78404,1,8,0:0:0:0:
206,301,79110,6,0,B|270:301|334:237|334:237|398:301|462:301,1,280,2|0,0:0|0:0,0:0:0:0:
507,240,81227,1,8,0:0:0:0:
405,193,81933,6,0,L|357:59,2,140,2|0|0,0:0|0:0|0:0,0:0:0:0:
334,238,84051,1,8,0:0:0:0:
249,238,84757,2,0,L|134:317,2,140,0|0|0,0:0|0:0|0:0,0:0:0:0:
256,152,86875,1,8,0:0:0:0:
184,64,87580,6,0,P|142:153|208:256,2,210,2|2|8,0:0|0:0|0:0,0:0:0:0:
328,64,90404,2,0,P|370:153|304:256,2,210,2|2|8,0:0|0:0|0:0,0:0:0:0:
254,191,93227,6,0,P|206:124|127:122,1,140,2|0,0:0|0:0,0:0:0:0:
47,151,94639,2,0,P|81:209|147:227,1,140,2|8,0:0|0:0,0:0:0:0:
256,198,96051,6,0,P|304:131|383:129,1,140,2|0,0:0|0:0,0:0:0:0:
463,158,97463,2,0,P|428:216|362:234,1,140,2|8,0:0|0:0,0:0:0:0:
256,192,98875,12,0,103110,0:0:0:0:
353,308,103816,5,0,0:0:0:0:
282,220,104522,2,0,P|262:155|293:94,1,140,2|0,0:0|0:0,0:0:0:0:
381,167,105934,2,0,P|401:232|369:293,1,140,0|8,0:0|0:0,0:0:0:0:
271,346,107345,6,0,P|251:281|282:220,1,140,2|0,0:0|0:0,0:0:0:0:
392,224,108757,2,0,P|377:157|320:119,1,140,0|8,0:0|0:0,0:0:0:0:
216,72,110169,6,0,B|180:32|88:48|56:112|76:204|136:272|240:356,1,420,2|0,0:0|0:0,0:0:0:0:
295,336,112992,2,0,B|376:272|436:204|456:112|424:48|332:32|296:72,1,420,2|2,0:0|0:0,0:0:0:0:
256,192,115816,12,0,121463,0:0:0:0:
256,80,122169,5,0,0:0:0:0:
177,158,122874,2,0,P|145:221|184:280,1,140,2|0,0:0|0:0,0:0:0:0:
256,192,124286,5,0,0:0:0:0:
335,271,124992,1,0,0:0:0:0:
235,321,125698,2,0,P|175:353|116:320,1,140,2|0,0:0|0:0,0:0:0:0:
70,219,127110,6,0,P|86:153|151:135,1,140,0|0,0:0|0:0,0:0:0:0:
255,174,128522,2,0,P|318:154|335:89,1,140,2|0,0:0|0:0,0:0:0:0:
414,168,129933,1,4,0:0:0:0:
