osu file format v14

[General]
AudioFilename: MissingYou.mp3
AudioLeadIn: 0
PreviewTime: 70646
Countdown: 0
SampleSet: Soft
StackLeniency: 0.7
Mode: 0
LetterboxInBreaks: 0
WidescreenStoryboard: 0

[Editor]
Bookmarks: 48049,53706,59345,62167,70646,87579,87587,90410,116527,121115,127115,129932,132402
DistanceSpacing: 1.5
BeatDivisor: 4
GridSize: 8
TimelineZoom: 1.3

[Metadata]
Title:Missing You
TitleUnicode:Missing You
Artist:Wizet, Nexon
ArtistUnicode:Wizet, Nexon
Creator:Kamidachi
Version:Slime - Hard
Source:Maplestory
Tags:Ellinia Slime Tree Dungeon mushroom mmo rpg
BeatmapID:520983
BeatmapSetID:222936

[Difficulty]
HPDrainRate:7
CircleSize:4
OverallDifficulty:7
ApproachRate:8
SliderMultiplier:0.7
SliderTickRate:1

[Events]
//Background and Video events
0,0,"Ellinia_tree_wallpaper_2_by_Syrabi.jpg",0,0
//Break Periods
2,48251,52948
//Storyboard Layer 0 (Background)
//Storyboard Layer 1 (Fail)
//Storyboard Layer 2 (Pass)
//Storyboard Layer 3 (Foreground)
//Storyboard Sound Samples

[TimingPoints]
2875,352.941176470588,4,2,0,50,1,0
42757,-100,4,2,0,10,0,0
43816,-100,4,2,0,20,0,0
45227,-100,4,2,0,30,0,0
46639,-100,4,2,0,40,0,0
48051,-100,4,2,0,50,0,0
53698,-100,4,2,0,10,0,0
55110,-100,4,2,0,20,0,0
56522,-100,4,2,0,30,0,0
57933,-100,4,2,0,40,0,0
58639,-100,4,2,0,50,0,0
93227,-66.6666666666667,4,2,0,60,0,1
103110,-66.6666666666667,4,2,0,60,0,1
115110,-100,4,2,0,50,0,0
116874,-100,4,2,0,20,0,0
132757,-100,4,2,0,55,0,0
133110,-100,4,2,0,50,0,0
133463,-100,4,2,0,45,0,0
133816,-100,4,2,0,40,0,0
134169,-100,4,2,0,35,0,0
134522,-100,4,2,0,30,0,0
134875,-100,4,2,0,25,0,0
135228,-100,4,2,0,20,0,0

[Colours]
Combo1 : 255,138,21
Combo2 : 17,255,17
Combo3 : 238,251,4

[HitObjects]
90,84,2875,6,0,B|129:109|177:61|233:87,1,140,2|0,0:0|0:0,0:0:0:0:
400,24,3933,1,0,0:0:0:0:
349,92,4286,1,2,0:0:0:0:
408,151,4639,5,0,0:0:0:0:
467,91,4992,1,2,0:0:0:0:
401,231,5345,1,0,0:0:0:0:
341,290,5698,2,0,B|302:315|254:267|198:293,1,140,2|0,0:0|0:0,0:0:0:0:
240,360,6757,5,0,0:0:0:0:
80,320,7110,2,0,B|17:269|17:269|21:237,1,105,0|0,0:0|0:0,0:0:0:0:
42,66,8169,2,0,P|56:96|88:120,1,70,0|2,0:0|0:0,0:0:0:0:
184,224,8874,5,0,0:0:0:0:
220,148,9227,1,0,0:0:0:0:
290,103,9580,1,0,0:0:0:0:
374,103,9933,1,2,0:0:0:0:
240,32,10286,5,0,0:0:0:0:
143,73,10639,1,2,0:0:0:0:
240,32,10992,1,0,0:0:0:0:
215,134,11345,1,0,0:0:0:0:
376,232,11698,5,0,0:0:0:0:
296,205,12051,1,0,0:0:0:0:
307,290,12404,2,0,B|332:328|392:320,3,70,0|2|0|2,0:0|0:0|0:0|0:0,0:0:0:0:
504,200,13816,6,0,B|514:166|514:166|508:110,1,70,2|0,0:0|0:0,0:0:0:0:
360,56,14522,1,0,0:0:0:0:
289,170,14874,1,0,0:0:0:0:
169,106,15227,1,0,0:0:0:0:
93,219,15580,1,0,0:0:0:0:
160,336,15933,6,0,L|229:399,1,70,2|0,0:0|0:0,0:0:0:0:
400,344,16639,2,0,L|348:296,1,70,2|0,0:0|0:0,0:0:0:0:
240,176,17345,1,0,0:0:0:0:
164,248,17698,1,0,0:0:0:0:
87,173,18051,1,0,0:0:0:0:
0,24,18404,5,2,0:0:0:0:
195,58,18933,1,0,0:0:0:0:
136,192,19463,1,0,0:0:0:0:
320,120,19816,6,0,B|367:51|444:92,1,140,2|0,0:0|0:0,0:0:0:0:
320,120,20874,2,0,B|247:75|282:0,1,140
440,120,21933,1,0,0:0:0:0:
361,264,22286,1,0,0:0:0:0:
229,383,22639,6,0,B|264:308|192:264,1,140
69,292,23697,2,0,B|144:332|192:264,1,140,2|0,0:0|0:0,0:0:0:0:
48,152,24757,2,0,B|72:184|72:184|112:200,1,70,2|0,0:0|0:0,0:0:0:0:
304,136,25463,6,0,B|344:200|424:191,1,140,2|0,0:0|0:0,0:0:0:0:
272,240,26522,2,0,B|232:176|152:185,1,140,2|0,0:0|0:0,0:0:0:0:
136,360,27580,1,2,0:0:0:0:
272,240,27933,5,0,0:0:0:0:
376,360,28286,2,0,B|440:412|504:360,1,140,2|0,0:0|0:0,0:0:0:0:
440,224,29345,2,0,B|376:172|312:224,1,140,2|0,0:0|0:0,0:0:0:0:
112,216,30404,5,0,0:0:0:0:
256,152,30757,1,0,0:0:0:0:
112,216,31110,2,0,B|187:363|187:172|324:172|324:363|396:208,1,350,2|0,0:0|0:0,0:0:0:0:
256,120,33227,2,0,B|240:104|240:104|240:72|256:48,1,70
256,192,33933,12,0,35698,0:0:0:0:
152,308,36051,5,0,0:0:0:0:
336,224,36404,1,0,0:0:0:0:
136,64,36757,1,2,0:0:0:0:
448,192,37816,1,0,0:0:0:0:
128,80,38522,2,0,B|80:92|56:148,1,70,0|2,0:0|0:0,0:0:0:0:
185,243,39227,5,0,0:0:0:0:
255,237,39580,2,0,P|184:172|114:237,1,210,2|0,0:0|0:0,0:0:0:0:
48,352,40992,1,0,0:0:0:0:
176,376,41345,6,0,P|209:386|242:378,2,70,0|2|0,0:0|0:0|0:0,0:0:0:0:
0,304,42404,1,0,0:0:0:0:
256,192,42757,12,0,48051,0:0:0:0:
256,192,53698,12,0,58639,0:0:0:0:
511,278,59345,5,2,0:0:0:0:
368,135,59698,1,0,0:0:0:0:
434,322,60051,1,0,0:0:0:0:
292,179,60404,1,0,0:0:0:0:
104,48,60757,6,0,P|48:32|24:40,1,70,8|0,0:0|0:0,0:0:0:0:
0,168,61463,2,0,P|56:183|80:175,1,70,8|0,0:0|0:0,0:0:0:0:
227,67,62169,5,2,0:0:0:0:
404,246,62522,1,0,0:0:0:0:
227,246,62874,1,0,0:0:0:0:
404,68,63227,1,0,0:0:0:0:
264,104,63580,6,0,B|255:119|255:119|263:171,1,70,8|0,0:0|0:0,0:0:0:0:
392,253,64286,2,0,B|400:237|400:237|392:185,1,70,8|0,0:0|0:0,0:0:0:0:
328,24,64992,6,0,P|278:2|230:10,1,70,2|0,0:0|0:0,0:0:0:0:
88,116,65698,1,0,0:0:0:0:
184,216,66051,1,0,0:0:0:0:
336,192,66404,2,0,B|372:160|392:196|444:160,2,70,8|0|8,0:0|0:0|0:0,0:0:0:0:
196,268,67463,1,0,0:0:0:0:
64,152,67816,6,0,P|62:92|82:48,1,70,2|0,0:0|0:0,0:0:0:0:
238,29,68522,1,0,0:0:0:0:
351,84,68874,1,0,0:0:0:0:
361,221,69227,2,0,B|375:266|410:244|437:301,2,70,8|0|8,0:0|0:0|0:0,0:0:0:0:
244,176,70286,1,0,0:0:0:0:
101,238,70639,5,2,0:0:0:0:
31,144,70992,1,0,0:0:0:0:
144,124,71345,1,0,0:0:0:0:
104,19,71698,1,0,0:0:0:0:
230,26,72051,1,0,0:0:0:0:
385,53,72404,6,8,B|421:43|447:74,2,70,8|0|8,0:0|0:0|0:0,0:0:0:0:
328,160,73463,1,2,0:0:0:0:
192,232,73816,2,8,B|218:263|254:253,1,70,8|0,0:0|0:0,0:0:0:0:
88,256,74522,1,0,0:0:0:0:
184,304,74874,5,2,0:0:0:0:
77,123,75404,1,0,0:0:0:0:
312,32,75933,6,0,P|309:68|278:99,1,70,2|0,0:0|0:0,0:0:0:0:
143,203,76639,1,8,0:0:0:0:
75,95,76992,1,0,0:0:0:0:
208,184,77345,2,0,P|235:205|269:206,1,70,8|0,0:0|0:0,0:0:0:0:
424,128,78051,6,0,B|453:110|492:178|526:136,2,70,2|0|2,0:0|0:0|0:0,0:0:0:0:
264,304,79110,1,0,0:0:0:0:
152,312,79463,2,0,L|112:280,4,35,0|0|0|0|8,0:0|0:0|0:0|0:0|0:0,0:0:0:0:
296,336,80522,1,0,0:0:0:0:
208,232,80874,2,0,L|168:200,1,35
200,104,81227,2,0,L|181:56,1,35
296,48,81580,1,0,0:0:0:0:
104,104,81933,5,2,0:0:0:0:
227,218,82286,1,0,0:0:0:0:
78,147,82639,1,2,0:0:0:0:
202,262,82992,1,0,0:0:0:0:
48,192,83345,1,0,0:0:0:0:
72,336,83698,6,0,P|113:366|153:363,1,70,2|0,0:0|0:0,0:0:0:0:
312,344,84404,2,0,P|278:335|253:311,1,70,2|0,0:0|0:0,0:0:0:0:
136,256,85110,1,0,0:0:0:0:
72,128,85463,2,0,P|39:138|16:164,1,70,2|0,0:0|0:0,0:0:0:0:
8,360,86169,5,2,0:0:0:0:
264,352,86698,2,0,B|310:364|310:364|322:318|335:314,1,105
336,200,87580,2,0,B|352:192|362:144|362:144|424:224|480:168|528:240|496:312|424:360|424:312|320:360|288:280|319:241,1,490,2|8,0:0|0:0,0:0:0:0:
192,112,90404,2,0,B|176:104|166:56|166:56|104:136|48:80|0:152|32:224|104:272|104:224|208:272|240:192|208:153,1,490,2|8,0:0|0:0,0:0:0:0:
138,165,93227,5,2,0:0:0:0:
264,248,93580,2,0,P|296:239|328:247,1,52.5000020027161
320,304,93933,2,0,P|351:313|375:336,1,52.5000020027161
248,352,94286,1,0,0:0:0:0:
48,240,94639,2,0,B|106:212|109:158,1,105.000004005432,2|0,0:0|0:0,0:0:0:0:
312,104,95345,2,0,B|253:131|250:182,1,105.000004005432,2|0,0:0|0:0,0:0:0:0:
376,208,96051,5,2,0:0:0:0:
304,100,96404,2,0,L|369:72,4,52.5000020027161,0|0|0|0|8,0:0|0:0|0:0|0:0|0:0,0:0:0:0:
144,216,97463,6,0,P|91:211|53:176,1,105.000004005432,2|0,0:0|0:0,0:0:0:0:
216,64,98169,2,0,P|266:65|304:100,1,105.000004005432,0|8,0:0|0:0,0:0:0:0:
384,240,98874,5,2,0:0:0:0:
419,149,99227,2,0,L|467:118,2,52.5000020027161
229,233,99933,1,8,0:0:0:0:
88,168,100286,2,2,P|44:193|25:242,1,105.000004005432
136,264,100992,2,0,P|127:313|150:359,1,105.000004005432,2|8,0:0|0:0,0:0:0:0:
280,280,101698,5,2,0:0:0:0:
408,352,102051,1,0,0:0:0:0:
432,296,102227,1,0,0:0:0:0:
424,232,102404,2,2,P|399:188|350:169,1,105.000004005432
448,128,103110,2,0,P|427:82|382:58,1,105.000004005432,2|8,0:0|0:0,0:0:0:0:
136,128,103816,6,0,B|103:126|103:126|59:152|27:156,2,105.000004005432
472,352,105580,1,0,0:0:0:0:
375,128,106286,5,0,0:0:0:0:
185,128,106639,1,2,0:0:0:0:
327,45,106992,1,0,0:0:0:0:
232,210,107345,1,0,0:0:0:0:
232,45,107698,6,0,L|200:0,2,52.5000020027161
328,208,108404,1,8,0:0:0:0:
176,96,108757,2,0,L|129:72,4,52.5000020027161
328,208,109816,1,8,0:0:0:0:
256,192,110169,12,0,115816,0:0:0:0:
201,215,116874,6,0,L|237:223,5,35
312,176,117933,1,2,0:0:0:0:
377,235,118286,6,0,L|411:227,5,35
496,256,119345,1,2,0:0:0:0:
481,143,119698,6,0,L|500:95,1,35
384,80,120051,2,0,L|378:30,1,35
264,40,120404,2,0,L|235:3,1,35
136,40,120757,1,2,0:0:0:0:
248,112,121110,6,0,P|228:92|200:88,1,35
152,120,121463,2,0,P|137:109|120:108,3,35
56,144,122169,1,2,0:0:0:0:
83,229,122522,6,0,P|74:243|71:261,1,35
168,336,122874,2,0,P|179:348|196:351,1,35
280,256,123227,2,0,P|289:241|287:224,1,35
200,136,123580,1,2,0:0:0:0:
64,184,123933,6,0,P|49:173|32:173,1,35
40,272,124286,2,0,P|23:265|6:270,3,35
48,360,124992,1,2,0:0:0:0:
149,288,125345,6,0,L|214:274,1,35
256,336,125698,2,0,L|290:328,1,35
360,384,126051,2,0,L|394:376,1,35
456,280,126404,1,2,0:0:0:0:
352,224,126757,6,0,P|362:209|378:202,1,35
376,144,127110,6,0,B|310:90|238:152,1,140,2|0,0:0|0:0,0:0:0:0:
296,52,128169,2,0,B|240:60|204:92|204:92|180:83|180:83|156:83,1,140
76,29,129051,2,0,L|25:4,4,35
108,125,129933,1,4,0:0:0:0:
400,56,132404,6,0,B|424:56|424:56|460:28,1,70
256,192,132933,12,0,135580,0:0:0:0:
