osu file format v9

[General]
AudioFilename: Time Temple Plant Zone - Remembrance.mp3
AudioLeadIn: 0
PreviewTime: 56280
Countdown: 0
SampleSet: Soft
StackLeniency: 0.7
Mode: 0
LetterboxInBreaks: 1

[Editor]
Bookmarks: 23005,27255
DistanceSpacing: 0.8
BeatDivisor: 4
GridSize: 4

[Metadata]
Title:Remembrance
Artist:Wizet
Creator:lobsterkevvi
Version:Twilight
Source:MapleStory
Tags:temple of time bgm plant zone Icycles [AirCoN]

[Difficulty]
HPDrainRate:7
CircleSize:5
OverallDifficulty:7
ApproachRate:8
SliderMultiplier:1.99999990463257
SliderTickRate:2

[Events]
//Background and Video events
0,0,"pb_bg.jpg"
//Break Periods
//Storyboard Layer 0 (Background)
//Storyboard Layer 1 (Fail)
//Storyboard Layer 2 (Pass)
//Storyboard Layer 3 (Foreground)
//Storyboard Sound Samples
//Background Colour Transformations
3,100,255,255,255

[TimingPoints]
10230,600,4,2,0,100,1,0
26430,-100,4,2,0,40,0,0
26730,-100,4,2,0,100,0,0
27030,-100,4,2,0,40,0,0
29430,-100,4,2,0,50,0,0
36630,-100,4,2,0,75,0,0
57030,-100,4,2,0,85,0,0
71430,-200,4,2,0,85,0,0
72330,-100,4,2,0,85,0,0
75030,-200,4,2,0,85,0,0
77430,-100,4,2,0,75,0,0
87330,-100,4,2,0,60,0,0
96930,-100,4,2,0,75,0,0
115830,-100,4,2,0,30,0,0

[Colours]
Combo1 : 251,244,130
Combo2 : 130,253,136
Combo3 : 171,215,250
Combo4 : 234,166,168

[HitObjects]
87,71,10230,2,0,B|43:115|83:171|83:171,1,99.9999952316285,0|2
184,220,10830,2,0,B|219:171|179:119,1,99.9999952316285,0|2
300,160,11430,5,0
360,108,11730,1,2
344,228,12030,5,0
292,288,12330,1,2
128,192,12630,5,0
128,192,12780,1,0
128,192,12930,1,0
256,64,13230,1,2
208,320,13530,2,0,B|336:320,1,99.9999952316285,0|0
156,192,14130,2,0,B|160:192|56:192,1,99.9999952316285,2|4
248,192,14730,1,0
56,192,15030,5,2
256,64,15330,1,0
464,192,15630,1,2
256,320,15930,1,0
112,144,16230,2,0,B|71:191|111:233,1,99.9999952316285
184,232,16830,2,0,B|223:190|183:142,1,99.9999952316285,0|2
328,192,17430,1,0
344,192,17580,1,0
360,192,17730,1,0
256,72,18030,1,0
256,176,18330,2,0,B|256:296,1,99.9999952316285,2|0
256,308,18930,5,2
256,340,19230,1,6
64,192,19830,5,0
408,192,20130,1,0
128,192,20430,1,0
344,192,20730,1,0
192,144,21030,2,0,B|244:124|296:144|296:144,1,99.9999952316285
232,208,21630,1,0
304,248,21930,1,4
384,272,22230,1,0
448,216,22530,1,4
488,144,22830,1,0
256,192,23130,12,4,24630
392,48,24930,6,0,B|465:121|465:121,1,99.9999952316285,2|0
416,232,25530,2,0,B|418:234|345:161,1,99.9999952316285,2|0
232,120,26130,5,2
168,72,26430,1,8
108,176,26730,5,2
132,252,27030,1,8
256,192,27330,5,0
256,48,27630,1,0
152,88,27930,1,0
152,88,28080,1,0
152,88,28230,1,2
120,192,28530,1,2
256,304,28830,1,0
392,192,29130,1,0
256,72,29430,5,4
232,72,30030,1,4
208,72,30630,1,4
256,192,31830,5,4
152,144,32130,2,0,B|152:256,1,99.9999952316285,0|4
360,248,32730,2,0,B|360:136,1,99.9999952316285,0|4
296,72,34230,5,4
408,208,34830,1,4
256,296,35430,1,4
128,192,36630,5,0
128,192,36930,1,0
184,136,37230,2,0,B|220:179|191:233,1,99.9999952316285
288,336,37830,5,0
280,328,37980,1,0
272,320,38130,1,0
264,312,38280,1,0
256,304,38430,1,0
248,296,38580,1,0
240,288,38730,1,0
232,280,38880,2,0,B|192:240|192:240,1,49.9999976158143,0|4
112,192,39330,5,0
256,192,39630,1,0
400,192,39930,1,0
256,192,40230,1,0
112,192,40530,1,0
256,192,40830,1,0
208,136,41130,2,0,B|256:104|304:136,1,99.9999952316285
301,249,41730,2,0,B|256:280|208:248,1,99.9999952316285
256,192,42330,1,0
168,192,42630,1,0
80,192,42930,2,0,B|80:296|80:296,1,99.9999952316285
80,320,43380,5,0
112,320,43530,1,0
152,320,43680,1,0
192,320,43830,1,4
144,184,44130,1,0
200,128,44430,2,0,B|240:96,2,49.9999976158143
264,72,45030,2,0,B|304:40,2,49.9999976158143
352,192,45630,2,0,B|304:228|256:192|256:192,1,99.9999952316285
112,192,46230,1,0
256,192,46530,1,0
400,192,46830,1,0
256,128,47130,5,2
256,116,47280,1,0
256,104,47430,1,2
256,92,47580,1,0
256,80,47730,1,2
256,68,47880,1,0
256,56,48030,5,6
256,144,48330,1,0
256,232,48630,1,2
256,320,48930,1,0
192,192,49230,2,0,B|88:192,1,99.9999952316285,2|0
320,192,49830,2,0,B|424:192,1,99.9999952316285,2|0
256,136,50430,2,0,B|256:32,1,99.9999952316285,2|0
256,248,51030,2,0,B|256:352,1,99.9999952316285,2|0
256,192,51630,1,2
88,192,51930,5,2
104,176,52080,1,0
120,160,52230,1,2
136,144,52380,1,0
152,128,52530,1,2
168,112,52680,1,0
184,96,52830,1,0
280,80,53130,5,0
208,168,53430,1,0
208,168,53580,1,0
208,168,53730,1,0
280,240,54030,1,0
280,240,54180,1,0
280,240,54330,1,0
204,312,54630,2,0,B|104:312,1,99.9999952316285
280,240,55230,2,0,B|168:240,1,99.9999952316285
48,192,55830,5,2
184,64,56130,1,0
296,296,56430,1,0
432,192,56730,1,2
208,192,57030,1,2
224,184,57180,1,0
236,168,57330,1,2
244,152,57480,1,0
252,136,57630,1,2
256,120,57780,1,0
256,104,57930,1,2
256,88,58080,1,0
256,72,58230,5,4
256,192,58530,1,0
256,312,58830,1,0
256,192,59130,1,0
256,72,59430,1,0
256,192,59730,1,0
208,328,60030,2,0,B|184:280|176:216,1,99.9999952316285
304,328,60630,2,0,B|328:280|336:216,1,99.9999952316285
88,64,61230,1,0
256,248,61530,1,0
432,72,61830,1,0
256,144,62430,5,0
256,160,62580,1,0
256,176,62730,1,0
256,192,62880,1,0
256,208,63030,1,4
152,128,63330,6,0,B|152:232,1,99.9999952316285
336,232,63930,2,0,B|336:112,1,99.9999952316285
304,72,64530,2,0,B|200:72,1,99.9999952316285
256,184,65130,2,0,B|256:120,2,49.9999976158143
256,48,65730,1,0
256,184,66030,1,4
256,312,66330,1,0
128,312,66630,1,4
128,312,66780,1,0
128,312,66930,2,0,B|28:312|28:312,1,99.9999952316285,0|4
72,152,67830,5,0
184,128,68130,1,0
224,48,68430,1,0
312,88,68730,1,0
272,168,69030,1,0
184,128,69330,1,0
272,168,69630,1,0
312,88,69930,1,0
224,48,70230,2,0,B|176:24|176:24|120:40|120:40,1,99.9999952316285,2|0
128,40,70830,2,0,B|134:30|100:77|100:77|106:127,1,99.9999952316285,2|0
110,129,71430,2,0,B|146:164|146:164|151:222,1,99.9999952316285,2|0
296,48,72330,5,0
296,192,72630,1,8
456,192,72930,1,0
456,48,73230,1,8
296,48,73530,1,0
296,192,73830,1,8
296,336,74130,1,0
456,336,74430,1,8
456,192,74730,1,0
296,192,75030,6,0,B|172:181|285:315|156:299|156:299,1,199.999990463257
152,296,76530,1,2
120,296,76830,1,2
88,312,77130,1,2
32,192,77430,5,0
256,192,77730,1,0
488,192,78030,1,0
256,192,78330,1,0
208,72,78630,1,0
208,96,78780,1,0
208,120,78930,1,0
272,168,79230,2,0,B|328:168|328:168,2,49.9999976158143
208,264,79830,1,0
208,240,79980,1,0
208,216,80130,1,0
256,48,80430,1,0
256,336,80730,1,4
168,192,81030,5,2
256,192,81330,1,0
336,192,81630,1,2
104,104,82230,6,0,B|106:103|66:108|34:76|45:41,2,99.9999952316285,4|0|0
176,168,83130,1,0
216,248,83430,1,4
176,168,83730,1,0
216,248,84030,1,0
72,192,84330,5,0
112,272,84630,1,0
368,272,84930,1,0
408,192,85230,1,0
256,112,85530,2,0,B|176:168|344:232|232:304,1,199.999990463257,4|0
144,192,86430,1,4
256,192,86730,1,4
368,192,87030,1,4
40,96,87330,6,0,B|120:24,1,99.9999952316285
376,32,87930,2,0,B|456:96,1,99.9999952316285
336,192,88530,2,0,B|264:112|216:264|144:184,1,199.999990463257
256,112,89430,1,0
256,192,89730,1,0
256,112,90030,1,0
256,192,90330,2,0,B|256:312,1,99.9999952316285,0|0
80,192,90930,1,4
416,192,91230,1,4
80,192,91530,1,4
256,80,91830,5,0
256,144,92130,1,0
256,208,92430,1,0
256,272,92730,1,0
168,264,93030,2,0,B|120:168|176:64,1,199.999990463257
320,176,93930,2,0,B|176:176,1,99.9999952316285
80,192,94530,5,0
192,72,94830,1,8
304,200,95130,1,0
200,328,95430,1,8
200,200,95730,2,0,B|136:224|136:224|112:192|112:192,1,99.9999952316285,0|8
112,200,96330,2,0,B|136:136|136:136|104:112|104:112,1,99.9999952316285,0|8
204,56,96930,5,2
384,40,97230,1,0
172,156,97530,1,2
368,196,97830,1,0
160,260,98130,1,2
332,360,98430,1,0
228,188,98730,2,0,B|164:180|164:180|152:148|152:148,1,99.9999952316285,0|4
188,76,99330,1,4
256,32,99630,1,4
256,112,99930,2,0,B|252:124|252:124|260:124|260:124|252:136|252:136|260:136|260:136|252:148|252:148|260:148|260:148|252:160|252:160|260:160|260:160|256:172|256:172|256:272|256:272,1,199.999990463257,4|0
352,80,100830,5,0
352,96,100980,1,0
352,112,101130,1,0
352,128,101280,1,0
352,144,101430,1,0
144,80,101730,6,0,B|144:192,1,99.9999952316285
352,184,102330,2,0,B|352:64,1,99.9999952316285
248,80,102930,2,0,B|248:192,1,99.9999952316285
160,248,103530,1,0
352,248,103830,1,0
200,304,104130,1,0
320,304,104430,1,0
260,304,104730,2,0,B|260:104,1,199.999990463257,0|4
160,88,105630,5,4
352,88,105930,1,4
424,192,106230,1,4
88,192,106530,1,0
256,304,106830,1,0
224,144,107130,2,0,B|192:184|192:184|192:240|192:240,1,99.9999952316285,0|2
288,144,107730,2,0,B|320:184|320:184|320:240|320:240,1,99.9999952316285,0|2
192,232,108330,2,0,B|160:272|160:272|160:328|160:328,1,99.9999952316285,0|2
320,232,108930,2,0,B|352:272|352:272|352:328|352:328,1,99.9999952316285,0|2
456,184,109530,5,0
360,120,109830,1,8
256,88,110130,1,0
152,120,110430,1,8
64,192,110730,1,0
40,80,111030,1,8
64,192,111330,2,0,B|88:248|88:248|152:248|152:248,1,99.9999952316285,0|8
256,192,111930,1,0
256,192,112230,1,8
256,192,112530,1,0
256,192,112830,1,8
160,192,113130,6,0,B|376:192,2,199.999990463257,0|0|4
96,192,114630,1,4
96,104,114930,1,4
96,280,115230,1,4
96,104,115530,1,4
208,192,115830,5,0
232,184,116130,1,0
256,176,116430,1,0
280,184,116730,1,0
304,192,117030,1,0
328,200,117330,1,0
352,208,117630,1,0
376,200,117930,1,0
400,192,118230,1,0
256,192,118530,12,0,120630
