osu file format v5

[General]
AudioFilename: HenesysMarket.mp3
AudioLeadIn: 0
PreviewTime: -1
Countdown: 1
SampleSet: Normal
StackLeniency: 0.7
Mode: 0
EditorBookmarks: 3294,7629,11482,15214,18947,26652,30746

[Metadata]
Title:Henesys Market
Artist:Wizet
Creator:DCtc
Version:Easy

[Difficulty]
HPDrainRate:5
CircleSize:5
OverallDifficulty:5
SliderMultiplier:1.4
SliderTickRate:1

[Events]
//Background and Video events
0,0,"maplestory_1152_qjpreviewth.jpg"
//Break Periods
//Storyboard Layer 0 (Background)
//Storyboard Layer 1 (Failing)
//Storyboard Layer 2 (Passing)
//Storyboard Layer 3 (Foreground)
//Storyboard Sound Samples
//Background Colour Transformations
3,100,163,162,255

[TimingPoints]
4017,481.616816688101,4,1,0,100

[HitObjects]
64,128,4017,5,0
192,224,4980,1,0
288,224,5943,1,0
352,160,6425,1,0
416,96,6906,1,0
96,128,7869,5,0
224,224,8833,1,0
352,128,9796,1,4
96,96,11722,5,0
416,96,12686,1,0
128,224,13649,1,0
192,224,14130,1,0
256,224,14612,1,0
96,128,15575,5,0
224,224,16539,1,0
352,128,17502,1,4
96,192,19308,6,2,B|384:192,1,280
64,96,21234,5,0
64,96,21475,1,0
160,96,22077,1,0
96,224,23161,5,0
160,192,23642,1,0
224,160,24124,1,0
320,224,24846,1,0
384,224,25087,1,4
96,192,27014,6,6,B|384:192,1,280
96,96,28940,5,0
96,96,29181,1,0
160,96,29663,1,0
160,224,30867,1,2
256,224,31348,1,2
320,224,31830,1,2
256,288,32311,1,2
320,288,32793,1,6
96,96,33997,5,0
128,96,34238,1,0
384,96,35924,1,0
416,96,36164,1,0
384,288,37850,5,0
416,288,38091,1,0
128,288,39777,1,0
160,288,40017,1,0
96,64,40499,5,0
192,192,41462,1,0
288,320,42425,1,0
352,256,42907,1,0
416,192,43389,1,0
96,320,44352,5,0
224,320,45315,1,0
352,320,46278,1,4
256,32,48205,5,0
256,128,49168,1,0
352,256,50131,1,0
256,256,50613,1,0
160,256,51095,1,0
64,320,52058,5,0
256,64,53021,1,0
416,320,53984,1,0
256,64,55911,5,0
256,128,56392,1,0
256,192,56874,1,0
160,256,57837,1,0
160,256,58078,1,0
352,224,58560,1,0
256,352,59764,5,0
256,256,60245,1,0
256,160,60727,1,0
160,256,61329,1,0
352,256,61570,1,0
64,192,63617,5,0
128,128,64098,1,0
192,192,64580,1,0
320,128,65423,1,0
352,96,65663,1,0
448,96,66145,1,0
128,256,67349,1,2
256,96,67831,1,2
416,256,68312,1,2
256,320,68794,1,2
256,192,69276,1,4
