osu file format v14

[General]
AudioFilename: Wiz Khalifa - See You Again (feat. Charlie Puth).mp3
AudioLeadIn: 0
PreviewTime: 101377
Countdown: 1
SampleSet: Soft
StackLeniency: 0.7
Mode: 0
LetterboxInBreaks: 1
WidescreenStoryboard: 0

[Editor]
Bookmarks: 39127,63127,75127,93877,102127
DistanceSpacing: 0.8
BeatDivisor: 8
GridSize: 4
TimelineZoom: 1

[Metadata]
Title:See You Again (feat. Charlie Puth)
TitleUnicode:See You Again (feat. Charlie Puth)
Artist:Wiz Khalifa
ArtistUnicode:Wiz Khalifa
Creator:Ayu
Version:Hard
Source:
Tags:
BeatmapID:761430
BeatmapSetID:344715

[Difficulty]
HPDrainRate:6
CircleSize:4
OverallDifficulty:7.5
ApproachRate:8
SliderMultiplier:2.4
SliderTickRate:1

[Events]
//Background and Video events
0,0,"wallhaven-130068.jpg",0,0
//Break Periods
//Storyboard Layer 0 (Background)
//Storyboard Layer 1 (Fail)
//Storyboard Layer 2 (Pass)
//Storyboard Layer 3 (Foreground)
//Storyboard Sound Samples

[TimingPoints]
127,750,4,2,1,60,1,0
75127,-200,4,2,2,20,0,0
102127,-100,4,2,1,60,0,1
114127,-100,4,2,1,60,0,0

[Colours]
Combo1 : 255,94,55
Combo2 : 173,255,95
Combo3 : 17,254,176
Combo4 : 255,88,100

[HitObjects]
304,296,39127,6,0,P|364:300|424:288,1,120
480,220,39689,1,0,0:0:0:0:
480,220,39783,1,0,0:0:0:0:
480,220,39877,2,0,L|484:160,1,60
380,112,40252,2,0,L|384:172,1,60
304,300,40627,5,0,0:0:0:0:
220,272,40814,1,0,0:0:0:0:
144,320,41002,2,0,P|112:328|20:316,2,120
220,272,41939,1,0,0:0:0:0:
160,136,42127,6,0,P|120:124|32:128,1,120
12,32,42689,1,0,0:0:0:0:
12,32,42783,1,0,0:0:0:0:
12,32,42877,2,0,L|72:28,1,60
112,128,43252,2,0,L|52:124,1,60
0,244,43627,5,0,0:0:0:0:
24,328,43814,1,0,0:0:0:0:
80,264,44002,2,0,P|92:200|88:136,2,120
24,328,44939,1,0,0:0:0:0:
168,224,45127,6,0,P|204:212|288:220,1,120
344,288,45689,1,0,0:0:0:0:
344,288,45783,1,0,0:0:0:0:
344,288,45877,2,0,L|336:348,1,60
432,256,46252,2,0,L|440:196,1,60
384,36,46627,5,0,0:0:0:0:
372,116,46814,1,0,0:0:0:0:
360,196,47002,2,0,P|300:204|244:188,2,120
432,164,47939,1,0,0:0:0:0:
304,76,48127,6,0,L|180:84,1,120
116,140,48689,1,0,0:0:0:0:
116,140,48783,1,0,0:0:0:0:
116,140,48877,2,0,P|100:112|96:84,1,60
200,168,49252,2,0,P|195:197|179:223,1,60
24,336,49627,5,0,0:0:0:0:
104,328,49814,1,0,0:0:0:0:
184,320,50002,2,0,P|240:328|304:352,1,120
380,344,50564,1,0,0:0:0:0:
464,340,50751,1,0,0:0:0:0:
464,340,50939,1,0,0:0:0:0:
508,200,51127,6,0,P|484:144|488:84,1,120
412,52,51689,1,0,0:0:0:0:
412,52,51783,1,0,0:0:0:0:
412,52,51877,2,0,L|400:112,1,60
316,164,52252,2,0,L|304:105,1,60
144,32,52627,5,0,0:0:0:0:
60,40,52814,1,0,0:0:0:0:
0,104,53002,2,0,P|16:160|16:232,2,120
60,40,53939,1,0,0:0:0:0:
152,156,54127,6,0,P|184:168|272:164,1,120
344,104,54689,1,0,0:0:0:0:
344,104,54783,1,0,0:0:0:0:
344,104,54877,2,0,L|408:100,1,60
440,200,55252,2,0,L|376:196,1,60
216,312,55627,5,0,0:0:0:0:
300,304,55814,1,0,0:0:0:0:
380,296,56002,2,0,P|440:300|500:324,2,120
300,304,56939,1,0,0:0:0:0:
156,256,57127,6,0,P|136:196|144:136,1,120
216,72,57689,1,0,0:0:0:0:
216,72,57783,1,0,0:0:0:0:
216,72,57877,2,0,L|276:68,1,60
352,152,58252,2,0,L|292:156,1,60
156,256,58627,5,0,0:0:0:0:
232,288,58814,1,0,0:0:0:0:
304,248,59002,2,0,P|364:252|424:232,2,120
236,204,59939,1,0,0:0:0:0:
152,336,60127,6,0,L|12:348,1,120
56,208,60689,1,0,0:0:0:0:
56,208,60783,1,0,0:0:0:0:
56,208,60877,2,0,P|76:236|84:260,1,60
152,336,61252,2,0,P|162:307|180:283,1,60
312,196,61627,5,0,0:0:0:0:
396,204,61814,1,0,0:0:0:0:
480,212,62002,2,0,P|481:243|476:272,1,60
372,348,62377,5,0,0:0:0:0:
372,348,63127,6,0,P|312:332|248:340,1,120
168,304,63689,1,0,0:0:0:0:
168,304,63783,1,0,0:0:0:0:
168,304,63877,2,0,P|136:300|112:288,1,60
176,204,64252,2,0,P|202:190|232:187,1,60
392,160,64627,5,0,0:0:0:0:
456,208,64814,1,0,0:0:0:0:
492,280,65002,2,0,P|496:312|492:344,1,60
356,316,65377,2,0,P|353:286|357:256,1,60
392,160,65752,1,0,0:0:0:0:
288,68,65939,6,0,P|264:88|176:108,1,120
104,68,66502,1,0,0:0:0:0:
24,112,66689,1,0,0:0:0:0:
88,196,66877,2,0,L|152:192,1,60
236,288,67252,1,0,0:0:0:0:
152,320,67439,2,0,L|88:316,2,60
236,288,68002,2,0,L|295:291,1,60
376,232,68377,2,0,P|392:172|384:112,1,120
336,48,68939,1,0,0:0:0:0:
204,124,69127,6,0,L|144:120,1,60
72,68,69502,1,0,0:0:0:0:
16,180,69689,1,0,0:0:0:0:
16,180,69783,1,0,0:0:0:0:
16,180,69877,2,0,P|24:208|28:248,1,60
124,288,70252,2,0,P|127:258|135:229,2,60
152,372,70814,1,0,0:0:0:0:
296,288,71002,2,0,L|288:224,1,60
109,168,71377,2,0,L|123:287,1,120
256,364,71939,5,0,0:0:0:0:
296,288,72127,2,0,P|288:252|276:228,1,60
148,284,72502,2,0,P|135:311|130:340,1,60
360,352,72877,1,0,0:0:0:0:
388,272,73064,1,0,0:0:0:0:
356,196,73252,2,0,P|331:168|308:154,1,60
132,68,73627,5,0,0:0:0:0:
132,68,73814,1,0,0:0:0:0:
192,136,74002,2,0,P|200:180|192:268,2,120
48,64,75127,6,0,L|36:248,2,180
216,32,77939,1,0,0:0:0:0:
216,32,78127,2,0,L|288:28,2,60
144,120,79252,1,0,0:0:0:0:
144,120,80752,6,0,P|152:136|160:160,1,30
232,164,81127,2,0,L|238:104,1,60
120,216,81877,2,0,L|126:275,1,60
332,220,82627,2,0,L|338:160,1,60
216,52,83377,1,0,0:0:0:0:
216,52,83752,1,0,0:0:0:0:
284,296,84127,6,0,P|300:304|352:304,1,60
332,204,84877,1,0,0:0:0:0:
156,228,85252,2,0,P|144:248|148:352,1,120
12,136,86564,6,0,L|8:100,2,30
76,192,87127,2,0,P|124:176|192:188,1,120
340,124,88252,2,0,P|388:140|456:128,2,120
292,60,89939,5,0,0:0:0:0:
292,60,90127,2,0,L|224:56,2,60
400,112,91252,1,0,0:0:0:0:
400,112,92377,6,0,P|392:144|392:176,1,60
512,128,93127,2,0,P|511:98|503:69,1,60
304,72,93877,2,0,P|296:100|295:130,1,60
480,240,94627,1,0,0:0:0:0:
480,240,95002,1,0,0:0:0:0:
316,328,95377,6,0,P|288:320|256:320,1,60
92,236,96127,1,0,0:0:0:0:
92,236,96502,1,0,0:0:0:0:
208,200,96877,1,0,0:0:0:0:
316,256,97252,2,0,P|380:264|432:240,1,120
496,76,98377,5,0,0:0:0:0:
496,76,98752,1,0,0:0:0:0:
376,60,99127,1,0,0:0:0:0:
376,60,99502,1,0,0:0:0:0:
256,88,99877,1,0,0:0:0:0:
256,88,100252,2,0,L|130:95,1,120
136,94,102127,6,0,P|124:122|120:158,2,60
212,48,102689,1,0,0:0:0:0:
212,48,102783,1,0,0:0:0:0:
212,48,102877,2,0,P|272:52|336:36,1,120
416,140,103439,1,0,0:0:0:0:
416,140,103533,1,0,0:0:0:0:
416,140,103627,2,0,P|388:132|356:132,1,60
404,232,104002,2,0,P|433:231|462:223,1,60
308,208,104377,2,0,P|244:200|172:228,1,120
132,280,104939,1,0,0:0:0:0:
24,184,105127,6,0,L|28:124,2,60
48,276,105689,1,0,0:0:0:0:
48,276,105783,1,0,0:0:0:0:
48,276,105877,2,0,P|108:288|156:324,1,120
264,232,106439,1,0,0:0:0:0:
264,232,106533,1,0,0:0:0:0:
264,232,106627,2,0,L|260:168,1,60
160,132,107002,2,0,L|156:191,1,60
276,324,107377,2,0,P|336:332|392:312,1,120
444,244,107939,1,0,0:0:0:0:
320,96,108127,6,0,P|264:88|204:112,1,120
152,180,108689,1,0,0:0:0:0:
152,180,108783,1,0,0:0:0:0:
152,180,108877,2,0,L|156:244,2,60
24,108,109439,1,0,0:0:0:0:
24,108,109533,1,0,0:0:0:0:
24,108,109627,2,0,L|28:172,2,60
76,36,110189,1,0,0:0:0:0:
224,104,110377,2,0,P|232:136|232:228,1,120
192,304,110939,1,0,0:0:0:0:
40,244,111127,6,0,P|56:216|80:196,2,60
88,328,111689,1,0,0:0:0:0:
88,328,111783,1,0,0:0:0:0:
88,328,111877,2,0,L|208:320,1,120
360,228,112439,1,0,0:0:0:0:
284,184,112627,2,0,L|223:180,1,60
216,332,113002,2,0,L|276:328,1,60
444,184,113377,5,12,1:0:0:0:
