osu file format v13

[General]
AudioFilename: MAra.mp3
AudioLeadIn: 0
PreviewTime: 720955
Countdown: 1
SampleSet: Normal
StackLeniency: 0.7
Mode: 0
LetterboxInBreaks: 1
WidescreenStoryboard: 0

[Editor]
Bookmarks: 479437,492770
DistanceSpacing: 1.5
BeatDivisor: 4
GridSize: 16
TimelineZoom: 1.7

[Metadata]
Title:The Unforgiving (Bonus Tracks)
TitleUnicode:The Unforgiving (Bonus Tracks)
Artist:Within Temptation
ArtistUnicode:Within Temptation
Creator:Armin
Version:Marathon
Source:
Tags:don't wanna dont last dance empty eyes unforgiving sharon den adel ruud metal rock symphonic orchestra
BeatmapID:480317
BeatmapSetID:203166

[Difficulty]
HPDrainRate:6
CircleSize:4
OverallDifficulty:8
ApproachRate:8
SliderMultiplier:2
SliderTickRate:1

[Events]
//Background and Video events
0,0,"Within-Tetmptation.png",0,0
//Break Periods
2,116594,129980
2,220930,223697
2,287037,308021
2,388970,397520
2,468970,470687
2,471637,473354
2,474304,476020
2,528971,535854
//Storyboard Layer 0 (Background)
//Storyboard Layer 1 (Fail)
//Storyboard Layer 2 (Pass)
//Storyboard Layer 3 (Foreground)
//Storyboard Sound Samples
//Background Colour Transformations
3,100,163,162,255

[TimingPoints]
8607,530.973451327434,4,1,1,70,1,0
17114,-66.6666666666667,4,1,1,70,0,1
34093,-66.6666666666667,4,1,1,70,0,0
85067,-50,4,1,1,70,0,1
92766,-50,4,1,1,70,0,0
114801,-66.6666666666667,4,1,1,70,0,0
165775,-50,4,1,1,70,0,1
195509,-50,4,1,1,70,0,0
231084,-66.6666666666667,4,1,1,70,0,0
233739,-50,4,1,1,70,0,1
282456,-50,4,2,1,70,0,1
286704,-50,4,2,1,70,0,0
308771,333.333333333333,4,1,1,70,1,0
356768,-80,4,1,1,70,0,1
378122,-100,4,1,1,70,0,0
420770,-74.0740740740741,4,1,1,70,0,1
429955,-54.6448087431694,4,1,1,70,0,1
431622,-100,4,1,1,70,0,1
432872,-83.3333333333333,4,1,1,70,0,1
436872,-76.9230769230769,4,1,1,70,0,1
442122,-68.9655172413793,4,1,1,70,0,0
502104,-54.054054054054,4,1,1,70,0,0
503770,-50,4,1,1,70,0,0

[Colours]
Combo1 : 223,208,30
Combo2 : 236,147,13
Combo3 : 159,0,0
Combo4 : 152,7,108
Combo5 : 40,54,219
Combo6 : 34,153,147
Combo7 : 45,206,73
Combo8 : 33,124,35
SliderBorder : 0,0,0

[HitObjects]
32,48,8607,6,0,L|32:156,1,100
107,176,9137,1,0,0:0:0:0:
187,148,9403,2,0,L|187:356,1,200
272,336,10199,1,0,0:0:0:0:
336,288,10465,2,0,P|432:304|464:208,1,200
416,160,11261,1,0,0:0:0:0:
352,112,11527,2,0,L|128:112,1,200
152,32,12323,1,0,0:0:0:0:
152,32,12589,2,0,L|352:32,1,200
424,72,13385,5,0,0:0:0:0:
488,120,13651,2,0,P|504:208|488:320,1,200
424,360,14447,2,0,P|325:344|227:361,1,200
160,320,15244,1,0,0:0:0:0:
96,272,15509,1,0,0:0:0:0:
32,224,15775,2,0,P|8:160|128:80,1,200
112,92,16438,2,0,L|124:124,2,33.3333333333333,0|0|0,0:0|0:0|0:0,0:0:0:0:
192,64,16837,1,0,0:0:0:0:
272,32,17102,5,4,0:0:0:0:
416,144,17500,1,0,0:0:0:0:
416,144,17633,1,0,0:0:0:0:
480,240,17899,1,0,0:0:0:0:
377,313,18164,2,0,P|256:390|134:313,1,300.000011444092
64,224,18960,1,0,0:0:0:0:
53,164,19093,5,0,0:0:0:0:
80,112,19226,1,0,0:0:0:0:
192,128,19491,1,0,0:0:0:0:
224,80,19624,1,0,0:0:0:0:
256,32,19757,1,0,0:0:0:0:
352,96,20022,2,0,P|464:144|416:288,1,300.000011444092
304,328,20819,2,0,B|240:280|160:328|160:328|80:376|16:328,1,300.000011444092,0|0,0:0|0:0,0:0:0:0:
96,240,21615,5,0,0:0:0:0:
138,197,21748,1,0,0:0:0:0:
154,139,21881,1,0,0:0:0:0:
256,48,22146,2,0,P|464:144|416:320,1,450.000017166138
176,368,23474,1,0,0:0:0:0:
80,304,23739,2,0,L|80:128,1,150.000005722046
194,147,24270,2,0,P|255:39|316:147,1,300.000011444092
256,112,24934,1,0,0:0:0:0:
256,160,25067,1,0,0:0:0:0:
256,208,25199,1,0,0:0:0:0:
256,256,25332,1,0,0:0:0:0:
368,352,25598,5,4,0:0:0:0:
464,208,25996,1,0,0:0:0:0:
464,208,26129,2,0,P|448:144|384:80,1,150.000005722046
336,192,26660,2,0,P|189:193|132:68,2,300.000011444092,0|0|0,0:0|0:0|0:0,0:0:0:0:
368,307,27987,1,0,0:0:0:0:
314,335,28120,1,0,0:0:0:0:
254,343,28253,1,0,0:0:0:0:
148,287,28518,2,0,P|76:224|43:29,1,300.000011444092
160,48,29314,1,0,0:0:0:0:
256,128,29580,2,0,P|386:113|405:252,1,300.000011444092,0|0,0:0|0:0,0:0:0:0:
336,352,30376,5,0,0:0:0:0:
256,256,30642,2,0,P|176:320|96:80,1,450.000017166138,0|0,0:0|0:0,0:0:0:0:
304,48,31969,1,0,0:0:0:0:
368,144,32235,1,0,0:0:0:0:
417,173,32368,1,0,0:0:0:0:
467,202,32500,1,0,0:0:0:0:
448,320,32766,2,0,B|384:272|304:320|304:320|224:368|160:320,2,300.000011444092,0|0|0,0:0|0:0|0:0,0:0:0:0:
448,320,33960,1,0,0:0:0:0:
448,320,34093,1,0,0:0:0:0:
448,192,34359,5,0,0:0:0:0:
400,96,34624,2,0,P|336:128|256:80,1,150.000005722046
176,160,35155,2,0,P|96:128|64:288,1,300.000011444092
160,352,35952,2,0,L|480:352,1,300.000011444092
431,235,36748,1,0,0:0:0:0:
431,235,37014,2,0,B|488:156|410:78|333:117|333:117|294:137|255:117|255:20|255:20|255:117|216:137|177:117|177:117|99:78|23:156|60:235,1,750.000028610231
256,368,38872,5,0,0:0:0:0:
352,296,39137,1,0,0:0:0:0:
312,184,39403,1,0,0:0:0:0:
200,184,39668,1,0,0:0:0:0:
160,296,39934,1,0,0:0:0:0:
83,203,40199,2,0,B|35:124|51:61|114:30|161:61|161:108|130:93|130:93|98:77|114:45|145:14|192:-1|240:14|255:60|255:60|271:14|318:-1|365:14|397:45|412:77|381:93|381:93|350:108|350:61|397:30|460:61|475:124|428:203,1,900.000034332277,0|0,0:0|0:0,0:0:0:0:
352,296,42058,1,0,0:0:0:0:
248,360,42323,1,0,0:0:0:0:
192,336,42456,1,0,0:0:0:0:
136,312,42589,1,0,0:0:0:0:
32,256,42854,6,0,P|64:192|24:128,1,150.000005722046
104,40,43385,1,0,0:0:0:0:
192,120,43651,2,0,P|304:32|408:120,1,300.000011444092
464,224,44447,1,0,0:0:0:0:
256,352,44978,1,0,0:0:0:0:
160,280,45244,2,0,P|64:256|208:72,1,450.000017166138
272,152,46306,2,0,P|408:176|448:40,1,300.000011444092
256,192,47102,12,0,50022,0:0:0:0:
80,48,50421,5,0,0:0:0:0:
48,96,50553,1,0,0:0:0:0:
160,128,50819,1,0,0:0:0:0:
272,80,51084,2,0,P|344:96|424:80,1,150.000005722046,4|0,0:0|0:0,0:0:0:0:
464,192,51615,2,0,L|464:352,1,150.000005722046
344,328,52146,2,0,P|240:368|192:216,1,300.000011444092
296,176,52943,2,0,P|270:43|138:70,1,300.000011444092
32,128,53739,1,0,0:0:0:0:
136,192,54005,2,0,P|216:360|432:224,1,450.000017166138
464,160,55067,5,0,0:0:0:0:
400,48,55332,2,0,L|96:48,1,300.000011444092,0|0,0:0|0:0,0:0:0:0:
32,144,56129,2,0,L|352:144,2,300.000011444092,0|0|0,0:0|0:0|0:0,0:0:0:0:
80,256,57456,2,0,L|384:256,2,300.000011444092,0|0|0,0:0|0:0|0:0,0:0:0:0:
144,352,58783,1,0,0:0:0:0:
208,368,58916,1,0,0:0:0:0:
272,352,59049,1,0,0:0:0:0:
384,288,59314,1,0,0:0:0:0:
480,224,59580,2,0,L|480:64,1,150.000005722046
368,32,60111,6,0,L|368:192,1,150.000005722046
251,153,60642,2,0,P|139:69|27:153,1,300.000011444092
28,273,61438,2,0,P|139:357|251:273,1,300.000011444092
352,336,62235,2,0,L|488:48,1,300.000011444092
360,88,63031,1,0,0:0:0:0:
256,24,63297,2,0,L|127:295,2,300.000011444092,0|0|0,0:0|0:0|0:0,0:0:0:0:
256,192,64491,12,0,66483,0:0:0:0:
80,40,67014,5,0,0:0:0:0:
104,72,67146,1,0,0:0:0:0:
96,104,67279,1,0,0:0:0:0:
72,136,67412,1,0,0:0:0:0:
48,160,67545,1,0,0:0:0:0:
40,200,67677,1,0,0:0:0:0:
56,232,67810,1,0,0:0:0:0:
96,256,67943,1,0,0:0:0:0:
128,272,68076,6,0,L|280:272,1,150.000005722046
336,376,68607,2,0,L|184:376,1,150.000005722046
400,272,69137,2,0,P|484:161|400:49,1,300.000011444092
336,152,69934,2,0,B|272:104|192:152|192:152|112:200|48:152,1,300.000011444092,0|0,0:0|0:0,0:0:0:0:
112,48,70730,2,0,P|152:256|104:336,1,300.000011444092
256,344,71527,5,0,0:0:0:0:
256,224,71792,1,0,0:0:0:0:
256,104,72058,1,0,0:0:0:0:
400,48,72323,2,0,P|360:256|408:336,2,300.000011444092,0|0|0,0:0|0:0|0:0,0:0:0:0:
280,64,73651,2,0,L|120:64,1,150.000005722046
64,168,74182,1,0,0:0:0:0:
184,192,74447,6,0,P|258:295|322:188,1,300.000011444092
408,128,75244,2,0,B|432:272|432:272|384:354|322:387,1,300.000011444092
183,383,76040,2,0,B|128:354|80:272|80:272|104:128,1,300.000011444092,0|4,0:0|0:0,0:0:0:0:
200,48,76837,6,0,B|240:80|256:120|256:120|256:184,1,150.000005722046
312,48,77368,2,0,B|272:80|256:120|256:120|256:184,1,150.000005722046
48,304,78164,1,4,0:0:0:0:
160,264,78430,2,0,P|272:348|384:264,1,300.000011444092
488,208,79226,2,0,P|377:124|265:208,1,300.000011444092,0|4,0:0|0:0,0:0:0:0:
192,115,80022,1,0,0:0:0:0:
128,24,80288,1,0,0:0:0:0:
40,248,80819,1,4,0:0:0:0:
256,192,81350,2,0,B|256:80|256:80|128:80|80:144|92:308|112:336|261:459|400:320|416:288|448:144|325:80,1,900.000034332277
438,36,83208,5,0,0:0:0:0:
467,89,83341,1,0,0:0:0:0:
484,209,83607,1,0,0:0:0:0:
464,272,83739,1,0,0:0:0:0:
384,368,84005,1,0,0:0:0:0:
288,288,84270,1,0,0:0:0:0:
224,272,84403,1,0,0:0:0:0:
160,256,84536,1,0,0:0:0:0:
32,304,84801,1,0,0:0:0:0:
64,176,85067,5,0,0:0:0:0:
240,64,85332,1,0,0:0:0:0:
336,96,85465,1,0,0:0:0:0:
432,128,85598,1,0,0:0:0:0:
448,304,85863,1,0,0:0:0:0:
352,272,85996,1,0,0:0:0:0:
256,240,86129,1,0,0:0:0:0:
80,352,86394,5,0,0:0:0:0:
64,256,86527,1,0,0:0:0:0:
48,160,86660,1,0,0:0:0:0:
208,48,86925,1,0,0:0:0:0:
400,144,87191,2,0,P|360:326|175:339,1,400
111,239,87987,2,0,P|151:57|337:44,1,400
256,192,88783,5,0,0:0:0:0:
368,352,89049,2,0,L|480:176,1,200
368,32,89580,1,0,0:0:0:0:
304,112,89713,1,0,0:0:0:0:
256,192,89845,1,0,0:0:0:0:
48,208,90111,1,0,0:0:0:0:
96,128,90244,1,0,0:0:0:0:
160,48,90376,1,0,0:0:0:0:
181,223,90642,2,0,P|255:278|329:223,1,200
144,352,91173,5,0,0:0:0:0:
368,352,91438,1,0,0:0:0:0:
256,192,91704,1,0,0:0:0:0:
320,112,91837,1,0,0:0:0:0:
400,64,91969,1,0,0:0:0:0:
256,192,92235,1,0,0:0:0:0:
192,112,92368,1,0,0:0:0:0:
96,64,92500,1,0,0:0:0:0:
160,352,92766,2,0,L|432:352,3,200,0|0|0|4,0:0|0:0|0:0|0:0,0:0:0:0:
464,176,93828,5,0,0:0:0:0:
401,96,93960,1,0,0:0:0:0:
338,17,94093,1,0,0:0:0:0:
167,62,94359,1,0,0:0:0:0:
230,141,94491,1,0,0:0:0:0:
293,221,94624,1,0,0:0:0:0:
160,368,94890,1,0,0:0:0:0:
97,288,95022,1,0,0:0:0:0:
34,209,95155,1,0,0:0:0:0:
256,192,95421,5,0,0:0:0:0:
406,259,95686,2,0,P|256:370|107:259,1,400
106,125,96483,2,0,P|255:13|404:125,1,400
404,315,97279,1,0,0:0:0:0:
404,315,97545,2,0,B|404:284|359:278|345:307|345:307|332:337|298:337|286:307|286:307|274:278|239:278|226:307|226:307|215:337|179:337|168:307|168:307|152:278|109:284|109:316,1,400,0|0,0:0|0:0,0:0:0:0:
109,316,98341,1,0,0:0:0:0:
32,128,98607,5,0,0:0:0:0:
112,80,98739,1,0,0:0:0:0:
208,32,98872,1,0,0:0:0:0:
336,192,99137,2,0,P|410:137|484:192,1,200
288,304,99668,2,0,P|214:359|140:304,1,200
288,176,100199,1,0,0:0:0:0:
368,128,100332,1,0,0:0:0:0:
448,80,100465,1,0,0:0:0:0:
448,288,100730,5,0,0:0:0:0:
368,336,100863,1,0,0:0:0:0:
272,320,100996,1,0,0:0:0:0:
192,256,101129,1,0,0:0:0:0:
160,160,101261,1,0,0:0:0:0:
160,64,101394,1,0,0:0:0:0:
64,32,101527,1,0,0:0:0:0:
0,112,101660,1,0,0:0:0:0:
48,192,101792,1,0,0:0:0:0:
96,272,101925,1,0,0:0:0:0:
32,352,102058,1,4,0:0:0:0:
256,288,102323,5,0,0:0:0:0:
352,256,102456,1,0,0:0:0:0:
432,304,102589,1,0,0:0:0:0:
480,112,102854,1,0,0:0:0:0:
380,127,102987,1,0,0:0:0:0:
320,48,103120,1,0,0:0:0:0:
320,48,103385,5,0,0:0:0:0:
256,128,103518,1,0,0:0:0:0:
208,48,103651,1,0,0:0:0:0:
48,160,103916,1,0,0:0:0:0:
176,320,104182,2,0,P|320:352|448:160,1,400
256,128,104978,2,0,P|80:128|64:368,1,400
208,240,105775,5,0,0:0:0:0:
301,331,106040,2,0,B|342:299|394:331|394:331|445:362|487:331,1,200,0|0,0:0|0:0,0:0:0:0:
336,128,106571,1,0,0:0:0:0:
254,69,106704,1,0,0:0:0:0:
154,56,106837,1,0,0:0:0:0:
48,208,107102,2,0,B|131:145|234:208|234:208|338:270|421:208,2,400,0|0|0,0:0|0:0|0:0,0:0:0:0:
144,336,108430,5,0,0:0:0:0:
352,336,108695,1,0,0:0:0:0:
336,240,108828,1,0,0:0:0:0:
336,144,108960,1,0,0:0:0:0:
160,48,109226,1,0,0:0:0:0:
176,144,109359,1,0,0:0:0:0:
176,240,109491,1,0,0:0:0:0:
368,48,109757,1,0,0:0:0:0:
430,126,109890,5,0,0:0:0:0:
425,225,110022,1,0,0:0:0:0:
376,312,110155,1,0,0:0:0:0:
282,347,110288,1,0,0:0:0:0:
183,328,110421,1,0,0:0:0:0:
102,269,110553,2,0,P|90:154|156:64,1,200,4|0,0:0|0:0,0:0:0:0:
219,35,110952,1,0,0:0:0:0:
318,33,111084,2,0,B|427:44|441:175,1,200
407,264,111483,1,0,0:0:0:0:
335,332,111615,2,0,P|188:332|137:291,1,200
64,128,112146,5,0,0:0:0:0:
240,160,112412,1,0,0:0:0:0:
336,128,112545,1,0,0:0:0:0:
432,96,112677,2,0,B|448:288|448:288|352:368|240:352,1,400
80,288,113474,2,0,B|64:96|64:96|160:16|272:32,1,400
256,128,114137,1,0,0:0:0:0:
336,192,114270,1,0,0:0:0:0:
304,288,114403,1,0,0:0:0:0:
208,288,114536,1,0,0:0:0:0:
176,192,114668,1,0,0:0:0:0:
256,128,114801,5,4,0:0:0:0:
256,192,114934,12,0,116394,0:0:0:0:
416,128,130730,5,0,0:0:0:0:
432,352,131129,1,0,0:0:0:0:
480,288,131261,1,0,0:0:0:0:
352,256,131527,1,0,0:0:0:0:
240,304,131792,2,0,P|168:288|88:304,1,150.000005722046,4|0,0:0|0:0,0:0:0:0:
48,192,132323,2,0,L|48:32,1,150.000005722046
168,56,132854,2,0,P|272:16|320:168,1,300.000011444092
216,208,133651,2,0,P|242:341|374:314,1,300.000011444092
480,256,134447,5,0,0:0:0:0:
352,160,134713,1,0,0:0:0:0:
240,80,134978,2,0,P|128:48|16:96,1,225.000008583069
48,160,135509,2,0,L|48:320,1,150.000005722046
208,304,136040,2,0,P|320:388|432:304,1,300.000011444092
431,153,136837,2,0,P|319:69|207:153,2,300.000011444092,0|0|0,0:0|0:0|0:0,0:0:0:0:
400,224,138031,1,0,0:0:0:0:
352,288,138164,2,0,B|288:240|208:288|208:288|128:336|64:288,2,300.000011444092,0|0|0,0:0|0:0|0:0,0:0:0:0:
336,144,139491,1,0,0:0:0:0:
288,96,139624,1,0,0:0:0:0:
240,48,139757,1,0,0:0:0:0:
128,96,140022,1,0,0:0:0:0:
32,160,140288,2,0,L|32:320,1,150.000005722046
144,352,140819,6,0,L|144:192,1,150.000005722046
261,231,141350,2,0,P|373:315|485:231,1,300.000011444092
484,111,142146,2,0,P|373:27|261:111,1,300.000011444092
160,48,142943,2,0,L|24:336,1,300.000011444092
152,296,143739,1,0,0:0:0:0:
256,360,144005,2,0,L|385:89,2,300.000011444092,0|0|0,0:0|0:0|0:0,0:0:0:0:
256,192,145199,12,0,147191,0:0:0:0:
96,80,147722,6,0,L|64:160,2,75.0000028610231,0|0|0,0:0|0:0|0:0,0:0:0:0:
145,182,148120,2,0,L|160:256,2,75.0000028610231,0|0|0,0:0|0:0|0:0,0:0:0:0:
240,176,148518,2,0,L|304:224,2,75.0000028610231,0|0|4,0:0|0:0|0:0,0:0:0:0:
320,48,149049,5,0,0:0:0:0:
464,96,149314,2,0,L|464:256,1,150.000005722046
352,352,149845,2,0,P|208:336|48:352,1,300.000011444092
64,208,150642,2,0,L|400:208,1,300.000011444092
352,64,151438,2,0,P|208:80|48:64,1,300.000011444092,0|0,0:0|0:0,0:0:0:0:
64,208,152235,1,0,0:0:0:0:
160,336,152500,2,0,L|336:336,1,150.000005722046
448,272,153031,2,0,P|364:161|448:49,1,300.000011444092
48,160,154093,6,0,P|89:215|48:271,1,150.000005722046
176,352,154624,1,0,0:0:0:0:
256,224,154890,1,0,0:0:0:0:
368,128,155155,2,0,P|400:48|416:160,1,300.000011444092
295,243,155952,2,0,P|308:322|239:233,1,300.000011444092
144,128,156748,2,0,P|112:48|96:160,1,300.000011444092
144,304,157545,5,0,0:0:0:0:
272,224,157810,2,0,L|432:224,1,150.000005722046
512,352,158341,2,0,L|208:352,1,300.000011444092,0|4,0:0|0:0,0:0:0:0:
64,320,159137,2,0,B|16:256|64:176|64:176|112:96|64:32,1,300.000011444092,0|0,0:0|0:0,0:0:0:0:
224,32,159934,2,0,B|400:32|400:32|496:128|496:128,1,300.000011444092,0|4,0:0|0:0,0:0:0:0:
448,240,160730,1,0,0:0:0:0:
292,259,160996,2,0,P|305:179|236:268,1,300.000011444092,0|4,0:0|0:0,0:0:0:0:
368,63,162058,2,0,P|409:305|199:35,1,900.000034332277
256,192,163916,5,0,0:0:0:0:
256,192,164049,1,0,0:0:0:0:
256,192,164314,1,0,0:0:0:0:
256,192,164447,1,0,0:0:0:0:
256,192,164713,1,0,0:0:0:0:
256,192,164978,5,0,0:0:0:0:
256,192,165244,1,0,0:0:0:0:
256,192,165509,1,0,0:0:0:0:
256,192,165775,1,4,0:0:0:0:
416,320,166040,5,0,0:0:0:0:
416,320,166173,1,0,0:0:0:0:
416,320,166306,1,0,0:0:0:0:
256,48,166571,1,0,0:0:0:0:
256,48,166837,1,0,0:0:0:0:
96,320,167102,1,0,0:0:0:0:
96,320,167235,1,0,0:0:0:0:
96,320,167368,1,0,0:0:0:0:
48,80,167633,1,0,0:0:0:0:
256,192,167899,1,0,0:0:0:0:
464,80,168164,1,0,0:0:0:0:
464,80,168297,1,0,0:0:0:0:
464,80,168430,1,0,0:0:0:0:
416,320,168695,5,0,0:0:0:0:
208,192,168960,1,0,0:0:0:0:
416,96,169226,1,0,0:0:0:0:
416,96,169359,1,0,0:0:0:0:
416,96,169491,1,0,0:0:0:0:
368,304,169757,1,0,0:0:0:0:
160,192,170022,1,0,0:0:0:0:
368,64,170288,1,0,0:0:0:0:
368,64,170421,1,0,0:0:0:0:
368,64,170553,1,0,0:0:0:0:
320,320,170819,1,0,0:0:0:0:
320,320,170952,1,0,0:0:0:0:
320,320,171084,1,0,0:0:0:0:
112,192,171350,5,0,0:0:0:0:
112,192,171483,1,0,0:0:0:0:
112,192,171615,1,0,0:0:0:0:
320,48,171881,1,0,0:0:0:0:
256,272,172146,2,0,L|64:352,1,200
32,240,172545,1,0,0:0:0:0:
32,128,172677,2,0,L|216:51,1,200
448,112,173208,6,0,L|448:320,1,200
336,352,173607,2,0,L|336:240,1,100
240,176,173872,2,0,L|240:288,1,100
144,192,174137,2,0,L|144:80,1,100,0|4,0:0|0:0,0:0:0:0:
48,304,174536,1,0,0:0:0:0:
48,304,174668,1,0,0:0:0:0:
48,304,174801,1,0,0:0:0:0:
160,352,175067,6,0,L|384:352,1,200
464,144,175598,1,0,0:0:0:0:
464,144,175730,1,0,0:0:0:0:
464,144,175863,2,0,L|256:144,1,200
64,272,176394,2,0,L|64:48,1,200
160,128,176792,1,0,0:0:0:0:
272,160,176925,2,0,L|496:160,1,200
304,352,177456,2,0,L|80:352,1,200
32,240,177854,2,0,L|32:128,1,100
256,80,178253,6,0,L|256:320,1,200
464,368,178783,2,0,L|464:256,1,100
348,191,179049,2,0,B|307:159|255:191|255:191|204:222|162:191,1,200,0|0,0:0|0:0,0:0:0:0:
144,80,179447,2,0,L|16:80,1,100
64,320,179845,1,0,0:0:0:0:
64,320,179978,1,0,0:0:0:0:
64,320,180111,1,0,0:0:0:0:
256,192,180376,5,0,0:0:0:0:
448,48,180642,2,0,L|448:256,1,200
368,336,181040,1,0,0:0:0:0:
256,32,181173,2,0,L|256:240,1,200
144,320,181571,1,0,0:0:0:0:
64,32,181704,2,0,L|64:232,1,200
160,96,182102,6,0,L|288:96,1,100
240,208,182368,2,0,L|368:208,1,100
320,320,182633,2,0,L|448:320,1,100,0|4,0:0|0:0,0:0:0:0:
464,80,183031,5,0,0:0:0:0:
464,80,183164,1,0,0:0:0:0:
464,80,183297,1,0,0:0:0:0:
208,112,183562,2,0,P|134:56|59:112,1,200
304,272,184093,1,0,0:0:0:0:
304,272,184226,1,0,0:0:0:0:
304,272,184359,2,0,P|377:327|452:272,1,200
256,26,184890,2,0,B|311:63|311:109|311:155|256:192|256:192|200:228|200:274|200:320|256:357,1,400
256,26,185686,2,0,B|200:63|200:109|200:155|256:192|256:192|311:228|311:274|311:320|256:357,1,400
464,144,186483,5,0,0:0:0:0:
330,335,186748,2,0,P|256:279|181:335,1,200
32,144,187279,1,0,0:0:0:0:
144,192,187412,1,0,0:0:0:0:
32,256,187545,1,0,0:0:0:0:
176,64,187810,2,0,P|324:176|473:64,2,400,0|0|0,0:0|0:0|0:0,0:0:0:0:
160,304,189137,5,0,0:0:0:0:
160,304,189403,2,0,L|288:352,1,100
368,368,189668,2,0,L|448:160,1,200
373,74,190067,1,0,0:0:0:0:
373,74,190199,2,0,L|301:260,1,200
240,160,190598,6,0,P|224:96|192:64,1,100
112,144,190863,2,0,P|80:128|16:128,1,100
64,240,191129,2,0,P|32:256|0:320,1,100,0|4,0:0|0:0,0:0:0:0:
240,352,191527,2,0,L|368:336,1,100
256,256,191792,2,0,L|496:224,1,200
480,112,192191,1,0,0:0:0:0:
400,48,192323,2,0,L|201:74,1,200
80,48,192722,5,0,0:0:0:0:
117,161,192854,2,0,B|118:227|156:252|195:277|256:251|256:251|316:224|355:249|394:274|394:341,2,400,0|0|0,0:0|0:0|0:0,0:0:0:0:
335,59,194182,1,0,0:0:0:0:
477,251,194447,1,0,0:0:0:0:
397,341,194580,2,0,L|276:312,1,100
206,241,194845,1,0,0:0:0:0:
306,175,194978,1,0,0:0:0:0:
335,58,195111,2,0,L|237:81,2,100,0|0|0,0:0|0:0|0:0,0:0:0:0:
395,161,195509,6,0,B|393:227|355:252|316:277|255:251|255:251|195:224|156:249|117:274|117:341,2,400,4|4|4,0:0|0:0|0:0,0:0:0:0:
208,48,196837,1,0,0:0:0:0:
144,144,196969,2,4,L|45:97,1,100
144,320,197368,1,0,0:0:0:0:
368,224,197633,1,4,0:0:0:0:
144,144,197899,1,0,0:0:0:0:
256,96,198031,1,0,0:0:0:0:
352,32,198164,1,4,0:0:0:0:
368,320,198430,5,0,0:0:0:0:
144,224,198695,1,4,0:0:0:0:
368,144,198960,1,0,0:0:0:0:
256,96,199093,1,0,0:0:0:0:
160,32,199226,1,4,0:0:0:0:
48,240,199491,6,0,L|80:336,1,100
176,272,199757,2,0,P|250:216|325:272,1,200,4|0,0:0|0:0,0:0:0:0:
432,334,200155,2,0,L|464:240,1,100,0|4,0:0|0:0,0:0:0:0:
368,32,200553,1,0,0:0:0:0:
256,32,200686,1,0,0:0:0:0:
144,32,200819,1,4,0:0:0:0:
144,352,201084,1,0,0:0:0:0:
256,352,201217,1,0,0:0:0:0:
368,352,201350,1,4,0:0:0:0:
464,32,201615,5,0,0:0:0:0:
48,32,201881,2,0,P|40:208|136:328,1,300,4|0,0:0|0:0,0:0:0:0:
292,259,202412,2,0,P|305:179|236:268,1,300.000011444092,4|4,0:0|0:0,0:0:0:0:
405,305,202943,2,0,P|480:178|464:32,1,300,4|0,0:0|0:0,0:0:0:0:
360,104,203474,1,0,0:0:0:0:
256,40,203607,1,0,0:0:0:0:
160,104,203739,1,0,0:0:0:0:
200,208,203872,1,0,0:0:0:0:
320,208,204005,1,4,0:0:0:0:
93,285,204270,5,0,0:0:0:0:
93,285,204403,1,0,0:0:0:0:
181,329,204536,2,0,P|255:385|330:329,1,200,0|0,0:0|0:0,0:0:0:0:
419,284,204934,1,0,0:0:0:0:
419,285,205067,1,0,0:0:0:0:
359,52,205332,6,0,L|453:120,1,100
336,170,205598,2,0,B|256:111|256:111|175:170,3,200,0|0|0|0,0:0|0:0|0:0|0:0,0:0:0:0:
71,110,206527,2,0,L|153:52,1,100
32,272,206925,2,0,B|81:256|118:305|118:305|155:352|205:338,1,200,0|0,0:0|0:0,0:0:0:0:
480,272,207456,2,0,B|430:256|393:305|393:305|356:352|306:338,1,200,0|0,0:0|0:0,0:0:0:0:
432,144,207987,2,0,B|432:80|368:64|304:80|304:144|304:160|304:160|304:192|304:224|256:256|208:224|208:192|208:160|208:160|208:144|208:80|144:64|80:80|80:144,1,600
192,352,209049,5,0,0:0:0:0:
304,320,209182,2,0,L|448:320,1,100
415,75,209580,1,0,0:0:0:0:
256,192,209845,1,0,0:0:0:0:
95,310,210111,1,0,0:0:0:0:
112,60,210376,6,0,B|175:92|239:60|255:44|255:13|255:44|270:60|334:92|397:60,1,300,4|0,0:0|0:0,0:0:0:0:
390,187,210907,2,0,B|288:187|288:187|255:153|255:153|221:187|221:187|119:187,1,300
96,304,211438,1,0,0:0:0:0:
210,283,211571,2,0,B|240:283|256:268|256:268|271:283|301:283,1,100
416,304,211837,1,0,0:0:0:0:
308,369,211969,2,0,L|196:369,1,100
96,305,212235,5,0,0:0:0:0:
49,203,212368,1,0,0:0:0:0:
17,91,212500,2,0,L|289:91,1,200,4|0,0:0|0:0,0:0:0:0:
337,59,212899,1,0,0:0:0:0:
449,11,213031,1,0,0:0:0:0:
465,283,213297,1,0,0:0:0:0:
353,347,213430,2,0,L|225:347,1,100
177,123,213828,6,0,B|128:224|128:224|80:224|48:192,1,200
335,261,214359,2,0,B|384:160|384:160|432:160|464:192,1,200
256,64,214890,2,0,B|215:32|163:64|163:64|112:95|70:64,1,200,0|0,0:0|0:0,0:0:0:0:
256,320,215421,2,0,B|297:352|349:320|349:320|400:289|442:320,1,200,0|0,0:0|0:0,0:0:0:0:
480,208,215819,1,0,0:0:0:0:
400,120,215952,2,0,L|368:8,1,100
320,144,216217,2,0,L|240:80,1,100
256,208,216483,2,0,L|144:160,1,100
248,296,216748,1,4,0:0:0:0:
256,192,216881,12,4,218341,0:0:0:0:
256,192,218607,5,0,0:0:0:0:
256,96,220465,5,4,0:0:0:0:
256,96,220730,1,0,0:0:0:0:
256,288,224447,5,0,0:0:0:0:
256,288,224713,1,4,0:0:0:0:
256,288,224978,1,0,0:0:0:0:
256,192,226837,5,4,0:0:0:0:
256,192,227102,1,0,0:0:0:0:
256,96,228960,5,0,0:0:0:0:
256,96,229226,1,4,0:0:0:0:
64,320,231084,5,4,0:0:0:0:
64,320,231350,2,0,P|144:240|272:256,1,250.000009536744
336,304,231969,2,0,P|416:320|448:304,1,100.000003814697
480,240,232323,1,0,0:0:0:0:
432,176,232500,1,0,0:0:0:0:
416,96,232677,2,0,P|352:48|288:64,1,150.000005722046
256,80,233031,1,0,0:0:0:0:
224,80,233120,1,0,0:0:0:0:
192,64,233208,1,0,0:0:0:0:
160,48,233297,1,0,0:0:0:0:
128,48,233385,1,0,0:0:0:0:
96,64,233474,1,0,0:0:0:0:
80,96,233562,1,0,0:0:0:0:
48,128,233651,1,0,0:0:0:0:
16,128,233739,1,4,0:0:0:0:
144,336,234005,5,0,0:0:0:0:
256,304,234137,2,0,L|352:352,1,100
480,144,234536,5,0,0:0:0:0:
368,176,234668,1,0,0:0:0:0:
259,123,234801,2,0,P|163:107|115:187,1,200
139,297,235199,1,0,0:0:0:0:
28,254,235332,1,0,0:0:0:0:
256,304,235598,1,0,0:0:0:0:
410,121,235863,2,0,B|373:176|327:176|281:176|244:121|244:121|208:65|162:65|116:65|79:121,1,400
79,121,236660,2,0,B|116:176|162:176|208:176|244:121|244:121|281:65|327:65|373:65|410:121,1,400
160,56,237456,5,0,0:0:0:0:
128,296,237722,1,0,0:0:0:0:
352,216,237987,1,0,0:0:0:0:
200,32,238253,1,0,0:0:0:0:
200,32,238385,1,0,0:0:0:0:
200,32,238518,1,0,0:0:0:0:
168,272,238783,1,0,0:0:0:0:
168,272,238916,1,0,0:0:0:0:
168,272,239049,1,0,0:0:0:0:
400,200,239314,1,0,0:0:0:0:
400,200,239447,1,0,0:0:0:0:
400,200,239580,1,0,0:0:0:0:
192,80,239845,6,0,B|151:48|99:80|99:80|48:111|6:80,1,200,0|0,0:0|0:0,0:0:0:0:
256,192,240376,1,0,0:0:0:0:
256,192,240509,1,0,0:0:0:0:
256,192,240642,2,0,B|297:160|349:192|349:192|400:223|442:192,1,200,0|0,0:0|0:0,0:0:0:0:
256,344,241173,2,0,B|215:312|163:344|163:344|112:375|70:344,1,200,0|0,0:0|0:0,0:0:0:0:
24,232,241571,1,0,0:0:0:0:
104,144,241704,2,0,L|104:40,1,100
208,96,241969,1,0,0:0:0:0:
208,216,242102,1,0,0:0:0:0:
304,152,242235,2,0,P|400:160|408:248,1,200
488,344,242633,1,0,0:0:0:0:
368,360,242766,1,0,0:0:0:0:
160,312,243031,6,0,P|64:304|56:216,1,200
208,32,243562,2,0,L|80:56,1,100
168,160,243828,2,0,L|384:120,1,200
456,344,244359,1,0,0:0:0:0:
216,360,244624,1,0,0:0:0:0:
192,248,244757,1,0,0:0:0:0:
304,280,244890,1,0,0:0:0:0:
72,208,245155,2,0,P|48:112|272:96,1,400
472,216,245952,5,0,0:0:0:0:
296,360,246217,1,0,0:0:0:0:
208,280,246350,1,0,0:0:0:0:
320,248,246483,1,4,0:0:0:0:
88,296,246748,2,0,L|48:96,1,200
280,48,247279,1,0,0:0:0:0:
280,48,247412,1,0,0:0:0:0:
280,48,247545,2,0,L|319:244,1,200
488,72,248076,1,0,0:0:0:0:
496,312,248341,1,0,0:0:0:0:
256,360,248607,6,0,L|128:344,1,100,0|0,0:0|0:0,0:0:0:0:
256,280,248872,2,0,L|384:264,1,100
256,200,249137,2,0,L|128:184,1,100,0|0,0:0|0:0,0:0:0:0:
256,120,249403,2,0,L|376:104,1,100
256,40,249668,2,0,L|128:24,1,100,0|0,0:0|0:0,0:0:0:0:
72,112,249934,1,0,0:0:0:0:
64,232,250067,1,0,0:0:0:0:
136,328,250199,1,0,0:0:0:0:
256,352,250332,1,0,0:0:0:0:
376,328,250465,1,0,0:0:0:0:
448,232,250598,1,0,0:0:0:0:
440,112,250730,1,4,0:0:0:0:
256,192,250996,5,0,0:0:0:0:
256,192,251129,1,0,0:0:0:0:
256,192,251261,1,0,0:0:0:0:
32,352,251527,1,0,0:0:0:0:
256,192,251792,1,0,0:0:0:0:
40,80,252058,1,0,0:0:0:0:
120,184,252191,1,0,0:0:0:0:
144,320,252323,1,0,0:0:0:0:
256,40,252589,5,0,0:0:0:0:
256,344,252854,1,4,0:0:0:0:
472,80,253120,1,0,0:0:0:0:
400,184,253253,1,0,0:0:0:0:
368,320,253385,1,0,0:0:0:0:
168,48,253651,2,0,B|217:32|254:81|254:81|291:128|341:114,1,200,0|0,0:0|0:0,0:0:0:0:
256,344,254182,1,0,0:0:0:0:
344,48,254447,2,0,B|295:32|258:81|258:81|221:128|171:114,1,200,0|0,0:0|0:0,0:0:0:0:
67,284,254978,6,0,L|267:348,1,200
163,228,255376,2,0,L|51:188,1,100
312,56,255775,2,0,P|386:112|461:56,1,200,0|0,0:0|0:0,0:0:0:0:
320,320,256306,1,0,0:0:0:0:
320,320,256438,1,0,0:0:0:0:
320,320,256571,2,0,P|246:264|171:320,1,200,0|0,0:0|0:0,0:0:0:0:
32,56,257102,6,0,L|248:56,1,200
200,192,257500,1,0,0:0:0:0:
344,152,257633,2,0,P|440:200|512:144,1,200
504,304,258031,1,0,0:0:0:0:
368,360,258164,2,0,L|264:328,1,100
120,344,258430,2,0,L|168:240,1,100
128,104,258695,2,0,L|224:168,1,100
352,120,258960,2,0,L|320:224,2,100,0|0|0,0:0|0:0|0:0,0:0:0:0:
72,224,259491,6,0,P|64:272|80:328,1,100
184,216,259757,2,0,P|168:120|80:96,1,200
256,344,260288,1,0,0:0:0:0:
440,160,260553,2,0,P|448:112|432:56,1,100
328,168,260819,2,0,P|344:264|432:288,1,200
256,40,261350,5,0,0:0:0:0:
40,248,261615,1,0,0:0:0:0:
64,120,261748,1,0,0:0:0:0:
168,208,261881,2,0,B|217:192|254:241|254:241|291:288|341:274,1,200,0|0,0:0|0:0,0:0:0:0:
256,40,262412,1,0,0:0:0:0:
472,248,262677,1,0,0:0:0:0:
448,120,262810,1,0,0:0:0:0:
344,208,262943,2,0,B|295:192|258:241|258:241|221:288|171:274,1,200,0|0,0:0|0:0,0:0:0:0:
32,48,263474,5,4,0:0:0:0:
32,336,263739,1,0,0:0:0:0:
160,336,263872,1,0,0:0:0:0:
296,336,264005,1,0,0:0:0:0:
312,40,264270,2,0,P|408:88|480:32,1,200
240,192,264801,1,0,0:0:0:0:
96,192,264934,2,0,L|56:88,1,100
384,192,265332,2,0,L|464:384,1,200
320,336,265730,6,0,L|208:336,1,100
96,248,265996,2,0,L|96:128,1,100
208,56,266261,2,0,L|320:56,1,100
432,136,266527,2,0,L|432:256,1,100
288,352,266792,2,0,L|176:352,1,100
64,264,267058,2,0,L|64:144,1,100
176,72,267323,2,0,L|288:72,1,100
400,152,267589,2,0,L|400:272,1,100,0|4,0:0|0:0,0:0:0:0:
112,336,267987,5,0,0:0:0:0:
112,336,268120,1,0,0:0:0:0:
112,336,268253,1,0,0:0:0:0:
64,56,268518,1,0,0:0:0:0:
312,176,268783,2,0,L|472:32,1,200
488,192,269182,2,0,L|448:304,1,100
256,56,269580,1,0,0:0:0:0:
51,341,269845,2,0,L|200:208,1,200
57,97,270244,2,0,L|24:192,1,100
320,264,270642,6,0,P|452:338|391:199,1,400,0|0,0:0|0:0,0:0:0:0:
112,80,271438,2,0,P|46:42|76:112,1,200,0|0,0:0|0:0,0:0:0:0:
256,360,271969,1,0,0:0:0:0:
352,72,272235,2,0,L|520:72,1,100
352,184,272500,2,0,P|256:208|160:184,2,200,0|0|0,0:0|0:0|0:0,0:0:0:0:
56,216,273297,6,0,L|208:384,1,200
456,168,273828,2,0,L|304:0,1,200
24,40,274359,1,0,0:0:0:0:
112,168,274491,1,0,0:0:0:0:
256,112,274624,1,0,0:0:0:0:
488,344,274890,1,0,0:0:0:0:
400,216,275022,1,0,0:0:0:0:
256,272,275155,1,0,0:0:0:0:
120,64,275421,5,4,0:0:0:0:
120,320,275686,1,4,0:0:0:0:
392,320,275952,1,4,0:0:0:0:
392,64,276217,1,4,0:0:0:0:
118,193,276483,2,0,B|62:169|61:109,1,100
152,272,276748,2,0,P|200:176|112:104,1,200
280,40,277146,1,0,0:0:0:0:
312,184,277279,6,0,B|353:152|405:184|405:184|456:215|498:184,1,200,0|0,0:0|0:0,0:0:0:0:
240,336,277810,2,0,P|72:304|80:88,1,400
360,56,278607,1,0,0:0:0:0:
464,160,278739,2,0,L|464:272,1,100
176,336,279137,2,0,P|128:248|176:168,2,200,0|0|0,0:0|0:0|0:0,0:0:0:0:
32,304,279801,1,0,0:0:0:0:
48,160,279934,2,0,B|112:80|112:80|150:40|208:80,1,200
463,224,280465,2,0,B|400:304|400:304|362:344|311:308,1,200
256,192,280863,5,0,0:0:0:0:
344,72,280996,2,0,L|400:160,1,100
168,72,281261,2,0,L|112:160,1,100
344,224,281527,2,0,L|400:312,1,100
168,224,281792,2,0,L|112:312,1,100
256,368,282058,1,4,0:0:0:0:
256,368,282323,1,4,0:0:0:0:
256,192,282456,12,0,286837,0:0:0:0:
80,64,308771,6,0,P|48:144|48:264,1,200
128,200,309271,2,0,P|168:320|232:384,1,200
432,320,309771,2,0,P|464:240|464:120,1,200
384,184,310271,2,0,P|344:64|280:0,1,200
256,192,310771,1,0,0:0:0:0:
256,192,311104,1,0,0:0:0:0:
40,328,311437,6,0,L|40:112|40:112,1,200
120,72,311937,2,0,L|120:296|120:296,1,200
200,328,312437,2,0,L|200:112|200:112,1,200
280,72,312937,2,0,L|280:304|280:304,1,200,0|0,0:0|0:0,0:0:0:0:
280,272,313354,1,0,0:0:0:0:
280,272,313437,1,0,0:0:0:0:
344,344,313604,1,0,0:0:0:0:
432,296,313771,1,0,0:0:0:0:
424,192,313937,1,0,0:0:0:0:
328,176,314104,6,0,P|240:112|208:16,1,200,4|0,0:0|0:0,0:0:0:0:
303,29,314604,2,0,P|265:120|184:176,1,200
256,248,315104,1,0,0:0:0:0:
152,40,315437,1,0,0:0:0:0:
152,40,315604,1,0,0:0:0:0:
152,328,315937,1,0,0:0:0:0:
152,328,316104,1,0,0:0:0:0:
408,184,316437,1,0,0:0:0:0:
152,328,316771,6,0,L|352:328,1,200
152,240,317271,2,0,L|360:240,1,200
152,144,317771,2,0,L|360:144,1,200
152,56,318271,2,0,L|352:56,1,200
424,304,318771,1,0,0:0:0:0:
88,304,319104,1,0,0:0:0:0:
256,56,319437,5,4,0:0:0:0:
256,344,319771,1,0,0:0:0:0:
256,344,319937,1,0,0:0:0:0:
360,56,320271,1,0,0:0:0:0:
360,56,320437,1,0,0:0:0:0:
104,216,320771,1,0,0:0:0:0:
104,216,320937,1,0,0:0:0:0:
408,216,321271,1,0,0:0:0:0:
408,216,321437,1,0,0:0:0:0:
152,56,321771,1,0,0:0:0:0:
256,344,322104,5,4,0:0:0:0:
256,192,322271,12,0,324104,0:0:0:0:
48,64,324437,6,0,L|48:168,1,100
152,160,324771,2,0,P|256:136|352:160,1,200
352,256,325271,2,0,L|152:256,1,200
152,360,325771,2,0,P|256:384|352:360,1,200
464,64,327104,6,0,L|464:168,1,100
360,160,327437,2,0,P|256:136|160:160,1,200
160,256,327937,2,0,L|360:256,1,200
360,360,328437,2,0,P|256:384|160:360,1,200
120,48,329437,6,0,P|40:128|176:168,1,300
256,128,330104,2,0,P|344:80|440:112,1,200
496,184,330604,2,0,L|456:280,1,100
320,368,331104,2,0,P|256:224|200:376,1,400,0|0,0:0|0:0,0:0:0:0:
392,160,332104,6,0,P|256:104|120:160,1,300
24,136,332771,1,0,0:0:0:0:
8,232,332937,1,0,0:0:0:0:
8,232,333104,1,0,0:0:0:0:
192,152,333437,5,0,0:0:0:0:
240,64,333604,1,0,0:0:0:0:
240,64,333771,1,0,0:0:0:0:
416,192,334104,5,0,0:0:0:0:
376,288,334271,2,0,B|288:328|288:328|224:352|184:296|184:296,1,200,0|0,0:0|0:0,0:0:0:0:
112,248,334771,1,0,0:0:0:0:
56,168,334937,2,0,B|144:128|144:128|208:104|248:160|248:160,1,200,0|0,0:0|0:0,0:0:0:0:
312,80,335437,5,0,0:0:0:0:
424,248,335771,1,0,0:0:0:0:
424,248,336104,2,0,L|256:360,1,200
64,320,336771,1,0,0:0:0:0:
32,224,336937,1,0,0:0:0:0:
120,40,337271,1,0,0:0:0:0:
152,136,337437,1,0,0:0:0:0:
328,232,337770,1,0,0:0:0:0:
328,128,337937,1,0,0:0:0:0:
328,128,338104,6,0,P|376:40|488:38,1,200
432,128,338604,2,0,P|435:213|385:338,1,200
333,242,339104,2,0,P|261:328|168:365,1,200
201,263,339604,2,0,P|93:284|9:248,1,200
33,152,340104,2,0,P|87:189|141:188,1,100
208,152,340437,2,0,P|258:137|315:158,1,100
392,104,340770,1,0,0:0:0:0:
432,192,340937,6,0,L|462:288|462:288,1,100
384,352,341270,1,0,0:0:0:0:
304,296,341437,2,0,P|254:226|212:298,1,200
128,352,341937,1,0,0:0:0:0:
40,176,342270,1,0,0:0:0:0:
208,56,342604,5,0,0:0:0:0:
256,128,342770,1,0,0:0:0:0:
472,176,343104,1,0,0:0:0:0:
304,56,343437,1,0,0:0:0:0:
344,288,343770,2,0,P|256:336|176:288,1,200
8,184,344437,2,0,P|120:96|248:160,1,300
328,216,345104,2,0,P|392:224|440:184,1,100
504,152,345437,1,0,0:0:0:0:
504,56,345604,1,0,0:0:0:0:
408,32,345770,5,0,0:0:0:0:
360,112,345937,1,0,0:0:0:0:
304,32,346104,2,0,P|176:48|144:128,1,200,4|0,0:0|0:0,0:0:0:0:
56,56,346604,2,0,P|56:168|232:160,1,300,0|0,0:0|0:0,0:0:0:0:
456,328,347604,2,0,P|456:216|280:224,1,300,0|0,0:0|0:0,0:0:0:0:
96,328,348437,5,0,0:0:0:0:
200,128,348770,2,0,B|184:40|184:40|120:32|72:80,1,200
312,128,349270,2,0,B|328:40|328:40|392:32|430:71,1,200
303,226,349770,2,0,P|255:369|207:226,1,400
416,328,350770,1,0,0:0:0:0:
440,120,351104,5,0,0:0:0:0:
440,120,351437,2,0,P|384:40|288:8,1,200
264,104,351937,2,0,P|120:240|392:200,1,700,0|0,0:0|0:0,0:0:0:0:
256,248,353437,1,0,0:0:0:0:
256,248,354104,5,0,0:0:0:0:
171,66,354437,1,0,0:0:0:0:
82,122,354604,2,0,B|169:210|258:122|258:122|346:33|434:122|434:122,1,400
434,122,355437,2,0,B|346:210|258:122|258:122|169:33|81:122|81:122,1,400
192,288,356437,1,0,0:0:0:0:
272,320,356604,1,0,0:0:0:0:
336,256,356770,1,4,0:0:0:0:
320,64,357104,6,0,P|400:32|384:160,1,250
192,64,357770,2,0,P|112:32|128:160,1,250
256,355,358437,2,0,B|256:314|256:314|274:295|274:295|237:258|237:258|274:220|274:220|256:183|256:183|256:145,2,250,0|0|0,0:0|0:0|0:0,0:0:0:0:
152,88,359770,6,0,P|256:29|359:88,1,250
256,352,360437,1,0,0:0:0:0:
96,192,360770,2,0,P|256:352|416:192,2,500,0|0|4,0:0|0:0|0:0,0:0:0:0:
256,352,362437,5,0,0:0:0:0:
256,32,362770,1,0,0:0:0:0:
112,256,363104,1,0,0:0:0:0:
400,256,363437,1,0,0:0:0:0:
112,96,363770,1,0,0:0:0:0:
256,352,364104,1,0,0:0:0:0:
400,96,364437,1,0,0:0:0:0:
104,303,365104,5,0,0:0:0:0:
356,347,365437,1,0,0:0:0:0:
401,96,365770,1,0,0:0:0:0:
149,51,366104,1,0,0:0:0:0:
256,192,366187,12,0,366770,0:0:0:0:
256,192,366854,12,4,367437,0:0:0:0:
320,352,367770,6,0,B|368:240|368:240|448:224|480:304,1,250
176,240,368437,2,0,B|128:352|128:352|48:368|16:288,1,250
198,34,369104,2,0,P|260:120|313:31,1,250
53,145,369770,2,0,P|256:269|458:145,1,500
256,56,370770,5,0,0:0:0:0:
112,336,371104,1,0,0:0:0:0:
400,336,371437,1,0,0:0:0:0:
256,56,372104,1,0,0:0:0:0:
256,48,372770,5,4,0:0:0:0:
256,40,373104,1,0,0:0:0:0:
256,352,373437,1,0,0:0:0:0:
112,128,373770,1,0,0:0:0:0:
400,128,374104,1,0,0:0:0:0:
112,288,374437,1,0,0:0:0:0:
256,32,374770,1,0,0:0:0:0:
400,288,375104,1,0,0:0:0:0:
104,81,375770,5,0,0:0:0:0:
356,37,376104,1,0,0:0:0:0:
401,288,376437,1,0,0:0:0:0:
149,333,376770,1,0,0:0:0:0:
256,192,376854,12,0,377437,0:0:0:0:
256,192,377520,12,4,378104,0:0:0:0:
448,64,378437,5,0,0:0:0:0:
480,160,378604,1,0,0:0:0:0:
392,344,378937,1,0,0:0:0:0:
360,248,379104,1,0,0:0:0:0:
192,152,379437,1,0,0:0:0:0:
168,248,379604,1,0,0:0:0:0:
8,120,379937,1,0,0:0:0:0:
40,24,380104,1,0,0:0:0:0:
256,64,380437,2,0,L|256:280,1,200
448,320,381104,5,0,0:0:0:0:
480,224,381270,1,0,0:0:0:0:
392,40,381604,1,0,0:0:0:0:
360,136,381770,1,0,0:0:0:0:
192,232,382104,1,0,0:0:0:0:
168,136,382270,1,0,0:0:0:0:
8,264,382604,1,0,0:0:0:0:
40,360,382770,1,0,0:0:0:0:
256,264,383104,1,0,0:0:0:0:
256,168,383270,1,0,0:0:0:0:
256,64,383437,5,4,0:0:0:0:
456,56,383770,1,0,0:0:0:0:
424,144,383937,2,0,L|424:360,1,200,0|0,0:0|0:0,0:0:0:0:
336,288,384437,2,0,L|336:88,1,200
240,64,384937,2,0,P|152:16|72:64,1,200
74,162,385437,2,0,P|162:210|242:162,1,200
440,176,386104,1,0,0:0:0:0:
352,352,386437,1,0,0:0:0:0:
352,352,386604,1,0,0:0:0:0:
192,232,386937,1,0,0:0:0:0:
192,232,387104,1,0,0:0:0:0:
288,96,387437,1,0,0:0:0:0:
288,96,387604,1,0,0:0:0:0:
288,296,387937,5,0,0:0:0:0:
200,344,388104,1,0,0:0:0:0:
112,296,388270,1,0,0:0:0:0:
96,200,388437,1,0,0:0:0:0:
112,296,388604,1,0,0:0:0:0:
200,344,388770,1,0,0:0:0:0:
416,48,398270,6,0,B|436:58|436:58|416:79|416:79|436:99|436:99|416:120|416:120|436:141|436:141|416:162|416:162|436:182|436:182,1,200
368,256,398770,5,0,0:0:0:0:
272,304,398937,2,0,P|190:352|109:304,1,200
32,240,399437,2,0,L|32:32,2,200,0|0|0,0:0|0:0|0:0,0:0:0:0:
192,112,400437,1,0,0:0:0:0:
384,32,400770,1,0,0:0:0:0:
353,127,400937,2,0,P|398:217|495:220,1,200
450,129,401437,2,0,L|311:293,1,200
128,336,402104,5,0,0:0:0:0:
48,144,402437,1,0,0:0:0:0:
128,336,402770,1,0,0:0:0:0:
48,144,403104,2,0,P|128:48|304:112,1,300
368,128,403770,1,0,0:0:0:0:
432,208,403937,2,0,P|450:262|445:320,1,100
352,272,404270,1,0,0:0:0:0:
272,336,404437,2,0,P|253:281|258:223,1,100
160,288,404770,1,0,0:0:0:0:
64,320,404937,6,0,L|32:224|32:224,1,100
96,160,405270,1,0,0:0:0:0:
96,160,405437,2,0,P|176:112|256:32,1,200
416,224,405937,2,0,P|336:272|256:352,1,200
256,192,406437,1,0,0:0:0:0:
256,192,407104,5,0,0:0:0:0:
208,112,407270,1,0,0:0:0:0:
304,112,407437,1,0,0:0:0:0:
176,256,407770,2,0,P|256:304|344:240,1,200
141,159,408437,2,0,P|256:77|370:159,1,300
432,240,409104,1,0,0:0:0:0:
352,288,409270,1,0,0:0:0:0:
256,272,409437,1,0,0:0:0:0:
160,288,409604,1,0,0:0:0:0:
80,240,409770,1,0,0:0:0:0:
80,240,409937,1,0,0:0:0:0:
80,240,410104,6,0,L|160:48|160:48,1,200,4|0,0:0|0:0,0:0:0:0:
256,144,410604,2,0,L|256:352,1,200,0|0,0:0|0:0,0:0:0:0:
432,240,411104,2,0,L|352:48|352:48,1,200
160,128,411770,1,0,0:0:0:0:
256,304,412104,1,0,0:0:0:0:
352,128,412437,1,0,0:0:0:0:
464,288,412770,6,0,L|464:80,1,200
368,48,413270,2,0,L|368:256,1,200
288,304,413770,2,0,P|128:272|80:64,2,400,0|0|0,0:0|0:0|0:0,0:0:0:0:
256,112,415437,1,0,0:0:0:0:
256,112,415770,1,0,0:0:0:0:
256,112,415937,2,0,P|384:128|448:272,1,300,0|0,0:0|0:0,0:0:0:0:
96,80,417104,5,0,0:0:0:0:
80,272,417437,1,0,0:0:0:0:
256,192,417770,1,0,0:0:0:0:
416,80,418104,1,0,0:0:0:0:
432,272,418437,1,0,0:0:0:0:
371,352,418604,2,0,P|256:270|142:352,1,300
64,288,419270,5,0,0:0:0:0:
112,208,419437,1,0,0:0:0:0:
192,160,419604,1,0,0:0:0:0:
176,64,419770,1,0,0:0:0:0:
256,16,419937,1,0,0:0:0:0:
336,64,420104,1,0,0:0:0:0:
320,160,420270,1,0,0:0:0:0:
400,208,420437,1,0,0:0:0:0:
448,288,420604,1,0,0:0:0:0:
345,333,420770,6,0,B|270:333|256:274|256:251|256:251|256:274|241:333|167:333,2,270.000001029968,4|0|0,0:0|0:0|0:0,0:0:0:0:
72,64,421770,1,0,0:0:0:0:
432,128,422104,1,0,0:0:0:0:
80,272,422437,1,0,0:0:0:0:
443,313,422770,1,0,0:0:0:0:
442,314,423104,2,0,B|442:224|390:190|339:155|256:189|256:189|174:224|123:189|71:155|72:64,1,540.000002059937
320,304,424104,1,0,0:0:0:0:
192,64,424437,1,0,0:0:0:0:
70,314,424770,2,0,B|69:224|121:190|172:155|255:189|255:189|337:224|388:189|440:155|439:64,2,540.000002059937,0|0|4,0:0|0:0|0:0,0:0:0:0:
384,320,426437,5,0,0:0:0:0:
368,304,426770,1,0,0:0:0:0:
288,64,427104,1,0,0:0:0:0:
272,80,427437,1,0,0:0:0:0:
96,320,427770,1,0,0:0:0:0:
112,304,428104,1,0,0:0:0:0:
414,192,428437,2,0,B|414:134|356:119|298:134|298:192|298:206|298:206|298:235|298:264|255:292|212:264|212:235|212:206|212:206|212:192|212:134|154:119|96:134|96:192,1,540.000002059937
376,322,429437,2,0,P|264:370|120:306,1,270.000001029968
497,100,430104,6,0,B|460:104|414:84|358:59|316:51|285:47|262:45|262:45|236:45|196:53|162:59|113:67|54:92|15:103|15:103|53:117|111:146|190:170|267:171|346:151|377:134|377:134|346:181|281:235|239:267|202:293|139:320|48:345|8:317|3:275|3:275|-1:241|27:213|77:211|107:253|67:296,1,1463.99997375183,0|4,0:0|0:0,0:0:0:0:
443,309,431770,2,0,P|416:291|377:135,1,202.500000772476
69,75,432437,2,0,P|96:93|135:249,1,202.500000772476
332,75,433104,1,0,0:0:0:0:
136,247,433437,1,0,0:0:0:0:
395,294,433770,1,0,0:0:0:0:
332,309,434437,5,0,0:0:0:0:
136,137,434770,1,0,0:0:0:0:
395,90,435104,1,0,0:0:0:0:
256,320,435437,2,0,B|183:272|183:192|183:192|256:192|256:192|344:192|344:192|344:111|256:63,2,479.999985351563,0|0|0,0:0|0:0|0:0,0:0:0:0:
456,112,437104,5,0,0:0:0:0:
456,112,437437,2,0,B|403:251|403:251|432:304|493:306,1,259.999988098145
256,336,438104,1,0,0:0:0:0:
256,80,438437,1,0,0:0:0:0:
56,272,438770,2,0,B|109:133|109:133|80:80|19:78,1,259.999988098145
386,83,439770,5,0,0:0:0:0:
126,83,440104,1,0,0:0:0:0:
126,301,440437,1,0,0:0:0:0:
386,301,440770,1,0,0:0:0:0:
256,192,440854,12,0,441437,0:0:0:0:
256,192,441520,12,4,442104,0:0:0:0:
64,64,442437,5,0,0:0:0:0:
448,64,442770,1,0,0:0:0:0:
256,336,443104,1,0,0:0:0:0:
256,33,443437,5,0,0:0:0:0:
140,119,443604,1,0,0:0:0:0:
183,249,443770,1,0,0:0:0:0:
328,249,443937,1,0,0:0:0:0:
371,119,444104,1,0,0:0:0:0:
328,249,444270,2,0,B|360:313|360:313|440:313|440:313,1,145.000004425049
184,135,444604,2,0,B|152:71|152:71|72:71|72:71,1,145.000004425049
32,352,445104,5,0,0:0:0:0:
32,352,445270,1,0,0:0:0:0:
176,304,445437,2,0,B|236:257|311:304|311:304|385:348|446:304,1,290.000008850098,0|0,0:0|0:0,0:0:0:0:
480,144,445937,1,0,0:0:0:0:
368,32,446104,1,0,0:0:0:0:
208,64,446270,2,0,P|234:128|208:199,1,145.000004425049
64,272,446604,2,0,P|40:205|61:134,1,145.000004425049
211,197,446937,1,0,0:0:0:0:
352,272,447104,1,0,0:0:0:0:
454,61,447437,5,0,0:0:0:0:
464,224,447604,1,0,0:0:0:0:
336,320,447770,2,0,B|276:367|201:320|201:320|127:276|66:320,1,290.000008850098,0|0,0:0|0:0,0:0:0:0:
184,32,448437,5,0,0:0:0:0:
344,80,448604,1,0,0:0:0:0:
184,144,448770,1,0,0:0:0:0:
344,192,448937,1,0,0:0:0:0:
184,256,449104,1,0,0:0:0:0:
344,304,449271,1,0,0:0:0:0:
184,368,449437,1,0,0:0:0:0:
429,63,449770,5,0,0:0:0:0:
256,322,450104,1,0,0:0:0:0:
82,63,450437,1,0,0:0:0:0:
16,208,450604,2,0,L|80:352,1,145.000004425049
416,352,451104,5,0,0:0:0:0:
496,208,451270,1,0,0:0:0:0:
392,85,451437,1,0,0:0:0:0:
256,160,451604,1,0,0:0:0:0:
256,320,451770,1,0,0:0:0:0:
96,352,451937,1,0,0:0:0:0:
16,208,452103,1,0,0:0:0:0:
120,85,452270,1,0,0:0:0:0:
256,160,452437,1,0,0:0:0:0:
384,240,452604,1,0,0:0:0:0:
256,320,452770,6,0,P|106:186|223:22,1,435.000013275147,4|0,0:0|0:0,0:0:0:0:
368,80,453437,2,0,P|416:192|300:169,1,290.000008850098
95,328,454104,2,0,B|95:362|143:368|158:337|158:337|173:305|209:305|223:337|223:337|236:368|274:368|289:337|289:337|301:305|340:305|352:337|352:337|369:368|417:362|417:328,1,435.000013275147,0|0,0:0|0:0,0:0:0:0:
448,176,454770,1,0,0:0:0:0:
336,64,454937,2,0,L|512:32,1,145.000004425049
144,208,455270,2,0,L|320:176,1,145.000004425049,0|4,0:0|0:0,0:0:0:0:
32,32,455770,5,0,0:0:0:0:
112,336,456104,2,0,P|272:352|384:272,1,290.000008850098
464,160,456604,1,0,0:0:0:0:
320,80,456770,2,0,P|160:64|48:144,1,290.000008850098
208,208,457270,1,0,0:0:0:0:
304,336,457437,2,0,L|464:336,1,145.000004425049
208,48,457770,2,0,L|48:48,1,145.000004425049
256,272,458104,2,0,B|279:242|256:204|256:204|234:167|256:136,2,145.000004425049,0|0|0,0:0|0:0|0:0,0:0:0:0:
256,192,458520,12,0,460437,0:0:0:0:
48,48,460770,6,0,L|368:48,1,290.000008850098
336,208,461270,1,0,0:0:0:0:
480,272,461437,2,0,L|480:96,1,145.000004425049
352,352,461770,2,0,L|32:352,1,290.000008850098
112,208,462270,1,0,0:0:0:0:
143,51,462437,2,0,P|253:130|363:51,1,290.000008850098
443,189,462937,2,0,P|379:238|300:269,1,145.000004425049
69,189,463270,2,0,P|133:238|212:269,1,145.000004425049,0|4,0:0|0:0,0:0:0:0:
464,336,463770,5,0,0:0:0:0:
336,240,463937,2,0,L|336:64,1,145.000004425049
192,32,464270,1,0,0:0:0:0:
49,103,464437,2,0,P|145:167|51:273,1,290.000008850098
192,368,464937,1,0,0:0:0:0:
336,320,465104,1,0,0:0:0:0:
480,32,465437,5,0,0:0:0:0:
256,256,465770,1,0,0:0:0:0:
32,32,466104,1,0,0:0:0:0:
256,368,466437,5,0,0:0:0:0:
128,272,466604,1,0,0:0:0:0:
176,128,466771,1,0,0:0:0:0:
336,128,466937,1,0,0:0:0:0:
384,272,467104,1,0,0:0:0:0:
32,32,468104,5,0,0:0:0:0:
480,352,468770,1,0,0:0:0:0:
256,80,471437,5,0,0:0:0:0:
255,192,474104,5,0,0:0:0:0:
256,304,476770,5,0,0:0:0:0:
183,108,478104,6,0,P|157:264|292:90,2,580.000017700196,0|0|0,0:0|0:0|0:0,0:0:0:0:
51,282,479604,1,0,0:0:0:0:
256,192,479770,1,0,0:0:0:0:
478,71,479937,2,0,B|431:131|478:206|478:206|522:280|478:341,1,290.000008850098,0|0,0:0|0:0,0:0:0:0:
256,352,480437,2,0,B|96:352|96:352|32:224|32:224,1,290.000008850098
144,48,480937,2,0,L|224:176,1,145.000004425049
432,240,481270,2,0,L|355:117,1,145.000004425049
64,352,481770,5,0,0:0:0:0:
256,320,481937,1,0,0:0:0:0:
448,352,482104,2,0,B|448:280|448:280|376:280|376:280|376:208|376:208|448:208|448:208,1,290.000008850098,4|0,0:0|0:0,0:0:0:0:
304,48,482604,2,0,B|377:48|377:48|377:121|377:121|449:121|449:121|449:48|449:48,1,290.000008850098
288,208,483104,2,0,B|288:230|288:134|288:134|216:134|216:134|216:278,1,290.000008850098
56,35,483770,2,0,B|56:170|56:170|128:170|128:170|128:74,2,290.000008850098,0|0|0,0:0|0:0|0:0,0:0:0:0:
32,256,484604,5,0,0:0:0:0:
256,272,484770,2,0,B|184:272|184:272|184:345|184:345|112:345|112:345|112:272|112:272,1,290.000008850098
272,352,485270,2,0,B|345:352|345:352|345:280|345:280|417:280|417:280|417:352|417:352,1,290.000008850098
464,128,485770,2,0,B|329:128|329:128|329:200|329:200|425:200,1,290.000008850098
256,48,486270,1,0,0:0:0:0:
32,80,486437,2,0,B|105:80|105:80|105:152|105:152|177:152|177:152|177:80|177:80,1,290.000008850098,0|0,0:0|0:0,0:0:0:0:
32,208,487104,6,0,B|32:343|32:343|104:343|104:343|104:247,2,290.000008850098,0|0|0,0:0|0:0|0:0,0:0:0:0:
192,352,487937,1,0,0:0:0:0:
304,160,488104,2,0,L|304:320,1,145.000004425049
208,112,488437,2,0,L|208:288,1,145.000004425049
288,48,488770,6,0,B|384:48|384:48|384:128|384:128|464:128|464:128|464:208|464:208|416:208|416:208|416:272,1,435.000013275147
240,352,489437,2,0,B|240:224|240:224|320:224|320:224|320:352|320:352|432:352,1,435.000013275147
280,128,490104,2,0,B|144:128|144:128|144:288,1,290.000008850098
48,112,490604,1,0,0:0:0:0:
48,352,490770,2,0,L|48:192,1,145.000004425049
176,32,491104,2,0,L|336:32,1,145.000004425049
464,192,491437,6,0,L|144:192,1,290.000008850098
384,112,491937,1,0,0:0:0:0:
256,288,492104,2,0,L|432:288,1,145.000004425049
272,112,492437,2,0,L|112:112,1,145.000004425049
64,320,492770,1,4,0:0:0:0:
464,160,493104,5,0,0:0:0:0:
288,32,493270,1,0,0:0:0:0:
272,256,493437,1,0,0:0:0:0:
272,256,493770,1,0,0:0:0:0:
32,32,494104,2,0,L|32:352,1,290.000008850098
480,352,494770,2,0,L|480:32,1,290.000008850098
220,258,495437,2,0,P|207:179|275:267,1,290.000008850098,0|4,0:0|0:0,0:0:0:0:
368,48,495937,5,0,0:0:0:0:
144,48,496104,1,0,0:0:0:0:
368,48,496270,1,0,0:0:0:0:
144,48,496437,1,0,0:0:0:0:
464,336,496770,1,0,0:0:0:0:
48,208,497104,2,0,P|64:288|112:336,1,145.000004425049
304,224,497437,2,0,P|368:160|496:288,1,290.000008850098
448,48,497937,1,0,0:0:0:0:
400,256,498104,2,0,P|352:336|160:304,1,290.000008850098,4|0,0:0|0:0,0:0:0:0:
48,144,498604,5,0,0:0:0:0:
256,64,498770,2,0,L|400:32,1,145.000004425049
256,192,499104,2,0,L|80:240,1,145.000004425049
288,368,499437,2,0,B|287:319|315:301|342:282|387:301|387:301|431:319|458:301|486:282|485:233,2,290.000008850098,0|0|0,0:0|0:0|0:0,0:0:0:0:
256,32,500437,2,0,B|80:64|80:64|32:144|48:240|48:240|304:192,1,580.000017700196
464,128,501270,1,0,0:0:0:0:
416,336,501437,1,0,0:0:0:0:
416,336,501770,1,0,0:0:0:0:
32,48,502104,6,0,L|416:48,1,369.999998588562
256,272,502604,1,0,0:0:0:0:
496,160,502770,2,0,L|96:160,1,369.999998588562
304,384,503270,1,0,0:0:0:0:
48,272,503437,2,0,L|432:272|432:272,1,369.999998588562,4|0,0:0|0:0,0:0:0:0:
256,16,503937,5,0,0:0:0:0:
16,192,504104,2,0,P|96:112|192:160,1,200
496,192,504437,2,0,P|416:272|320:224,1,200
64,352,504770,1,0,0:0:0:0:
448,32,505104,1,0,0:0:0:0:
256,192,505270,1,0,0:0:0:0:
62,353,505437,2,0,B|158:273|158:273|134:161|134:161|158:97|214:65|277:71,1,400
448,353,506104,2,0,B|352:273|352:273|376:161|376:161|352:97|296:65|230:71,1,400
32,192,506604,5,0,0:0:0:0:
32,192,506770,2,0,P|64:304|128:368,1,200
480,192,507104,2,0,P|448:80|384:16,1,200
193,101,507437,2,0,B|112:136|112:279|217:316|257:282|257:282|311:227|294:172|220:172|203:227|257:282|257:282|311:318|403:264|403:136|308:95,2,800,0|0|0,0:0|0:0|0:0,0:0:0:0:
464,336,509104,5,0,0:0:0:0:
384,48,509270,1,0,0:0:0:0:
416,352,509437,1,0,0:0:0:0:
336,64,509604,1,0,0:0:0:0:
368,368,509770,2,0,B|336:320|336:320|224:320|224:320|176:240|176:240|336:240|336:240,1,400
32,320,510270,1,0,0:0:0:0:
96,32,510437,1,0,0:0:0:0:
80,336,510604,1,0,0:0:0:0:
144,16,510770,2,0,B|176:64|176:64|288:64|288:64|336:144|336:144|176:144|176:144,2,400,0|0|0,0:0|0:0|0:0,0:0:0:0:
416,352,511770,5,0,0:0:0:0:
96,352,511937,1,0,0:0:0:0:
384,288,512104,1,0,0:0:0:0:
128,288,512270,1,0,0:0:0:0:
352,224,512437,1,0,0:0:0:0:
160,224,512604,1,0,0:0:0:0:
256,352,512770,5,0,0:0:0:0:
256,352,512937,1,0,0:0:0:0:
256,352,513104,1,0,0:0:0:0:
112,112,513270,1,0,0:0:0:0:
112,112,513437,1,0,0:0:0:0:
112,112,513604,1,0,0:0:0:0:
400,112,513770,1,0,0:0:0:0:
400,112,513937,1,0,0:0:0:0:
400,112,514104,2,0,B|336:32|256:16|256:16|256:128|320:176|398:204,1,400,4|0,0:0|0:0,0:0:0:0:
112,272,514604,2,0,B|176:352|256:368|256:368|256:256|192:208|114:180,1,400
112,112,515104,2,0,B|176:32|256:16|256:16|256:128|192:176|114:204,1,400
400,272,515604,2,0,B|336:352|256:368|256:368|256:256|320:208|398:180,1,400
96,320,516104,5,0,0:0:0:0:
193,186,516270,2,0,B|156:158|161:112|161:112|256:48,1,200
256,336,516604,2,0,B|350:271|350:271|355:225|318:197,1,200
432,320,517104,5,0,0:0:0:0:
410,57,517270,2,0,B|354:20|312:38|269:56|257:121|257:121|245:187|203:205|161:223|105:186,1,400
102,57,517770,2,0,B|157:20|199:38|242:56|254:121|254:121|266:187|308:205|350:223|406:186,1,400
80,320,518270,2,0,B|112:368|176:368|176:368|224:368|256:336|256:336|288:368|336:368|336:368|400:368|444:303,1,400
160,176,518770,5,0,0:0:0:0:
432,48,518937,2,0,L|432:256,1,200
128,256,519270,1,0,0:0:0:0:
256,80,519437,2,0,B|256:288|256:288|352:288|352:288|352:192,1,400
80,64,519937,2,0,B|176:64|176:64|176:208|176:208|64:208|64:208|64:128|64:128,1,400
352,96,520437,2,0,B|352:32|352:32|464:32|464:128|464:128|464:160|464:192|464:208|464:208|464:256|496:288,1,400
160,288,520937,2,0,B|160:352|160:352|48:352|48:256|48:256|48:224|48:192|48:176|48:176|48:128|16:96,1,400
295,155,521437,6,0,B|305:122|282:95|254:92|218:96|196:140|227:172|254:189|254:189|284:206|339:236|296:308|233:306|209:264|215:232,2,400,0|0|0,0:0|0:0|0:0,0:0:0:0:
464,320,522437,1,0,0:0:0:0:
80,336,522604,1,0,0:0:0:0:
400,192,522770,1,0,0:0:0:0:
112,192,522937,1,0,0:0:0:0:
256,96,523104,1,0,0:0:0:0:
256,192,523187,12,0,528771,0:0:0:0:
256,192,536604,5,0,0:0:0:0:
