osu file format v13

[General]
AudioFilename: MAra.mp3
AudioLeadIn: 0
PreviewTime: 498354
Countdown: 1
SampleSet: Normal
StackLeniency: 0.7
Mode: 0
LetterboxInBreaks: 1
WidescreenStoryboard: 1

[Editor]
Bookmarks: 479437,492770
DistanceSpacing: 1.5
BeatDivisor: 4
GridSize: 16
TimelineZoom: 1.7

[Metadata]
Title:The Unforgiving (Bonus Tracks)
TitleUnicode:The Unforgiving (Bonus Tracks)
Artist:Within Temptation
ArtistUnicode:Within Temptation
Creator:Armin
Version:Empty Eyes
Source:
Tags:don't wanna dont last dance empty eyes unforgiving sharon den adel ruud metal rock symphonic orchestra
BeatmapID:499017
BeatmapSetID:203166

[Difficulty]
HPDrainRate:6
CircleSize:4
OverallDifficulty:8
ApproachRate:8
SliderMultiplier:2
SliderTickRate:1

[Events]
//Background and Video events
0,0,"Within-Tetmptation.png",0,0
//Break Periods
2,388970,397520
2,468970,470687
2,471637,473354
2,474304,476020
2,528971,535854
//Storyboard Layer 0 (Background)
//Storyboard Layer 1 (Fail)
//Storyboard Layer 2 (Pass)
//Storyboard Layer 3 (Foreground)
//Storyboard Sound Samples
//Background Colour Transformations
3,100,163,162,255

[TimingPoints]
8607,530.973451327434,4,1,1,70,1,0
17114,-66.6666666666667,4,1,1,70,0,1
34093,-66.6666666666667,4,1,1,70,0,0
85067,-50,4,1,1,70,0,1
92766,-50,4,1,1,70,0,0
114801,-66.6666666666667,4,1,1,70,0,0
165775,-50,4,1,1,70,0,1
195509,-50,4,1,1,70,0,0
231084,-66.6666666666667,4,1,1,70,0,0
233739,-50,4,1,1,70,0,1
282456,-50,4,2,1,70,0,1
286704,-50,4,2,1,70,0,0
308771,333.333333333333,4,1,1,70,1,0
356768,-80,4,1,1,70,0,1
378122,-100,4,1,1,70,0,0
420770,-74.0740740740741,4,1,1,70,0,1
429955,-54.6448087431694,4,1,1,70,0,1
431622,-100,4,1,1,70,0,1
432872,-83.3333333333333,4,1,1,70,0,1
436872,-76.9230769230769,4,1,1,70,0,1
442122,-68.9655172413793,4,1,1,70,0,0
502104,-54.054054054054,4,1,1,70,0,0
503770,-50,4,1,1,70,0,0

[Colours]
Combo1 : 223,208,30
Combo2 : 236,147,13
Combo3 : 159,0,0
Combo4 : 152,7,108
Combo5 : 40,54,219
Combo6 : 34,153,147
Combo7 : 45,206,73
Combo8 : 33,124,35
SliderBorder : 0,0,0

[HitObjects]
80,64,308771,6,0,P|48:144|48:264,1,200
128,200,309271,2,0,P|168:320|232:384,1,200
432,320,309771,2,0,P|464:240|464:120,1,200
384,184,310271,2,0,P|344:64|280:0,1,200
256,192,310771,1,0,0:0:0:0:
256,192,311104,1,0,0:0:0:0:
40,328,311437,6,0,L|40:112|40:112,1,200
120,72,311937,2,0,L|120:296|120:296,1,200
200,328,312437,2,0,L|200:112|200:112,1,200
280,72,312937,2,0,L|280:304|280:304,1,200,0|0,0:0|0:0,0:0:0:0:
280,272,313354,1,0,0:0:0:0:
280,272,313437,1,0,0:0:0:0:
344,344,313604,1,0,0:0:0:0:
432,296,313771,1,0,0:0:0:0:
424,192,313937,1,0,0:0:0:0:
328,176,314104,6,0,P|240:112|208:16,1,200,4|0,0:0|0:0,0:0:0:0:
303,29,314604,2,0,P|265:120|184:176,1,200
256,248,315104,1,0,0:0:0:0:
152,40,315437,1,0,0:0:0:0:
152,40,315604,1,0,0:0:0:0:
152,328,315937,1,0,0:0:0:0:
152,328,316104,1,0,0:0:0:0:
408,184,316437,1,0,0:0:0:0:
152,328,316771,6,0,L|352:328,1,200
152,240,317271,2,0,L|360:240,1,200
152,144,317771,2,0,L|360:144,1,200
152,56,318271,2,0,L|352:56,1,200
424,304,318771,1,0,0:0:0:0:
88,304,319104,1,0,0:0:0:0:
256,56,319437,5,4,0:0:0:0:
256,344,319771,1,0,0:0:0:0:
256,344,319937,1,0,0:0:0:0:
360,56,320271,1,0,0:0:0:0:
360,56,320437,1,0,0:0:0:0:
104,216,320771,1,0,0:0:0:0:
104,216,320937,1,0,0:0:0:0:
408,216,321271,1,0,0:0:0:0:
408,216,321437,1,0,0:0:0:0:
152,56,321771,1,0,0:0:0:0:
256,344,322104,5,4,0:0:0:0:
256,192,322271,12,0,324104,0:0:0:0:
48,64,324437,6,0,L|48:168,1,100
152,160,324771,2,0,P|256:136|352:160,1,200
352,256,325271,2,0,L|152:256,1,200
152,360,325771,2,0,P|256:384|352:360,1,200
464,64,327104,6,0,L|464:168,1,100
360,160,327437,2,0,P|256:136|160:160,1,200
160,256,327937,2,0,L|360:256,1,200
360,360,328437,2,0,P|256:384|160:360,1,200
120,48,329437,6,0,P|40:128|176:168,1,300
256,128,330104,2,0,P|344:80|440:112,1,200
496,184,330604,2,0,L|456:280,1,100
320,368,331104,2,0,P|256:224|200:376,1,400,0|0,0:0|0:0,0:0:0:0:
392,160,332104,6,0,P|256:104|120:160,1,300
24,136,332771,1,0,0:0:0:0:
8,232,332937,1,0,0:0:0:0:
8,232,333104,1,0,0:0:0:0:
192,152,333437,5,0,0:0:0:0:
240,64,333604,1,0,0:0:0:0:
240,64,333771,1,0,0:0:0:0:
416,192,334104,5,0,0:0:0:0:
376,288,334271,2,0,B|288:328|288:328|224:352|184:296|184:296,1,200,0|0,0:0|0:0,0:0:0:0:
112,248,334771,1,0,0:0:0:0:
56,168,334937,2,0,B|144:128|144:128|208:104|248:160|248:160,1,200,0|0,0:0|0:0,0:0:0:0:
312,80,335437,5,0,0:0:0:0:
424,248,335771,1,0,0:0:0:0:
424,248,336104,2,0,L|256:360,1,200
64,320,336771,1,0,0:0:0:0:
32,224,336937,1,0,0:0:0:0:
120,40,337271,1,0,0:0:0:0:
152,136,337437,1,0,0:0:0:0:
328,232,337770,1,0,0:0:0:0:
328,128,337937,1,0,0:0:0:0:
328,128,338104,6,0,P|376:40|488:38,1,200
432,128,338604,2,0,P|435:213|385:338,1,200
333,242,339104,2,0,P|261:328|168:365,1,200
201,263,339604,2,0,P|93:284|9:248,1,200
33,152,340104,2,0,P|87:189|141:188,1,100
208,152,340437,2,0,P|258:137|315:158,1,100
392,104,340770,1,0,0:0:0:0:
432,192,340937,6,0,L|462:288|462:288,1,100
384,352,341270,1,0,0:0:0:0:
304,296,341437,2,0,P|254:226|212:298,1,200
128,352,341937,1,0,0:0:0:0:
40,176,342270,1,0,0:0:0:0:
208,56,342604,5,0,0:0:0:0:
256,128,342770,1,0,0:0:0:0:
472,176,343104,1,0,0:0:0:0:
304,56,343437,1,0,0:0:0:0:
344,288,343770,2,0,P|256:336|176:288,1,200
8,184,344437,2,0,P|120:96|248:160,1,300
328,216,345104,2,0,P|392:224|440:184,1,100
504,152,345437,1,0,0:0:0:0:
504,56,345604,1,0,0:0:0:0:
408,32,345770,5,0,0:0:0:0:
360,112,345937,1,0,0:0:0:0:
304,32,346104,2,0,P|176:48|144:128,1,200,4|0,0:0|0:0,0:0:0:0:
56,56,346604,2,0,P|56:168|232:160,1,300,0|0,0:0|0:0,0:0:0:0:
456,328,347604,2,0,P|456:216|280:224,1,300,0|0,0:0|0:0,0:0:0:0:
96,328,348437,5,0,0:0:0:0:
200,128,348770,2,0,B|184:40|184:40|120:32|72:80,1,200
312,128,349270,2,0,B|328:40|328:40|392:32|430:71,1,200
303,226,349770,2,0,P|255:369|207:226,1,400
416,328,350770,1,0,0:0:0:0:
440,120,351104,5,0,0:0:0:0:
440,120,351437,2,0,P|384:40|288:8,1,200
264,104,351937,2,0,P|120:240|392:200,1,700,0|0,0:0|0:0,0:0:0:0:
256,248,353437,1,0,0:0:0:0:
256,248,354104,5,0,0:0:0:0:
171,66,354437,1,0,0:0:0:0:
82,122,354604,2,0,B|169:210|258:122|258:122|346:33|434:122|434:122,1,400
434,122,355437,2,0,B|346:210|258:122|258:122|169:33|81:122|81:122,1,400
192,288,356437,1,0,0:0:0:0:
272,320,356604,1,0,0:0:0:0:
336,256,356770,1,4,0:0:0:0:
320,64,357104,6,0,P|400:32|384:160,1,250
192,64,357770,2,0,P|112:32|128:160,1,250
256,355,358437,2,0,B|256:314|256:314|274:295|274:295|237:258|237:258|274:220|274:220|256:183|256:183|256:145,2,250,0|0|0,0:0|0:0|0:0,0:0:0:0:
152,88,359770,6,0,P|256:29|359:88,1,250
256,352,360437,1,0,0:0:0:0:
96,192,360770,2,0,P|256:352|416:192,2,500,0|0|4,0:0|0:0|0:0,0:0:0:0:
256,352,362437,5,0,0:0:0:0:
256,32,362770,1,0,0:0:0:0:
112,256,363104,1,0,0:0:0:0:
400,256,363437,1,0,0:0:0:0:
112,96,363770,1,0,0:0:0:0:
256,352,364104,1,0,0:0:0:0:
400,96,364437,1,0,0:0:0:0:
104,303,365104,5,0,0:0:0:0:
356,347,365437,1,0,0:0:0:0:
401,96,365770,1,0,0:0:0:0:
149,51,366104,1,0,0:0:0:0:
256,192,366187,12,0,366770,0:0:0:0:
256,192,366854,12,4,367437,0:0:0:0:
320,352,367770,6,0,B|368:240|368:240|448:224|480:304,1,250
176,240,368437,2,0,B|128:352|128:352|48:368|16:288,1,250
198,34,369104,2,0,P|260:120|313:31,1,250
53,145,369770,2,0,P|256:269|458:145,1,500
256,56,370770,5,0,0:0:0:0:
112,336,371104,1,0,0:0:0:0:
400,336,371437,1,0,0:0:0:0:
256,56,372104,1,0,0:0:0:0:
256,48,372770,5,4,0:0:0:0:
256,40,373104,1,0,0:0:0:0:
256,352,373437,1,0,0:0:0:0:
112,128,373770,1,0,0:0:0:0:
400,128,374104,1,0,0:0:0:0:
112,288,374437,1,0,0:0:0:0:
256,32,374770,1,0,0:0:0:0:
400,288,375104,1,0,0:0:0:0:
104,81,375770,5,0,0:0:0:0:
356,37,376104,1,0,0:0:0:0:
401,288,376437,1,0,0:0:0:0:
149,333,376770,1,0,0:0:0:0:
256,192,376854,12,0,377437,0:0:0:0:
256,192,377520,12,4,378104,0:0:0:0:
448,64,378437,5,0,0:0:0:0:
480,160,378604,1,0,0:0:0:0:
392,344,378937,1,0,0:0:0:0:
360,248,379104,1,0,0:0:0:0:
192,152,379437,1,0,0:0:0:0:
168,248,379604,1,0,0:0:0:0:
8,120,379937,1,0,0:0:0:0:
40,24,380104,1,0,0:0:0:0:
256,64,380437,2,0,L|256:280,1,200
448,320,381104,5,0,0:0:0:0:
480,224,381270,1,0,0:0:0:0:
392,40,381604,1,0,0:0:0:0:
360,136,381770,1,0,0:0:0:0:
192,232,382104,1,0,0:0:0:0:
168,136,382270,1,0,0:0:0:0:
8,264,382604,1,0,0:0:0:0:
40,360,382770,1,0,0:0:0:0:
256,264,383104,1,0,0:0:0:0:
256,168,383270,1,0,0:0:0:0:
256,64,383437,5,4,0:0:0:0:
456,56,383770,1,0,0:0:0:0:
424,144,383937,2,0,L|424:360,1,200,0|0,0:0|0:0,0:0:0:0:
336,288,384437,2,0,L|336:88,1,200
240,64,384937,2,0,P|152:16|72:64,1,200
74,162,385437,2,0,P|162:210|242:162,1,200
440,176,386104,1,0,0:0:0:0:
352,352,386437,1,0,0:0:0:0:
352,352,386604,1,0,0:0:0:0:
192,232,386937,1,0,0:0:0:0:
192,232,387104,1,0,0:0:0:0:
288,96,387437,1,0,0:0:0:0:
288,96,387604,1,0,0:0:0:0:
288,296,387937,5,0,0:0:0:0:
200,344,388104,1,0,0:0:0:0:
112,296,388270,1,0,0:0:0:0:
96,200,388437,1,0,0:0:0:0:
112,296,388604,1,0,0:0:0:0:
200,344,388770,1,0,0:0:0:0:
416,48,398270,6,0,B|436:58|436:58|416:79|416:79|436:99|436:99|416:120|416:120|436:141|436:141|416:162|416:162|436:182|436:182,1,200
368,256,398770,5,0,0:0:0:0:
272,304,398937,2,0,P|190:352|109:304,1,200
32,240,399437,2,0,L|32:32,2,200,0|0|0,0:0|0:0|0:0,0:0:0:0:
192,112,400437,1,0,0:0:0:0:
384,32,400770,1,0,0:0:0:0:
353,127,400937,2,0,P|398:217|495:220,1,200
450,129,401437,2,0,L|311:293,1,200
128,336,402104,5,0,0:0:0:0:
48,144,402437,1,0,0:0:0:0:
128,336,402770,1,0,0:0:0:0:
48,144,403104,2,0,P|128:48|304:112,1,300
368,128,403770,1,0,0:0:0:0:
432,208,403937,2,0,P|450:262|445:320,1,100
352,272,404270,1,0,0:0:0:0:
272,336,404437,2,0,P|253:281|258:223,1,100
160,288,404770,1,0,0:0:0:0:
64,320,404937,6,0,L|32:224|32:224,1,100
96,160,405270,1,0,0:0:0:0:
96,160,405437,2,0,P|176:112|256:32,1,200
416,224,405937,2,0,P|336:272|256:352,1,200
256,192,406437,1,0,0:0:0:0:
256,192,407104,5,0,0:0:0:0:
208,112,407270,1,0,0:0:0:0:
304,112,407437,1,0,0:0:0:0:
176,256,407770,2,0,P|256:304|344:240,1,200
141,159,408437,2,0,P|256:77|370:159,1,300
432,240,409104,1,0,0:0:0:0:
352,288,409270,1,0,0:0:0:0:
256,272,409437,1,0,0:0:0:0:
160,288,409604,1,0,0:0:0:0:
80,240,409770,1,0,0:0:0:0:
80,240,409937,1,0,0:0:0:0:
80,240,410104,6,0,L|160:48|160:48,1,200,4|0,0:0|0:0,0:0:0:0:
256,144,410604,2,0,L|256:352,1,200,0|0,0:0|0:0,0:0:0:0:
432,240,411104,2,0,L|352:48|352:48,1,200
160,128,411770,1,0,0:0:0:0:
256,304,412104,1,0,0:0:0:0:
352,128,412437,1,0,0:0:0:0:
464,288,412770,6,0,L|464:80,1,200
368,48,413270,2,0,L|368:256,1,200
288,304,413770,2,0,P|128:272|80:64,2,400,0|0|0,0:0|0:0|0:0,0:0:0:0:
256,112,415437,1,0,0:0:0:0:
256,112,415770,1,0,0:0:0:0:
256,112,415937,2,0,P|384:128|448:272,1,300,0|0,0:0|0:0,0:0:0:0:
96,80,417104,5,0,0:0:0:0:
80,272,417437,1,0,0:0:0:0:
256,192,417770,1,0,0:0:0:0:
416,80,418104,1,0,0:0:0:0:
432,272,418437,1,0,0:0:0:0:
371,352,418604,2,0,P|256:270|142:352,1,300
64,288,419270,5,0,0:0:0:0:
112,208,419437,1,0,0:0:0:0:
192,160,419604,1,0,0:0:0:0:
176,64,419770,1,0,0:0:0:0:
256,16,419937,1,0,0:0:0:0:
336,64,420104,1,0,0:0:0:0:
320,160,420270,1,0,0:0:0:0:
400,208,420437,1,0,0:0:0:0:
448,288,420604,1,0,0:0:0:0:
345,333,420770,6,0,B|270:333|256:274|256:251|256:251|256:274|241:333|167:333,2,270.000001029968,4|0|0,0:0|0:0|0:0,0:0:0:0:
72,64,421770,1,0,0:0:0:0:
432,128,422104,1,0,0:0:0:0:
80,272,422437,1,0,0:0:0:0:
443,313,422770,1,0,0:0:0:0:
442,314,423104,2,0,B|442:224|390:190|339:155|256:189|256:189|174:224|123:189|71:155|72:64,1,540.000002059937
320,304,424104,1,0,0:0:0:0:
192,64,424437,1,0,0:0:0:0:
70,314,424770,2,0,B|69:224|121:190|172:155|255:189|255:189|337:224|388:189|440:155|439:64,2,540.000002059937,0|0|4,0:0|0:0|0:0,0:0:0:0:
384,320,426437,5,0,0:0:0:0:
368,304,426770,1,0,0:0:0:0:
288,64,427104,1,0,0:0:0:0:
272,80,427437,1,0,0:0:0:0:
96,320,427770,1,0,0:0:0:0:
112,304,428104,1,0,0:0:0:0:
414,192,428437,2,0,B|414:134|356:119|298:134|298:192|298:206|298:206|298:235|298:264|255:292|212:264|212:235|212:206|212:206|212:192|212:134|154:119|96:134|96:192,1,540.000002059937
376,322,429437,2,0,P|264:370|120:306,1,270.000001029968
497,100,430104,6,0,B|460:104|414:84|358:59|316:51|285:47|262:45|262:45|236:45|196:53|162:59|113:67|54:92|15:103|15:103|53:117|111:146|190:170|267:171|346:151|377:134|377:134|346:181|281:235|239:267|202:293|139:320|48:345|8:317|3:275|3:275|-1:241|27:213|77:211|107:253|67:296,1,1463.99997375183,0|4,0:0|0:0,0:0:0:0:
443,309,431770,2,0,P|416:291|377:135,1,202.500000772476
69,75,432437,2,0,P|96:93|135:249,1,202.500000772476
332,75,433104,1,0,0:0:0:0:
136,247,433437,1,0,0:0:0:0:
395,294,433770,1,0,0:0:0:0:
332,309,434437,5,0,0:0:0:0:
136,137,434770,1,0,0:0:0:0:
395,90,435104,1,0,0:0:0:0:
256,320,435437,2,0,B|183:272|183:192|183:192|256:192|256:192|344:192|344:192|344:111|256:63,2,479.999985351563,0|0|0,0:0|0:0|0:0,0:0:0:0:
456,112,437104,5,0,0:0:0:0:
456,112,437437,2,0,B|403:251|403:251|432:304|493:306,1,259.999988098145
256,336,438104,1,0,0:0:0:0:
256,80,438437,1,0,0:0:0:0:
56,272,438770,2,0,B|109:133|109:133|80:80|19:78,1,259.999988098145
386,83,439770,5,0,0:0:0:0:
126,83,440104,1,0,0:0:0:0:
126,301,440437,1,0,0:0:0:0:
386,301,440770,1,0,0:0:0:0:
256,192,440854,12,0,441437,0:0:0:0:
256,192,441520,12,4,442104,0:0:0:0:
64,64,442437,5,0,0:0:0:0:
448,64,442770,1,0,0:0:0:0:
256,336,443104,1,0,0:0:0:0:
256,33,443437,5,0,0:0:0:0:
140,119,443604,1,0,0:0:0:0:
183,249,443770,1,0,0:0:0:0:
328,249,443937,1,0,0:0:0:0:
371,119,444104,1,0,0:0:0:0:
328,249,444270,2,0,B|360:313|360:313|440:313|440:313,1,145.000004425049
184,135,444604,2,0,B|152:71|152:71|72:71|72:71,1,145.000004425049
32,352,445104,5,0,0:0:0:0:
32,352,445270,1,0,0:0:0:0:
176,304,445437,2,0,B|236:257|311:304|311:304|385:348|446:304,1,290.000008850098,0|0,0:0|0:0,0:0:0:0:
480,144,445937,1,0,0:0:0:0:
368,32,446104,1,0,0:0:0:0:
208,64,446270,2,0,P|234:128|208:199,1,145.000004425049
64,272,446604,2,0,P|40:205|61:134,1,145.000004425049
211,197,446937,1,0,0:0:0:0:
352,272,447104,1,0,0:0:0:0:
454,61,447437,5,0,0:0:0:0:
464,224,447604,1,0,0:0:0:0:
336,320,447770,2,0,B|276:367|201:320|201:320|127:276|66:320,1,290.000008850098,0|0,0:0|0:0,0:0:0:0:
184,32,448437,5,0,0:0:0:0:
344,80,448604,1,0,0:0:0:0:
184,144,448770,1,0,0:0:0:0:
344,192,448937,1,0,0:0:0:0:
184,256,449104,1,0,0:0:0:0:
344,304,449271,1,0,0:0:0:0:
184,368,449437,1,0,0:0:0:0:
429,63,449770,5,0,0:0:0:0:
256,322,450104,1,0,0:0:0:0:
82,63,450437,1,0,0:0:0:0:
16,208,450604,2,0,L|80:352,1,145.000004425049
416,352,451104,5,0,0:0:0:0:
496,208,451270,1,0,0:0:0:0:
392,85,451437,1,0,0:0:0:0:
256,160,451604,1,0,0:0:0:0:
256,320,451770,1,0,0:0:0:0:
96,352,451937,1,0,0:0:0:0:
16,208,452103,1,0,0:0:0:0:
120,85,452270,1,0,0:0:0:0:
256,160,452437,1,0,0:0:0:0:
384,240,452604,1,0,0:0:0:0:
256,320,452770,6,0,P|106:186|223:22,1,435.000013275147,4|0,0:0|0:0,0:0:0:0:
368,80,453437,2,0,P|416:192|300:169,1,290.000008850098
95,328,454104,2,0,B|95:362|143:368|158:337|158:337|173:305|209:305|223:337|223:337|236:368|274:368|289:337|289:337|301:305|340:305|352:337|352:337|369:368|417:362|417:328,1,435.000013275147,0|0,0:0|0:0,0:0:0:0:
448,176,454770,1,0,0:0:0:0:
336,64,454937,2,0,L|512:32,1,145.000004425049
144,208,455270,2,0,L|320:176,1,145.000004425049,0|4,0:0|0:0,0:0:0:0:
32,32,455770,5,0,0:0:0:0:
112,336,456104,2,0,P|272:352|384:272,1,290.000008850098
464,160,456604,1,0,0:0:0:0:
320,80,456770,2,0,P|160:64|48:144,1,290.000008850098
208,208,457270,1,0,0:0:0:0:
304,336,457437,2,0,L|464:336,1,145.000004425049
208,48,457770,2,0,L|48:48,1,145.000004425049
256,272,458104,2,0,B|279:242|256:204|256:204|234:167|256:136,2,145.000004425049,0|0|0,0:0|0:0|0:0,0:0:0:0:
256,192,458520,12,0,460437,0:0:0:0:
48,48,460770,6,0,L|368:48,1,290.000008850098
336,208,461270,1,0,0:0:0:0:
480,272,461437,2,0,L|480:96,1,145.000004425049
352,352,461770,2,0,L|32:352,1,290.000008850098
112,208,462270,1,0,0:0:0:0:
143,51,462437,2,0,P|253:130|363:51,1,290.000008850098
443,189,462937,2,0,P|379:238|300:269,1,145.000004425049
69,189,463270,2,0,P|133:238|212:269,1,145.000004425049,0|4,0:0|0:0,0:0:0:0:
464,336,463770,5,0,0:0:0:0:
336,240,463937,2,0,L|336:64,1,145.000004425049
192,32,464270,1,0,0:0:0:0:
49,103,464437,2,0,P|145:167|51:273,1,290.000008850098
192,368,464937,1,0,0:0:0:0:
336,320,465104,1,0,0:0:0:0:
480,32,465437,5,0,0:0:0:0:
256,256,465770,1,0,0:0:0:0:
32,32,466104,1,0,0:0:0:0:
256,368,466437,5,0,0:0:0:0:
128,272,466604,1,0,0:0:0:0:
176,128,466771,1,0,0:0:0:0:
336,128,466937,1,0,0:0:0:0:
384,272,467104,1,0,0:0:0:0:
32,32,468104,5,0,0:0:0:0:
480,352,468770,1,0,0:0:0:0:
256,80,471437,5,0,0:0:0:0:
255,192,474104,5,0,0:0:0:0:
256,304,476770,5,0,0:0:0:0:
183,108,478104,6,0,P|157:264|292:90,2,580.000017700196,0|0|0,0:0|0:0|0:0,0:0:0:0:
51,282,479604,1,0,0:0:0:0:
256,192,479770,1,0,0:0:0:0:
478,71,479937,2,0,B|431:131|478:206|478:206|522:280|478:341,1,290.000008850098,0|0,0:0|0:0,0:0:0:0:
256,352,480437,2,0,B|96:352|96:352|32:224|32:224,1,290.000008850098
144,48,480937,2,0,L|224:176,1,145.000004425049
432,240,481270,2,0,L|355:117,1,145.000004425049
64,352,481770,5,0,0:0:0:0:
256,320,481937,1,0,0:0:0:0:
448,352,482104,2,0,B|448:280|448:280|376:280|376:280|376:208|376:208|448:208|448:208,1,290.000008850098,4|0,0:0|0:0,0:0:0:0:
304,48,482604,2,0,B|377:48|377:48|377:121|377:121|449:121|449:121|449:48|449:48,1,290.000008850098
288,208,483104,2,0,B|288:230|288:134|288:134|216:134|216:134|216:278,1,290.000008850098
56,35,483770,2,0,B|56:170|56:170|128:170|128:170|128:74,2,290.000008850098,0|0|0,0:0|0:0|0:0,0:0:0:0:
32,256,484604,5,0,0:0:0:0:
256,272,484770,2,0,B|184:272|184:272|184:345|184:345|112:345|112:345|112:272|112:272,1,290.000008850098
272,352,485270,2,0,B|345:352|345:352|345:280|345:280|417:280|417:280|417:352|417:352,1,290.000008850098
464,128,485770,2,0,B|329:128|329:128|329:200|329:200|425:200,1,290.000008850098
256,48,486270,1,0,0:0:0:0:
32,80,486437,2,0,B|105:80|105:80|105:152|105:152|177:152|177:152|177:80|177:80,1,290.000008850098,0|0,0:0|0:0,0:0:0:0:
32,208,487104,6,0,B|32:343|32:343|104:343|104:343|104:247,2,290.000008850098,0|0|0,0:0|0:0|0:0,0:0:0:0:
192,352,487937,1,0,0:0:0:0:
304,160,488104,2,0,L|304:320,1,145.000004425049
208,112,488437,2,0,L|208:288,1,145.000004425049
288,48,488770,6,0,B|384:48|384:48|384:128|384:128|464:128|464:128|464:208|464:208|416:208|416:208|416:272,1,435.000013275147
240,352,489437,2,0,B|240:224|240:224|320:224|320:224|320:352|320:352|432:352,1,435.000013275147
280,128,490104,2,0,B|144:128|144:128|144:288,1,290.000008850098
48,112,490604,1,0,0:0:0:0:
48,352,490770,2,0,L|48:192,1,145.000004425049
176,32,491104,2,0,L|336:32,1,145.000004425049
464,192,491437,6,0,L|144:192,1,290.000008850098
384,112,491937,1,0,0:0:0:0:
256,288,492104,2,0,L|432:288,1,145.000004425049
272,112,492437,2,0,L|112:112,1,145.000004425049
64,320,492770,1,4,0:0:0:0:
464,160,493104,5,0,0:0:0:0:
288,32,493270,1,0,0:0:0:0:
272,256,493437,1,0,0:0:0:0:
272,256,493770,1,0,0:0:0:0:
32,32,494104,2,0,L|32:352,1,290.000008850098
480,352,494770,2,0,L|480:32,1,290.000008850098
220,258,495437,2,0,P|207:179|275:267,1,290.000008850098,0|4,0:0|0:0,0:0:0:0:
368,48,495937,5,0,0:0:0:0:
144,48,496104,1,0,0:0:0:0:
368,48,496270,1,0,0:0:0:0:
144,48,496437,1,0,0:0:0:0:
464,336,496770,1,0,0:0:0:0:
48,208,497104,2,0,P|64:288|112:336,1,145.000004425049
304,224,497437,2,0,P|368:160|496:288,1,290.000008850098
448,48,497937,1,0,0:0:0:0:
400,256,498104,2,0,P|352:336|160:304,1,290.000008850098,4|0,0:0|0:0,0:0:0:0:
48,144,498604,5,0,0:0:0:0:
256,64,498770,2,0,L|400:32,1,145.000004425049
256,192,499104,2,0,L|80:240,1,145.000004425049
288,368,499437,2,0,B|287:319|315:301|342:282|387:301|387:301|431:319|458:301|486:282|485:233,2,290.000008850098,0|0|0,0:0|0:0|0:0,0:0:0:0:
256,32,500437,2,0,B|80:64|80:64|32:144|48:240|48:240|304:192,1,580.000017700196
464,128,501270,1,0,0:0:0:0:
416,336,501437,1,0,0:0:0:0:
416,336,501770,1,0,0:0:0:0:
32,48,502104,6,0,L|416:48,1,369.999998588562
256,272,502604,1,0,0:0:0:0:
496,160,502770,2,0,L|96:160,1,369.999998588562
304,384,503270,1,0,0:0:0:0:
48,272,503437,2,0,L|432:272|432:272,1,369.999998588562,4|0,0:0|0:0,0:0:0:0:
256,16,503937,5,0,0:0:0:0:
16,192,504104,2,0,P|96:112|192:160,1,200
496,192,504437,2,0,P|416:272|320:224,1,200
64,352,504770,1,0,0:0:0:0:
448,32,505104,1,0,0:0:0:0:
256,192,505270,1,0,0:0:0:0:
62,353,505437,2,0,B|158:273|158:273|134:161|134:161|158:97|214:65|277:71,1,400
448,353,506104,2,0,B|352:273|352:273|376:161|376:161|352:97|296:65|230:71,1,400
32,192,506604,5,0,0:0:0:0:
32,192,506770,2,0,P|64:304|128:368,1,200
480,192,507104,2,0,P|448:80|384:16,1,200
193,101,507437,2,0,B|112:136|112:279|217:316|257:282|257:282|311:227|294:172|220:172|203:227|257:282|257:282|311:318|403:264|403:136|308:95,2,800,0|0|0,0:0|0:0|0:0,0:0:0:0:
464,336,509104,5,0,0:0:0:0:
384,48,509270,1,0,0:0:0:0:
416,352,509437,1,0,0:0:0:0:
336,64,509604,1,0,0:0:0:0:
368,368,509770,2,0,B|336:320|336:320|224:320|224:320|176:240|176:240|336:240|336:240,1,400
32,320,510270,1,0,0:0:0:0:
96,32,510437,1,0,0:0:0:0:
80,336,510604,1,0,0:0:0:0:
144,16,510770,2,0,B|176:64|176:64|288:64|288:64|336:144|336:144|176:144|176:144,2,400,0|0|0,0:0|0:0|0:0,0:0:0:0:
416,352,511770,5,0,0:0:0:0:
96,352,511937,1,0,0:0:0:0:
384,288,512104,1,0,0:0:0:0:
128,288,512270,1,0,0:0:0:0:
352,224,512437,1,0,0:0:0:0:
160,224,512604,1,0,0:0:0:0:
256,352,512770,5,0,0:0:0:0:
256,352,512937,1,0,0:0:0:0:
256,352,513104,1,0,0:0:0:0:
112,112,513270,1,0,0:0:0:0:
112,112,513437,1,0,0:0:0:0:
112,112,513604,1,0,0:0:0:0:
400,112,513770,1,0,0:0:0:0:
400,112,513937,1,0,0:0:0:0:
400,112,514104,2,0,B|336:32|256:16|256:16|256:128|320:176|398:204,1,400,4|0,0:0|0:0,0:0:0:0:
112,272,514604,2,0,B|176:352|256:368|256:368|256:256|192:208|114:180,1,400
112,112,515104,2,0,B|176:32|256:16|256:16|256:128|192:176|114:204,1,400
400,272,515604,2,0,B|336:352|256:368|256:368|256:256|320:208|398:180,1,400
96,320,516104,5,0,0:0:0:0:
193,186,516270,2,0,B|156:158|161:112|161:112|256:48,1,200
256,336,516604,2,0,B|350:271|350:271|355:225|318:197,1,200
432,320,517104,5,0,0:0:0:0:
410,57,517270,2,0,B|354:20|312:38|269:56|257:121|257:121|245:187|203:205|161:223|105:186,1,400
102,57,517770,2,0,B|157:20|199:38|242:56|254:121|254:121|266:187|308:205|350:223|406:186,1,400
80,320,518270,2,0,B|112:368|176:368|176:368|224:368|256:336|256:336|288:368|336:368|336:368|400:368|444:303,1,400
160,176,518770,5,0,0:0:0:0:
432,48,518937,2,0,L|432:256,1,200
128,256,519270,1,0,0:0:0:0:
256,80,519437,2,0,B|256:288|256:288|352:288|352:288|352:192,1,400
80,64,519937,2,0,B|176:64|176:64|176:208|176:208|64:208|64:208|64:128|64:128,1,400
352,96,520437,2,0,B|352:32|352:32|464:32|464:128|464:128|464:160|464:192|464:208|464:208|464:256|496:288,1,400
160,288,520937,2,0,B|160:352|160:352|48:352|48:256|48:256|48:224|48:192|48:176|48:176|48:128|16:96,1,400
295,155,521437,6,0,B|305:122|282:95|254:92|218:96|196:140|227:172|254:189|254:189|284:206|339:236|296:308|233:306|209:264|215:232,2,400,0|0|0,0:0|0:0|0:0,0:0:0:0:
464,320,522437,1,0,0:0:0:0:
80,336,522604,1,0,0:0:0:0:
400,192,522770,1,0,0:0:0:0:
112,192,522937,1,0,0:0:0:0:
256,96,523104,1,0,0:0:0:0:
256,192,523187,12,0,528771,0:0:0:0:
256,192,536604,5,0,0:0:0:0:
