osu file format v9

[General]
AudioFilename: Within Temptation - The Unforgiving.mp3
AudioLeadIn: 2000
PreviewTime: 942
Countdown: 0
SampleSet: Soft
StackLeniency: 0.7
Mode: 0
LetterboxInBreaks: 1

[Editor]
DistanceSpacing: 0.9
BeatDivisor: 4
GridSize: 4

[Metadata]
Title:The Unforgiving
Artist:Within Temptation
Creator:Armin
Version:Why Not Me
Source:
Tags:Gonzvlo narakucrimson Roddie Vass_Bass ErufenRito Glass Card N'FoRcE force HakunoKaemi metal Why not me Shot in the Dark In the Middle of the Night Faster Fire and Ice Iron Where is the edge Sinead Lost Murder A Demon's Fate Stairway to the skies TU Marathon symphonic metal rock Sharon den Adel collab

[Difficulty]
HPDrainRate:6
CircleSize:4
OverallDifficulty:7
ApproachRate:8
SliderMultiplier:2
SliderTickRate:1

[Events]
//Background and Video events
0,0,"Within-Temptation.png"
Video,-300,"Mother Maiden_xvid_003.avi"
//Break Periods
//Storyboard Layer 0 (Background)
//Storyboard Layer 1 (Fail)
//Storyboard Layer 2 (Pass)
//Storyboard Layer 3 (Foreground)
//Storyboard Sound Samples
//Background Colour Transformations
3,100,163,162,255

[TimingPoints]
2406,418.848167539267,4,2,0,100,1,0
15829,418.848167539267,4,2,0,100,1,0
34572,565.904267861353,4,1,0,100,1,0
47011,-100,4,2,1,100,0,0
95696,566.037735849057,4,2,1,100,1,0
97111,-100,4,1,0,80,0,1
97247,-100,4,1,0,82,0,1
97388,-100,4,1,0,84,0,1
97530,-100,4,1,0,86,0,1
97671,-100,4,1,0,90,0,1
97818,-100,4,1,0,93,0,0
97960,-100,4,1,0,96,0,1
98096,-100,4,2,1,100,0,1
106020,-100,4,1,1,80,0,1
106233,-100,4,1,1,83,0,1
106374,-100,4,1,1,86,0,1
106516,-100,4,1,1,89,0,1
106657,-100,4,1,1,92,0,1
106799,-100,4,1,1,95,0,1
106940,-100,4,2,1,98,0,1
116073,-100,4,2,1,98,0,0
124134,-100,4,1,0,100,0,0
124983,-100,4,2,1,100,0,0
160926,-100,4,1,0,100,0,0
161209,-100,4,2,1,100,0,0
165454,-100,4,1,0,100,0,0
165737,-100,4,2,1,100,0,0
169983,-100,4,1,0,100,0,0
170266,-100,4,2,0,87,0,0
172671,-100,4,1,0,100,0,0
173101,-100,4,1,0,81,0,1
173237,-100,4,1,0,84,0,1
173379,-100,4,1,0,87,0,1
173520,-100,4,1,0,90,0,1
174658,-100,4,2,0,100,0,0
174941,-100,4,2,1,100,0,1
182436,-100,4,2,0,100,0,1
183002,-100,4,1,0,100,0,1
183714,-100,4,2,0,100,0,0
183997,-100,4,2,1,100,0,1
191563,-100,4,1,0,80,0,1
191775,-100,4,1,0,83,0,1
191917,-100,4,1,0,86,0,1
192058,-100,4,1,0,89,0,1
192200,-100,4,1,0,91,0,1
192341,-100,4,1,0,93,0,1
192483,-100,4,1,0,95,0,1
192624,-100,4,1,0,97,0,1
192766,-100,4,1,0,98,0,1
192907,-100,4,1,0,99,0,1
193054,-100,4,2,0,100,0,0
209888,-100,4,1,0,63,0,0
211311,-100,4,2,0,5,0,0
214708,-100,4,2,0,30,0,0
215549,-100,4,1,0,15,0,0
215686,566.037735849057,4,1,0,15,1,0
215761,-100,4,2,0,5,0,0
217105,-100,4,2,0,31,0,0
217884,-100,4,1,0,15,0,0
218450,-100,4,2,0,30,0,0
218662,-100,4,1,0,15,0,0
219299,-100,4,2,0,29,0,0
219511,-100,4,2,0,36,0,0
220148,-100,4,1,0,16,0,0
220289,-100,4,2,0,16,0,0
220997,-100,4,1,0,16,0,0
221138,-100,4,2,0,16,0,0
222341,-100,4,1,0,16,0,0
222907,-100,4,2,0,16,0,0
223190,-100,4,1,0,16,0,0
223473,-100,4,2,0,16,0,0
224605,-100,4,1,0,16,0,0
225171,-100,4,2,0,16,0,0
225454,-100,4,1,0,16,0,0
226091,-100,4,2,0,16,0,0
226870,-100,4,1,0,16,0,0
227436,-100,4,2,0,16,0,0
227719,-100,4,1,0,16,0,0
228072,-100,4,2,0,16,0,0
229134,-100,4,1,0,16,0,0
229770,-100,4,2,0,16,0,0
229983,-100,4,1,0,16,0,0
230195,-100,4,2,0,16,0,0
231469,-100,4,1,0,16,0,0
231610,-100,4,2,0,16,0,0
232318,-100,4,1,0,16,0,0
232601,-100,4,2,0,33,0,0
233167,-100,4,2,0,21,0,0
233733,-100,4,1,0,21,0,0
243355,-100,4,1,0,41,0,0
246256,-100,4,1,0,26,0,0
247954,-100,4,1,0,39,0,0
250510,-100,4,2,0,40,0,0
250651,-100,4,2,0,50,0,0
250793,-100,4,2,0,60,0,0
251912,-100,4,2,1,100,0,1
267761,-100,4,2,1,100,0,0
270025,-100,4,2,1,100,0,1
270171,-76.9230769230769,4,2,1,83,0,1
285737,-76.9230769230769,4,1,0,36,0,1
286162,-76.9230769230769,4,1,0,45,0,1
286445,-76.9230769230769,4,1,0,52,0,1
286728,-76.9230769230769,4,1,0,60,0,1
287011,-76.9230769230769,4,1,0,68,0,1
287294,-76.9230769230769,4,1,0,76,0,1
287577,-76.9230769230769,4,1,1,83,0,1
287855,-76.9230769230769,4,2,1,100,0,0
288138,-76.9230769230769,4,2,1,100,0,1
296068,-76.9230769230769,4,1,1,54,0,1
296351,-76.9230769230769,4,1,1,60,0,1
296634,-76.9230769230769,4,1,1,71,0,1
296923,-76.9230769230769,4,2,1,93,0,0
297195,-76.9230769230769,4,2,1,100,0,1
306252,-76.9230769230769,4,2,1,100,0,0
324082,-76.9230769230769,4,2,1,100,0,0
324152,-76.9230769230769,4,2,1,65,0,0
337093,300,4,2,1,40,1,0
346663,-100,4,1,0,70,0,0
346851,-100,4,2,1,70,0,0
366193,-100,4,2,1,70,0,0
384870,-100,4,2,0,70,0,0
384943,-100,4,1,0,70,0,0
385138,-100,4,2,1,70,0,0
388663,-100,4,1,0,70,0,0
389001,-100,4,2,1,70,0,0
399493,-100,4,1,0,70,0,0
399651,-100,4,2,1,70,0,0
408343,-100,4,1,0,70,0,0
408943,-100,4,1,0,70,0,0
409093,-100,4,1,0,70,0,0
409168,-100,4,2,1,70,0,0
416593,-100,4,1,0,70,0,0
416670,-100,4,2,0,70,0,0
416743,-100,4,1,0,50,0,0
416893,-100,4,1,0,80,0,0
416968,-100,4,2,0,70,0,0
417043,-100,4,1,0,50,0,0
417193,-100,4,1,0,90,0,0
417270,-100,4,2,0,70,0,0
417493,-100,4,1,0,100,0,0
417568,-100,4,2,0,70,0,0
418693,-100,4,2,1,70,0,1
428226,-100,4,1,0,70,0,1
428451,-100,4,2,1,70,0,1
436634,-100,4,2,0,70,0,1
436784,-100,4,1,0,70,0,1
437830,-100,4,1,0,70,0,0
437893,-100,4,1,0,70,0,1
442693,-100,4,1,0,70,0,0
452001,-100,4,2,1,70,0,0
461293,-100,4,1,0,70,0,0
461976,-100,4,2,1,70,0,0
470293,-100,4,1,0,70,0,0
471576,-100,4,2,0,70,0,0
471726,-100,4,1,0,70,0,0
471876,-100,4,2,1,70,0,0
475693,-100,4,1,0,70,0,0
475926,-100,4,1,0,70,0,0
476526,-100,4,1,0,70,0,0
476676,-100,4,2,1,70,0,0
479893,-100,4,1,0,70,0,0
481176,-100,4,2,0,70,0,0
481326,-100,4,1,0,70,0,0
481476,-100,4,2,1,70,0,0
490693,-100,4,1,0,70,0,1
490851,-100,4,2,1,70,0,1
499693,-100,4,1,0,60,0,1
499993,-100,4,1,0,65,0,1
500143,-100,4,1,0,70,0,0
500293,-100,4,1,0,70,0,1
501276,-100,4,2,0,70,0,1
501426,-100,4,1,0,70,0,1
501876,-100,4,2,0,70,0,1
502326,-100,4,1,0,70,0,1
502776,-100,4,2,0,70,0,1
502926,-100,4,1,0,70,0,1
509293,-100,4,1,0,60,0,1
509593,-100,4,1,0,65,0,1
514693,-100,4,1,0,70,0,0
514709,-100,4,1,0,70,0,0
563151,-83.3333333333333,4,1,0,70,0,0
574251,-76.9230769230769,4,1,0,70,0,0
581893,-76.9230769230769,4,1,0,70,0,1
591193,-76.9230769230769,4,1,0,70,0,0
591493,-76.9230769230769,4,1,0,70,0,1
601093,-76.9230769230769,4,1,0,70,0,1
603726,-83.3333333333333,4,1,0,70,0,1
605893,-83.3333333333333,4,1,0,70,0,0
634993,-83.3333333333333,4,1,0,20,0,0
648736,500,4,2,1,100,1,0
710611,-100,4,1,0,63,0,0
710781,-100,4,1,0,65,0,0
710857,-100,4,1,0,70,0,0
710982,-100,4,1,0,76,0,0
711107,-100,4,1,0,79,0,0
711232,-100,4,1,0,85,0,0
711357,-100,4,1,0,91,0,0
711482,-100,4,1,0,94,0,0
711781,-100,4,1,0,100,0,0
712736,-76.9230769230769,4,1,0,100,0,1
712798,-76.9230769230769,4,2,1,100,0,1
720498,-76.9230769230769,4,1,0,100,0,0
720736,-76.9230769230769,4,1,0,100,0,1
721986,-76.9230769230769,4,2,1,100,0,1
727986,-76.9230769230769,4,1,0,80,0,1
728111,-76.9230769230769,4,1,0,83,0,1
728236,-76.9230769230769,4,1,0,86,0,1
728361,-76.9230769230769,4,1,0,89,0,1
728486,-76.9230769230769,4,1,0,92,0,1
728623,-76.9230769230769,4,1,0,95,0,0
728736,-76.9230769230769,4,1,0,98,0,1
744736,-100,4,1,0,100,0,0
751234,-100,4,2,1,100,0,0
752611,-100,4,1,0,100,0,0
752861,-100,4,2,1,100,0,0
759611,-100,4,1,0,100,0,0
759861,-100,4,2,0,100,0,0
760173,-100,4,1,0,100,0,0
760361,-100,4,2,0,100,0,0
760673,-100,4,1,0,100,0,0
760861,-100,4,2,1,100,0,0
784548,-100,4,2,0,100,0,0
785111,-100,4,1,0,100,0,0
785361,-83.3333333333333,4,1,0,100,0,0
785548,-83.3333333333333,4,2,0,100,0,0
786111,-83.3333333333333,4,1,0,100,0,0
786361,-71.4285714285714,4,1,0,100,0,0
786548,-71.4285714285714,4,2,0,100,0,0
787111,-62.5,4,1,0,100,0,0
787548,-62.5,4,2,0,100,0,0
788111,-55.5555555555556,4,1,0,100,0,0
789361,-50,4,1,0,100,0,0
789548,-50,4,2,0,100,0,0
790111,-76.9230769230769,4,1,0,100,0,0
790736,-76.9230769230769,4,1,0,80,0,0
790986,-76.9230769230769,4,1,0,85,0,0
791236,-76.9230769230769,4,1,0,90,0,0
791486,-76.9230769230769,4,1,0,95,0,0
791736,-76.9230769230769,4,1,0,100,0,0
792736,-76.9230769230769,4,1,0,100,0,1
800486,-76.9230769230769,4,1,0,100,0,0
800736,-76.9230769230769,4,1,0,100,0,1
808611,-76.9230769230769,4,1,0,100,0,0
808736,-76.9230769230769,4,1,0,100,0,1
824611,-76.9230769230769,4,1,0,100,0,0
824736,-76.9230769230769,4,1,0,100,0,1
824861,-76.9230769230769,4,1,0,100,0,0
852361,-76.9230769230769,4,2,0,100,0,0
858736,-76.9230769230769,4,1,0,100,0,0
860736,-66.6666666666667,4,1,0,100,0,1
868486,-66.6666666666667,4,1,0,100,0,0
868736,-66.6666666666667,4,1,0,100,0,1
872361,-66.6666666666667,4,1,0,100,0,1
873861,-66.6666666666667,4,1,0,100,0,1
884486,-66.6666666666667,4,1,0,100,0,0
884736,-66.6666666666667,4,1,0,100,0,1
886236,-66.6666666666667,4,1,0,100,0,0
912957,856.959223023638,4,2,0,21,1,0
941887,-117.647058823529,4,2,0,21,0,0
972298,-100,4,2,0,21,0,0
974654,-100,4,2,0,21,0,0
991894,-117.647058823529,4,2,0,21,0,0
992858,-100,4,2,0,21,0,0
1015131,-90.9090909090909,4,2,0,21,0,0
1015452,-90.9090909090909,4,2,0,5,0,0
1017701,-100,4,2,0,15,0,0
1022649,428.571428571429,4,2,1,78,1,0
1030031,-90.9090909090909,4,2,0,79,0,0
1031103,-100,4,2,1,79,0,0
1049960,-100,4,1,0,60,0,0
1050174,-100,4,2,0,100,0,0
1051674,-100,4,1,0,60,0,0
1051889,-100,4,2,0,100,0,0
1052103,-100,4,1,0,60,0,0
1052317,-100,4,2,0,100,0,0
1052531,-100,4,1,0,60,0,0
1052746,-100,4,2,0,100,0,0
1052960,-100,4,1,0,60,0,0
1053174,-100,4,2,0,100,0,0
1053389,-100,4,1,0,80,0,0
1053603,-100,4,2,0,100,0,0
1054246,-100,4,1,0,80,0,0
1054460,-100,4,2,1,81,0,0
1067103,-100,4,1,0,80,0,0
1067317,-100,4,2,1,100,0,0
1069674,-100,4,1,0,85,0,0
1069996,-100,4,2,1,85,0,0
1070531,-100,4,1,0,68,0,0
1070746,-100,4,2,0,100,0,0
1071389,-100,4,1,0,80,0,0
1071603,-100,4,2,0,100,0,0
1072246,-100,4,1,0,60,0,0
1072460,-100,4,2,0,100,0,0
1073103,-100,4,1,0,80,0,0
1073317,-100,4,2,0,100,0,0
1073960,-100,4,1,0,60,0,0
1074174,-100,4,2,0,100,0,0
1074389,-100,4,1,0,60,0,0
1074603,-100,4,2,0,100,0,0
1074817,-100,4,1,0,80,0,0
1075031,-100,4,2,0,100,0,0
1075674,-100,4,1,0,60,0,0
1076317,-100,4,2,0,100,0,0
1076531,-100,4,1,0,80,0,0
1076746,-100,4,2,0,100,0,0
1077389,-100,4,2,1,81,0,0
1081246,-90.9090909090909,4,2,1,82,0,0
1082317,-100,4,2,1,80,0,0
1083281,-100,4,2,1,80,0,0
1093460,-90.9090909090909,4,2,1,80,0,0
1094317,-100,4,2,1,80,0,0
1105674,-100,4,2,1,80,0,0
1118531,-100,4,1,0,80,0,0
1118746,-100,4,2,1,80,0,0
1122014,-100,4,1,0,80,0,0
1122174,-100,4,2,1,80,0,0
1128817,-133.333333333333,4,2,1,80,0,0
1135674,-100,4,2,0,22,0,0
1137505,444.444444444444,4,2,0,22,1,0
1139282,461.538461538462,4,2,0,16,1,0
1140205,571.428571428571,4,2,0,19,1,0
1141347,571.428571428571,4,2,0,19,1,0
1150313,454.545454545455,4,2,0,100,1,0
1153040,-100,4,2,1,100,0,0
1226981,-72.992700729927,4,2,1,100,0,0
1241222,-68.0272108843537,4,2,1,100,0,1
1284868,-105.042016806723,4,1,0,100,0,0
1291224,-80.7754442649435,4,1,0,100,0,0
1291299,-80.7754442649435,4,2,1,100,0,0
1291375,-80.7754442649435,4,1,0,100,0,0
1291451,-80.7754442649435,4,2,1,100,0,0
1291527,-80.7754442649435,4,1,0,100,0,0
1291602,-80.7754442649435,4,2,1,100,0,0
1291678,-74.6268656716418,4,1,0,100,0,0
1292133,-72.7272727272727,4,2,1,100,0,0
1328494,-72.992700729927,4,2,1,100,0,1
1342147,-72.992700729927,4,2,1,100,0,1
1342737,-72.992700729927,4,2,1,100,0,0
1343040,-72.992700729927,4,2,1,100,0,1
1345025,-63.2911392405063,4,2,1,100,0,1
1345935,-72.992700729927,4,2,1,100,0,1
1357585,-72.992700729927,4,2,1,100,0,0
1372139,-72.992700729927,4,2,1,100,0,0
1408427,-86.2068965517241,4,2,1,100,0,0
1409571,-87.5656742556918,4,2,1,100,0,0
1412071,-87.5656742556918,4,1,0,100,0,0
1412222,-87.5656742556918,4,2,1,100,0,0
1415767,-72.992700729927,4,2,1,100,0,1
1430009,-72.992700729927,4,2,1,100,0,0
1430312,-72.992700729927,4,2,1,100,0,1
1430632,-63.2911392405063,4,2,1,100,0,1
1444706,-63.2911392405063,4,2,1,100,0,0
1444858,-63.2911392405063,4,2,1,100,0,1
1473949,-63.2911392405063,4,2,1,100,0,0
1491562,389.61038961039,4,1,0,80,1,0
1506367,-200,4,1,0,80,0,0
1507146,-100,4,1,0,80,0,0
1550782,-100,4,1,0,80,0,1
1575717,-100,4,1,0,80,0,0
1584873,-100,4,2,0,70,0,0
1587511,-100,4,1,0,80,0,0
1589938,-200,4,1,0,80,0,0
1590523,-100,4,1,0,80,0,0
1619354,-100,4,1,0,80,0,1
1644289,-100,4,1,0,80,0,0
1662990,-100,4,2,0,40,0,0
1678575,-100,4,2,0,70,0,0
1688315,-100,4,1,0,40,0,0
1688510,-100,4,1,0,50,0,0
1688704,-100,4,1,0,60,0,0
1688899,-100,4,1,0,70,0,0
1689094,-100,4,1,0,80,0,0
1689289,-100,4,1,0,80,0,0
1689484,-100,4,1,0,80,0,0
1691042,-100,4,1,0,80,0,1
1714419,-100,4,2,0,40,0,0
1730551,512.820512820513,4,1,0,100,1,0
1747667,-181.818181818182,4,2,0,35,0,0
1763137,-120.481927710843,4,2,1,70,0,0
1795191,-120.481927710843,4,2,1,90,0,0
1796192,-90.9090909090909,4,2,1,100,0,1
1824909,-100,4,2,1,100,0,0
1830166,-119.760479041916,4,2,1,100,0,0
1874140,-90.9090909090909,4,2,1,100,0,1
1902858,-100,4,2,1,100,0,0
1917477,-120.481927710843,4,2,1,100,0,0
1950551,-120.481927710843,4,2,1,70,0,0
1951063,-120.481927710843,4,2,1,60,0,0
1952088,-90.9090909090909,4,2,1,100,0,1
1967986,-90.9090909090909,4,2,1,100,0,0
1968499,-90.9090909090909,4,2,1,100,0,1
1980807,-90.9090909090909,4,2,1,100,0,0
1994397,428.571428571429,3,2,0,30,1,0
1995484,-100,3,2,0,48,0,0
1995913,-100,3,2,0,30,0,0
2000627,-100,3,2,0,51,0,0
2001055,-100,3,2,0,30,0,0
2045825,-100,3,2,0,40,0,0
2070163,-100,3,1,0,60,0,0
2070323,-100,3,2,0,60,0,0
2071539,-100,3,1,0,50,0,0
2072825,-100,3,1,0,60,0,0
2073055,-100,3,2,0,60,0,0
2073913,-100,3,2,1,60,0,0
2130682,-100,3,2,1,60,0,1
2141198,-87.719298245614,3,2,1,60,0,1
2142484,-100,3,2,1,60,0,1
2153825,-100,3,2,1,60,0,0
2189734,-87.719298245614,3,2,1,60,0,0
2197448,-100,3,2,1,60,0,0
2245012,-100,3,1,0,60,0,0
2246397,-100,3,1,0,60,0,1
2246619,-100,3,2,1,60,0,1
2269111,-100,3,2,1,60,0,0
2269539,-100,3,2,1,60,0,1
2290111,-100,3,2,1,60,0,0
2308992,447.761194029851,4,2,0,29,1,0
2316044,-100,4,2,1,51,0,0
2336305,-100,4,1,0,41,0,0
2337318,-100,4,2,1,51,0,0
2350969,-100,4,1,0,41,0,0
2351865,-133.333333333333,4,2,1,60,0,0
2365521,-133.333333333333,4,1,0,20,0,0
2365745,-133.333333333333,4,1,0,30,0,0
2365969,-100,4,1,0,50,0,0
2366305,-100,4,1,2,60,0,1
2379408,-100,4,1,2,70,0,1
2381087,-100,4,1,2,60,0,1
2394962,-100,4,1,2,60,0,0
2402350,-100,4,2,1,55,0,0
2415223,-100,4,1,0,50,0,0
2416566,-100,4,2,1,50,0,0
2429775,-100,4,1,0,50,0,0
2430671,-133.333333333333,4,2,1,50,0,0
2444327,-133.333333333333,4,2,1,40,0,0
2444551,-133.333333333333,4,2,1,50,0,0
2445111,-100,4,1,2,60,0,1
2470186,-100,4,1,0,65,0,0
2488096,-100,4,1,0,65,0,1
2488214,-100,4,1,0,65,0,0
2502424,-100,4,1,0,65,0,1
2502542,-100,4,1,0,65,0,0
2526162,-100,4,1,0,40,0,0
2526721,-100,4,1,0,50,0,0
2527169,-100,4,1,0,60,0,0
2527499,-100,4,1,2,65,0,1
2541380,-100,4,1,2,65,0,0
2541827,-100,4,1,2,65,0,1
2553021,-100,4,1,2,65,0,1
2555596,-100,4,1,2,5,0,1
2556156,-100,4,1,2,56,0,0
2565180,447.761194029851,4,1,0,100,1,0
2579508,-100,4,2,0,100,0,0
2586112,-100,4,1,0,69,0,0
2643985,-100,4,1,0,69,0,1
2658314,-100,4,1,0,69,0,1
2671747,-100,4,1,0,69,0,1
2672642,-100,4,1,0,69,0,0
2701539,-90.9090909090909,4,1,0,69,0,0
2715643,-100,4,1,0,69,0,0
2729956,-100,4,1,0,69,0,1
2758612,-76.9230769230769,4,1,0,69,0,0
2761875,-66.6666666666667,4,1,0,69,0,0
2801605,-133.333333333333,4,1,0,60,0,0
2815926,-100,4,1,0,60,0,0
2844582,-100,4,1,0,60,0,1
2855329,-100,4,1,0,60,0,0
2858911,-100,4,1,0,60,0,1
2873239,-100,4,1,0,60,0,0
2889304,-100,4,2,0,5,0,0
2895844,370.37037037037,4,2,0,100,1,0
2901399,-166.666666666667,4,2,0,50,0,0
2924269,-200,4,2,0,50,0,0
2940108,-200,4,2,1,50,0,0
2952145,-100,4,2,1,75,0,0
2960479,-133.333333333333,4,2,1,75,0,0
2962331,-100,4,2,1,75,0,0
2976220,-100,4,2,1,75,0,0
3016775,-133.333333333333,4,2,1,75,0,0
3018627,-100,4,2,1,75,0,0
3057232,-151.515151515152,4,1,0,60,0,0
3058719,-100,4,2,0,75,0,0
3059182,-100,4,2,1,75,0,0
3082562,-100,4,2,0,10,0,0
3086775,-100,4,2,0,75,0,0
3103066,-151.515151515152,4,1,0,60,0,0
3105571,-151.515151515152,4,2,0,75,0,0
3106126,-151.515151515152,4,1,0,60,0,0
3108066,-151.515151515152,4,2,0,75,0,0
3108437,-151.515151515152,4,1,0,60,0,0
3108626,-151.515151515152,4,2,0,75,0,0
3109177,-151.515151515152,4,1,0,60,0,0
3111029,-151.515151515152,4,2,0,75,0,0
3111400,-151.515151515152,4,1,0,60,0,0
3111589,-151.515151515152,4,2,0,75,0,0
3112140,-151.515151515152,4,1,0,60,0,0
3117978,-100,4,2,1,75,0,0
3126214,-100,4,2,1,75,0,0
3165474,-100,4,2,1,75,0,1
3176960,-100,4,2,1,75,0,0
3177325,-100,4,2,1,75,0,1
3177695,-100,4,2,1,75,0,0

[Colours]
Combo1 : 255,150,0
Combo2 : 5,240,5
Combo3 : 5,5,240
Combo4 : 240,5,5
SliderBorder : 0,0,0

[HitObjects]
40,48,2405,1,4
144,344,2824,1,0
256,48,3243,1,2
368,344,3662,1,0
472,48,4081,1,2
336,216,4500,2,0,B|308:146|192:136|171:225|171:225,1,200,0|2
256,256,5128,1,0
256,336,5337,1,0
92,88,5756,5,2
256,144,6175,1,0
420,88,6594,1,2
400,252,7013,1,0
256,336,7432,1,2
112,252,7851,1,0
92,88,8269,1,2
336,172,8688,6,0,B|308:102|192:92|171:181|171:181,1,200,0|2
348,348,9526,1,0
164,348,9945,1,2
80,160,10364,1,0
256,40,10782,1,2
432,160,11201,1,0
256,196,11620,1,2
256,196,11830,1,0
256,196,12039,1,0
176,316,12458,6,0,B|204:386|320:396|341:307|341:307,1,200,2|0
80,224,13296,1,2
256,44,13714,1,0
432,224,14133,1,2
112,92,14552,1,0
256,272,14971,1,2
400,92,15390,1,0
456,336,15829,5,4
256,44,16247,1,0
56,336,16666,1,2
256,272,17085,1,0
88,68,17504,1,2
424,68,17923,1,0
168,208,18342,1,2
256,168,18551,1,0
344,208,18760,1,0
176,312,19179,6,0,B|204:382|320:392|341:303|341:303,1,200,2|0
472,192,20017,1,2
256,40,20436,1,0
40,192,20855,1,2
256,348,21274,1,0
170,80,21692,2,0,B|179:110|211:135|252:141|252:141|280:151|302:184|280:217|256:223|227:217|199:184|225:151|252:141|252:141|296:135|323:114|337:72,1,400,2|2
432,288,22949,5,0
256,352,23368,1,2
80,288,23787,1,0
164,159,24205,2,0,B|208:128|256:168|256:168|304:128|348:158|348:158,1,200,2|0
180,36,25043,1,2
256,60,25253,1,0
332,36,25462,1,0
472,120,25881,6,0,B|402:148|392:264|481:285|481:285,1,200,2|0
336,372,26719,2,0,B|308:302|192:292|171:381|171:381,1,200,2|0
40,280,27556,2,0,B|110:252|120:136|31:115|31:115,1,200,2|0
180,68,28394,5,2
256,20,28603,1,0
332,68,28813,1,0
302,153,29022,1,0
208,152,29232,1,0
256,192,29336,12,0,30907
