osu file format v9

[General]
AudioFilename: Within Temptation - The Unforgiving.mp3
AudioLeadIn: 2000
PreviewTime: 1690653
Countdown: 0
SampleSet: Normal
StackLeniency: 0.7
Mode: 0
LetterboxInBreaks: 1

[Editor]
DistanceSpacing: 1
BeatDivisor: 4
GridSize: 4

[Metadata]
Title:The Unforgiving
Artist:Within Temptation
Creator:Armin
Version:Where Is The Edge
Source:
Tags:Gonzvlo narakucrimson Roddie Vass_Bass ErufenRito Glass Card N'FoRcE force HakunoKaemi metal Why not me Shot in the Dark In the Middle of the Night Faster Fire and Ice Iron Where is the edge Sinead Lost Murder A Demon's Fate Stairway to the skies TU Marathon symphonic metal rock Sharon den Adel collab

[Difficulty]
HPDrainRate:6
CircleSize:4
OverallDifficulty:7
ApproachRate:8
SliderMultiplier:2
SliderTickRate:1

[Events]
//Background and Video events
0,0,"Within-Temptation.png"
//Break Periods
2,1575917,1584318
2,1666307,1676266
//Storyboard Layer 0 (Background)
//Storyboard Layer 1 (Fail)
//Storyboard Layer 2 (Pass)
//Storyboard Layer 3 (Foreground)
//Storyboard Sound Samples
//Background Colour Transformations
3,100,163,162,255

[TimingPoints]
2406,418.848167539267,4,2,0,100,1,0
15829,418.848167539267,4,2,0,100,1,0
34572,565.904267861353,4,1,0,100,1,0
47011,-100,4,2,1,100,0,0
95696,566.037735849057,4,2,1,100,1,0
97111,-100,4,1,0,80,0,1
97247,-100,4,1,0,82,0,1
97388,-100,4,1,0,84,0,1
97530,-100,4,1,0,86,0,1
97671,-100,4,1,0,90,0,1
97818,-100,4,1,0,93,0,0
97960,-100,4,1,0,96,0,1
98096,-100,4,2,1,100,0,1
106020,-100,4,1,1,80,0,1
106233,-100,4,1,1,83,0,1
106374,-100,4,1,1,86,0,1
106516,-100,4,1,1,89,0,1
106657,-100,4,1,1,92,0,1
106799,-100,4,1,1,95,0,1
106940,-100,4,2,1,98,0,1
116073,-100,4,2,1,98,0,0
124134,-100,4,1,0,100,0,0
124983,-100,4,2,1,100,0,0
160926,-100,4,1,0,100,0,0
161209,-100,4,2,1,100,0,0
165454,-100,4,1,0,100,0,0
165737,-100,4,2,1,100,0,0
169983,-100,4,1,0,100,0,0
170266,-100,4,2,0,87,0,0
172671,-100,4,1,0,100,0,0
173101,-100,4,1,0,81,0,1
173237,-100,4,1,0,84,0,1
173379,-100,4,1,0,87,0,1
173520,-100,4,1,0,90,0,1
174658,-100,4,2,0,100,0,0
174941,-100,4,2,1,100,0,1
182436,-100,4,2,0,100,0,1
183002,-100,4,1,0,100,0,1
183714,-100,4,2,0,100,0,0
183997,-100,4,2,1,100,0,1
191563,-100,4,1,0,80,0,1
191775,-100,4,1,0,83,0,1
191917,-100,4,1,0,86,0,1
192058,-100,4,1,0,89,0,1
192200,-100,4,1,0,91,0,1
192341,-100,4,1,0,93,0,1
192483,-100,4,1,0,95,0,1
192624,-100,4,1,0,97,0,1
192766,-100,4,1,0,98,0,1
192907,-100,4,1,0,99,0,1
193054,-100,4,2,0,100,0,0
209888,-100,4,1,0,63,0,0
211311,-100,4,2,0,5,0,0
214708,-100,4,2,0,30,0,0
215549,-100,4,1,0,15,0,0
215686,566.037735849057,4,1,0,15,1,0
215761,-100,4,2,0,5,0,0
217105,-100,4,2,0,31,0,0
217884,-100,4,1,0,15,0,0
218450,-100,4,2,0,30,0,0
218662,-100,4,1,0,15,0,0
219299,-100,4,2,0,29,0,0
219511,-100,4,2,0,36,0,0
220148,-100,4,1,0,16,0,0
220289,-100,4,2,0,16,0,0
220997,-100,4,1,0,16,0,0
221138,-100,4,2,0,16,0,0
222341,-100,4,1,0,16,0,0
222907,-100,4,2,0,16,0,0
223190,-100,4,1,0,16,0,0
223473,-100,4,2,0,16,0,0
224605,-100,4,1,0,16,0,0
225171,-100,4,2,0,16,0,0
225454,-100,4,1,0,16,0,0
226091,-100,4,2,0,16,0,0
226870,-100,4,1,0,16,0,0
227436,-100,4,2,0,16,0,0
227719,-100,4,1,0,16,0,0
228072,-100,4,2,0,16,0,0
229134,-100,4,1,0,16,0,0
229770,-100,4,2,0,16,0,0
229983,-100,4,1,0,16,0,0
230195,-100,4,2,0,16,0,0
231469,-100,4,1,0,16,0,0
231610,-100,4,2,0,16,0,0
232318,-100,4,1,0,16,0,0
232601,-100,4,2,0,33,0,0
233167,-100,4,2,0,21,0,0
233733,-100,4,1,0,21,0,0
243355,-100,4,1,0,41,0,0
246256,-100,4,1,0,26,0,0
247954,-100,4,1,0,39,0,0
250510,-100,4,2,0,40,0,0
250651,-100,4,2,0,50,0,0
250793,-100,4,2,0,60,0,0
251912,-100,4,2,1,100,0,1
267761,-100,4,2,1,100,0,0
270025,-100,4,2,1,100,0,1
270171,-76.9230769230769,4,2,1,83,0,1
285737,-76.9230769230769,4,1,0,36,0,1
286162,-76.9230769230769,4,1,0,45,0,1
286445,-76.9230769230769,4,1,0,52,0,1
286728,-76.9230769230769,4,1,0,60,0,1
287011,-76.9230769230769,4,1,0,68,0,1
287294,-76.9230769230769,4,1,0,76,0,1
287577,-76.9230769230769,4,1,1,83,0,1
287855,-76.9230769230769,4,2,1,100,0,0
288138,-76.9230769230769,4,2,1,100,0,1
296068,-76.9230769230769,4,1,1,54,0,1
296351,-76.9230769230769,4,1,1,60,0,1
296634,-76.9230769230769,4,1,1,71,0,1
296923,-76.9230769230769,4,2,1,93,0,0
297195,-76.9230769230769,4,2,1,100,0,1
306252,-76.9230769230769,4,2,1,100,0,0
324082,-76.9230769230769,4,2,1,100,0,0
324152,-76.9230769230769,4,2,1,65,0,0
337093,300,4,2,1,40,1,0
346663,-100,4,1,0,70,0,0
346851,-100,4,2,1,70,0,0
366193,-100,4,2,1,70,0,0
384870,-100,4,2,0,70,0,0
384943,-100,4,1,0,70,0,0
385138,-100,4,2,1,70,0,0
388663,-100,4,1,0,70,0,0
389001,-100,4,2,1,70,0,0
399493,-100,4,1,0,70,0,0
399651,-100,4,2,1,70,0,0
408343,-100,4,1,0,70,0,0
408943,-100,4,1,0,70,0,0
409093,-100,4,1,0,70,0,0
409168,-100,4,2,1,70,0,0
416593,-100,4,1,0,70,0,0
416670,-100,4,2,0,70,0,0
416743,-100,4,1,0,50,0,0
416893,-100,4,1,0,80,0,0
416968,-100,4,2,0,70,0,0
417043,-100,4,1,0,50,0,0
417193,-100,4,1,0,90,0,0
417270,-100,4,2,0,70,0,0
417493,-100,4,1,0,100,0,0
417568,-100,4,2,0,70,0,0
418693,-100,4,2,1,70,0,1
428226,-100,4,1,0,70,0,1
428451,-100,4,2,1,70,0,1
436634,-100,4,2,0,70,0,1
436784,-100,4,1,0,70,0,1
437830,-100,4,1,0,70,0,0
437893,-100,4,1,0,70,0,1
442693,-100,4,1,0,70,0,0
452001,-100,4,2,1,70,0,0
461293,-100,4,1,0,70,0,0
461976,-100,4,2,1,70,0,0
470293,-100,4,1,0,70,0,0
471576,-100,4,2,0,70,0,0
471726,-100,4,1,0,70,0,0
471876,-100,4,2,1,70,0,0
475693,-100,4,1,0,70,0,0
475926,-100,4,1,0,70,0,0
476526,-100,4,1,0,70,0,0
476676,-100,4,2,1,70,0,0
479893,-100,4,1,0,70,0,0
481176,-100,4,2,0,70,0,0
481326,-100,4,1,0,70,0,0
481476,-100,4,2,1,70,0,0
490693,-100,4,1,0,70,0,1
490851,-100,4,2,1,70,0,1
499693,-100,4,1,0,60,0,1
499993,-100,4,1,0,65,0,1
500143,-100,4,1,0,70,0,0
500293,-100,4,1,0,70,0,1
501276,-100,4,2,0,70,0,1
501426,-100,4,1,0,70,0,1
501876,-100,4,2,0,70,0,1
502326,-100,4,1,0,70,0,1
502776,-100,4,2,0,70,0,1
502926,-100,4,1,0,70,0,1
509293,-100,4,1,0,60,0,1
509593,-100,4,1,0,65,0,1
514693,-100,4,1,0,70,0,0
514709,-100,4,1,0,70,0,0
563151,-83.3333333333333,4,1,0,70,0,0
574251,-76.9230769230769,4,1,0,70,0,0
581893,-76.9230769230769,4,1,0,70,0,1
591193,-76.9230769230769,4,1,0,70,0,0
591493,-76.9230769230769,4,1,0,70,0,1
601093,-76.9230769230769,4,1,0,70,0,1
603726,-83.3333333333333,4,1,0,70,0,1
605893,-83.3333333333333,4,1,0,70,0,0
634993,-83.3333333333333,4,1,0,20,0,0
648736,500,4,2,1,100,1,0
710611,-100,4,1,0,63,0,0
710781,-100,4,1,0,65,0,0
710857,-100,4,1,0,70,0,0
710982,-100,4,1,0,76,0,0
711107,-100,4,1,0,79,0,0
711232,-100,4,1,0,85,0,0
711357,-100,4,1,0,91,0,0
711482,-100,4,1,0,94,0,0
711781,-100,4,1,0,100,0,0
712736,-76.9230769230769,4,1,0,100,0,1
712798,-76.9230769230769,4,2,1,100,0,1
720498,-76.9230769230769,4,1,0,100,0,0
720736,-76.9230769230769,4,1,0,100,0,1
721986,-76.9230769230769,4,2,1,100,0,1
727986,-76.9230769230769,4,1,0,80,0,1
728111,-76.9230769230769,4,1,0,83,0,1
728236,-76.9230769230769,4,1,0,86,0,1
728361,-76.9230769230769,4,1,0,89,0,1
728486,-76.9230769230769,4,1,0,92,0,1
728623,-76.9230769230769,4,1,0,95,0,0
728736,-76.9230769230769,4,1,0,98,0,1
744736,-100,4,1,0,100,0,0
751234,-100,4,2,1,100,0,0
752611,-100,4,1,0,100,0,0
752861,-100,4,2,1,100,0,0
759611,-100,4,1,0,100,0,0
759861,-100,4,2,0,100,0,0
760173,-100,4,1,0,100,0,0
760361,-100,4,2,0,100,0,0
760673,-100,4,1,0,100,0,0
760861,-100,4,2,1,100,0,0
784548,-100,4,2,0,100,0,0
785111,-100,4,1,0,100,0,0
785361,-83.3333333333333,4,1,0,100,0,0
785548,-83.3333333333333,4,2,0,100,0,0
786111,-83.3333333333333,4,1,0,100,0,0
786361,-71.4285714285714,4,1,0,100,0,0
786548,-71.4285714285714,4,2,0,100,0,0
787111,-62.5,4,1,0,100,0,0
787548,-62.5,4,2,0,100,0,0
788111,-55.5555555555556,4,1,0,100,0,0
789361,-50,4,1,0,100,0,0
789548,-50,4,2,0,100,0,0
790111,-76.9230769230769,4,1,0,100,0,0
790736,-76.9230769230769,4,1,0,80,0,0
790986,-76.9230769230769,4,1,0,85,0,0
791236,-76.9230769230769,4,1,0,90,0,0
791486,-76.9230769230769,4,1,0,95,0,0
791736,-76.9230769230769,4,1,0,100,0,0
792736,-76.9230769230769,4,1,0,100,0,1
800486,-76.9230769230769,4,1,0,100,0,0
800736,-76.9230769230769,4,1,0,100,0,1
808611,-76.9230769230769,4,1,0,100,0,0
808736,-76.9230769230769,4,1,0,100,0,1
824611,-76.9230769230769,4,1,0,100,0,0
824736,-76.9230769230769,4,1,0,100,0,1
824861,-76.9230769230769,4,1,0,100,0,0
852361,-76.9230769230769,4,2,0,100,0,0
858736,-76.9230769230769,4,1,0,100,0,0
860736,-66.6666666666667,4,1,0,100,0,1
868486,-66.6666666666667,4,1,0,100,0,0
868736,-66.6666666666667,4,1,0,100,0,1
872361,-66.6666666666667,4,1,0,100,0,1
873861,-66.6666666666667,4,1,0,100,0,1
884486,-66.6666666666667,4,1,0,100,0,0
884736,-66.6666666666667,4,1,0,100,0,1
886236,-66.6666666666667,4,1,0,100,0,0
912957,856.959223023638,4,2,0,21,1,0
941887,-117.647058823529,4,2,0,21,0,0
972298,-100,4,2,0,21,0,0
974654,-100,4,2,0,21,0,0
991894,-117.647058823529,4,2,0,21,0,0
992858,-100,4,2,0,21,0,0
1015131,-90.9090909090909,4,2,0,21,0,0
1015452,-90.9090909090909,4,2,0,5,0,0
1017701,-100,4,2,0,15,0,0
1022649,428.571428571429,4,2,1,78,1,0
1030031,-90.9090909090909,4,2,0,79,0,0
1031103,-100,4,2,1,79,0,0
1049960,-100,4,1,0,60,0,0
1050174,-100,4,2,0,100,0,0
1051674,-100,4,1,0,60,0,0
1051889,-100,4,2,0,100,0,0
1052103,-100,4,1,0,60,0,0
1052317,-100,4,2,0,100,0,0
1052531,-100,4,1,0,60,0,0
1052746,-100,4,2,0,100,0,0
1052960,-100,4,1,0,60,0,0
1053174,-100,4,2,0,100,0,0
1053389,-100,4,1,0,80,0,0
1053603,-100,4,2,0,100,0,0
1054246,-100,4,1,0,80,0,0
1054460,-100,4,2,1,81,0,0
1067103,-100,4,1,0,80,0,0
1067317,-100,4,2,1,100,0,0
1069674,-100,4,1,0,85,0,0
1069996,-100,4,2,1,85,0,0
1070531,-100,4,1,0,68,0,0
1070746,-100,4,2,0,100,0,0
1071389,-100,4,1,0,80,0,0
1071603,-100,4,2,0,100,0,0
1072246,-100,4,1,0,60,0,0
1072460,-100,4,2,0,100,0,0
1073103,-100,4,1,0,80,0,0
1073317,-100,4,2,0,100,0,0
1073960,-100,4,1,0,60,0,0
1074174,-100,4,2,0,100,0,0
1074389,-100,4,1,0,60,0,0
1074603,-100,4,2,0,100,0,0
1074817,-100,4,1,0,80,0,0
1075031,-100,4,2,0,100,0,0
1075674,-100,4,1,0,60,0,0
1076317,-100,4,2,0,100,0,0
1076531,-100,4,1,0,80,0,0
1076746,-100,4,2,0,100,0,0
1077389,-100,4,2,1,81,0,0
1081246,-90.9090909090909,4,2,1,82,0,0
1082317,-100,4,2,1,80,0,0
1083281,-100,4,2,1,80,0,0
1093460,-90.9090909090909,4,2,1,80,0,0
1094317,-100,4,2,1,80,0,0
1105674,-100,4,2,1,80,0,0
1118531,-100,4,1,0,80,0,0
1118746,-100,4,2,1,80,0,0
1122014,-100,4,1,0,80,0,0
1122174,-100,4,2,1,80,0,0
1128817,-133.333333333333,4,2,1,80,0,0
1135674,-100,4,2,0,22,0,0
1137505,444.444444444444,4,2,0,22,1,0
1139282,461.538461538462,4,2,0,16,1,0
1140205,571.428571428571,4,2,0,19,1,0
1141347,571.428571428571,4,2,0,19,1,0
1150313,454.545454545455,4,2,0,100,1,0
1153040,-100,4,2,1,100,0,0
1226981,-72.992700729927,4,2,1,100,0,0
1241222,-68.0272108843537,4,2,1,100,0,1
1284868,-105.042016806723,4,1,0,100,0,0
1291224,-80.7754442649435,4,1,0,100,0,0
1291299,-80.7754442649435,4,2,1,100,0,0
1291375,-80.7754442649435,4,1,0,100,0,0
1291451,-80.7754442649435,4,2,1,100,0,0
1291527,-80.7754442649435,4,1,0,100,0,0
1291602,-80.7754442649435,4,2,1,100,0,0
1291678,-74.6268656716418,4,1,0,100,0,0
1292133,-72.7272727272727,4,2,1,100,0,0
1328494,-72.992700729927,4,2,1,100,0,1
1342147,-72.992700729927,4,2,1,100,0,1
1342737,-72.992700729927,4,2,1,100,0,0
1343040,-72.992700729927,4,2,1,100,0,1
1345025,-63.2911392405063,4,2,1,100,0,1
1345935,-72.992700729927,4,2,1,100,0,1
1357585,-72.992700729927,4,2,1,100,0,0
1372139,-72.992700729927,4,2,1,100,0,0
1408427,-86.2068965517241,4,2,1,100,0,0
1409571,-87.5656742556918,4,2,1,100,0,0
1412071,-87.5656742556918,4,1,0,100,0,0
1412222,-87.5656742556918,4,2,1,100,0,0
1415767,-72.992700729927,4,2,1,100,0,1
1430009,-72.992700729927,4,2,1,100,0,0
1430312,-72.992700729927,4,2,1,100,0,1
1430632,-63.2911392405063,4,2,1,100,0,1
1444706,-63.2911392405063,4,2,1,100,0,0
1444858,-63.2911392405063,4,2,1,100,0,1
1473949,-63.2911392405063,4,2,1,100,0,0
1491562,389.61038961039,4,1,0,80,1,0
1506367,-200,4,1,0,80,0,0
1507146,-100,4,1,0,80,0,0
1550782,-100,4,1,0,80,0,1
1575717,-100,4,1,0,80,0,0
1584873,-100,4,2,0,70,0,0
1587511,-100,4,1,0,80,0,0
1589938,-200,4,1,0,80,0,0
1590523,-100,4,1,0,80,0,0
1619354,-100,4,1,0,80,0,1
1644289,-100,4,1,0,80,0,0
1662990,-100,4,2,0,40,0,0
1678575,-100,4,2,0,70,0,0
1688315,-100,4,1,0,40,0,0
1688510,-100,4,1,0,50,0,0
1688704,-100,4,1,0,60,0,0
1688899,-100,4,1,0,70,0,0
1689094,-100,4,1,0,80,0,0
1689289,-100,4,1,0,80,0,0
1689484,-100,4,1,0,80,0,0
1691042,-100,4,1,0,80,0,1
1714419,-100,4,2,0,40,0,0
1730551,512.820512820513,4,1,0,100,1,0
1747667,-181.818181818182,4,2,0,35,0,0
1763137,-120.481927710843,4,2,1,70,0,0
1795191,-120.481927710843,4,2,1,90,0,0
1796192,-90.9090909090909,4,2,1,100,0,1
1824909,-100,4,2,1,100,0,0
1830166,-119.760479041916,4,2,1,100,0,0
1874140,-90.9090909090909,4,2,1,100,0,1
1902858,-100,4,2,1,100,0,0
1917477,-120.481927710843,4,2,1,100,0,0
1950551,-120.481927710843,4,2,1,70,0,0
1951063,-120.481927710843,4,2,1,60,0,0
1952088,-90.9090909090909,4,2,1,100,0,1
1967986,-90.9090909090909,4,2,1,100,0,0
1968499,-90.9090909090909,4,2,1,100,0,1
1980807,-90.9090909090909,4,2,1,100,0,0
1994397,428.571428571429,3,2,0,30,1,0
1995484,-100,3,2,0,48,0,0
1995913,-100,3,2,0,30,0,0
2000627,-100,3,2,0,51,0,0
2001055,-100,3,2,0,30,0,0
2045825,-100,3,2,0,40,0,0
2070163,-100,3,1,0,60,0,0
2070323,-100,3,2,0,60,0,0
2071539,-100,3,1,0,50,0,0
2072825,-100,3,1,0,60,0,0
2073055,-100,3,2,0,60,0,0
2073913,-100,3,2,1,60,0,0
2130682,-100,3,2,1,60,0,1
2141198,-87.719298245614,3,2,1,60,0,1
2142484,-100,3,2,1,60,0,1
2153825,-100,3,2,1,60,0,0
2189734,-87.719298245614,3,2,1,60,0,0
2197448,-100,3,2,1,60,0,0
2245012,-100,3,1,0,60,0,0
2246397,-100,3,1,0,60,0,1
2246619,-100,3,2,1,60,0,1
2269111,-100,3,2,1,60,0,0
2269539,-100,3,2,1,60,0,1
2290111,-100,3,2,1,60,0,0
2308992,447.761194029851,4,2,0,29,1,0
2316044,-100,4,2,1,51,0,0
2336305,-100,4,1,0,41,0,0
2337318,-100,4,2,1,51,0,0
2350969,-100,4,1,0,41,0,0
2351865,-133.333333333333,4,2,1,60,0,0
2365521,-133.333333333333,4,1,0,20,0,0
2365745,-133.333333333333,4,1,0,30,0,0
2365969,-100,4,1,0,50,0,0
2366305,-100,4,1,2,60,0,1
2379408,-100,4,1,2,70,0,1
2381087,-100,4,1,2,60,0,1
2394962,-100,4,1,2,60,0,0
2402350,-100,4,2,1,55,0,0
2415223,-100,4,1,0,50,0,0
2416566,-100,4,2,1,50,0,0
2429775,-100,4,1,0,50,0,0
2430671,-133.333333333333,4,2,1,50,0,0
2444327,-133.333333333333,4,2,1,40,0,0
2444551,-133.333333333333,4,2,1,50,0,0
2445111,-100,4,1,2,60,0,1
2470186,-100,4,1,0,65,0,0
2488096,-100,4,1,0,65,0,1
2488214,-100,4,1,0,65,0,0
2502424,-100,4,1,0,65,0,1
2502542,-100,4,1,0,65,0,0
2526162,-100,4,1,0,40,0,0
2526721,-100,4,1,0,50,0,0
2527169,-100,4,1,0,60,0,0
2527499,-100,4,1,2,65,0,1
2541380,-100,4,1,2,65,0,0
2541827,-100,4,1,2,65,0,1
2553021,-100,4,1,2,65,0,1
2555596,-100,4,1,2,5,0,1
2556156,-100,4,1,2,56,0,0
2565180,447.761194029851,4,1,0,100,1,0
2579508,-100,4,2,0,100,0,0
2586112,-100,4,1,0,69,0,0
2643985,-100,4,1,0,69,0,1
2658314,-100,4,1,0,69,0,1
2671747,-100,4,1,0,69,0,1
2672642,-100,4,1,0,69,0,0
2701539,-90.9090909090909,4,1,0,69,0,0
2715643,-100,4,1,0,69,0,0
2729956,-100,4,1,0,69,0,1
2758612,-76.9230769230769,4,1,0,69,0,0
2761875,-66.6666666666667,4,1,0,69,0,0
2801605,-133.333333333333,4,1,0,60,0,0
2815926,-100,4,1,0,60,0,0
2844582,-100,4,1,0,60,0,1
2855329,-100,4,1,0,60,0,0
2858911,-100,4,1,0,60,0,1
2873239,-100,4,1,0,60,0,0
2889304,-100,4,2,0,5,0,0
2895844,370.37037037037,4,2,0,100,1,0
2901399,-166.666666666667,4,2,0,50,0,0
2924269,-200,4,2,0,50,0,0
2940108,-200,4,2,1,50,0,0
2952145,-100,4,2,1,75,0,0
2960479,-133.333333333333,4,2,1,75,0,0
2962331,-100,4,2,1,75,0,0
2976220,-100,4,2,1,75,0,0
3016775,-133.333333333333,4,2,1,75,0,0
3018627,-100,4,2,1,75,0,0
3057232,-151.515151515152,4,1,0,60,0,0
3058719,-100,4,2,0,75,0,0
3059182,-100,4,2,1,75,0,0
3082562,-100,4,2,0,10,0,0
3086775,-100,4,2,0,75,0,0
3103066,-151.515151515152,4,1,0,60,0,0
3105571,-151.515151515152,4,2,0,75,0,0
3106126,-151.515151515152,4,1,0,60,0,0
3108066,-151.515151515152,4,2,0,75,0,0
3108437,-151.515151515152,4,1,0,60,0,0
3108626,-151.515151515152,4,2,0,75,0,0
3109177,-151.515151515152,4,1,0,60,0,0
3111029,-151.515151515152,4,2,0,75,0,0
3111400,-151.515151515152,4,1,0,60,0,0
3111589,-151.515151515152,4,2,0,75,0,0
3112140,-151.515151515152,4,1,0,60,0,0
3117978,-100,4,2,1,75,0,0
3126214,-100,4,2,1,75,0,0
3165474,-100,4,2,1,75,0,1
3176960,-100,4,2,1,75,0,0
3177325,-100,4,2,1,75,0,1
3177695,-100,4,2,1,75,0,0

[Colours]
Combo1 : 12,50,233
Combo2 : 253,225,28
Combo3 : 185,17,17
Combo4 : 30,136,35
SliderBorder : 0,0,0

[HitObjects]
256,44,1505977,5,4
172,96,1506172,1,4
256,148,1506367,2,2,B|256:364,1,200,4|6
100,332,1507536,6,0,B|80:216|132:128,1,200,0|8
300,36,1508315,2,0,B|372:104|488:120,1,200
472,220,1508899,1,0
376,188,1509094,1,0
216,308,1509484,2,0,B|112:308|16:376,1,200,8|0
68,172,1510263,5,4
220,44,1510652,1,0
228,144,1510847,1,0
308,204,1511042,1,8
428,44,1511432,1,0
488,236,1511821,1,0
440,324,1512016,1,0
348,284,1512211,1,0
160,356,1512600,2,0,B|192:256|164:156,1,200,8|0
348,76,1513380,5,6
152,44,1513769,2,0,B|108:60|96:128,2,100,0|0|8
256,216,1514549,1,0
256,216,1514938,2,0,B|368:216,2,100
64,164,1515717,2,0,B|124:72|224:52,1,200,8|0
420,84,1516497,5,4
384,280,1516886,1,0
192,332,1517276,1,8
68,176,1517665,1,0
268,200,1518055,2,0,B|320:224|364:192,2,100
116,104,1518834,5,8
120,204,1519029,1,0
220,188,1519224,1,0
216,88,1519419,2,2,B|316:60|428:92,1,200
364,176,1520003,1,0
428,252,1520198,1,2
260,364,1520587,5,0
252,264,1520782,1,0
156,288,1520977,2,2,B|116:188|180:88,1,200
256,36,1521562,1,0
396,176,1521951,5,8
304,132,1522146,1,0
204,124,1522341,1,0
120,180,1522536,2,2,B|100:296|212:356,1,200
256,268,1523120,1,0
316,348,1523315,2,2,B|415:295|395:179,1,200
296,168,1523899,1,0
268,72,1524094,2,2,B|180:120|56:68,1,200
32,164,1524678,1,0
172,304,1525068,1,8
216,216,1525263,5,0
316,224,1525458,1,0
332,124,1525652,2,2,B|460:112|492:216,1,200
420,280,1526237,1,0
336,336,1526432,2,2,B|240:352|128:336,1,200
56,280,1527016,1,0
68,180,1527211,2,2,B|172:116|204:20,1,200
256,116,1527795,1,0
432,212,1528185,1,8
336,244,1528380,5,0
408,316,1528574,1,0
316,356,1528769,2,2,B|112:356,1,200
16,356,1529354,1,0
32,156,1529743,6,0,B|16:108|32:52,1,100,8|0
104,128,1530133,2,0,B|120:180|176:208,1,100
200,108,1530523,2,0,B|222:195|310:225|393:202|416:96,1,300,4|0
476,184,1531302,1,8
452,320,1531497,5,0
360,360,1531691,1,0
276,308,1531886,2,2,B|180:348|80:256,1,200
32,184,1532471,1,0
32,184,1532665,2,2,B|60:52|176:52,1,200
260,64,1533250,1,0
260,64,1533445,2,2,B|344:148|260:248,1,200
196,316,1534029,2,0,B|80:316,2,100,0|0|8
336,316,1534613,5,0
432,296,1534808,1,0
436,196,1535003,2,2,B|428:84|300:32,1,200
256,116,1535587,1,0
188,44,1535782,2,2,B|83:85|75:197,1,200
176,184,1536367,2,0,B|184:240|135:282,1,100,0|2
200,356,1536756,1,4
256,164,1537146,1,0
320,352,1537536,1,8
448,292,1537730,6,0,B|412:244|444:184,2,100,0|0|2
484,96,1538510,1,0
392,64,1538704,1,0
312,124,1538899,1,2
216,300,1539289,1,0
124,340,1539484,1,0
108,240,1539678,1,2
188,180,1539873,2,0,B|156:80|44:40,2,200,0|0|8
280,72,1540847,5,2
380,84,1541042,1,0
424,172,1541237,1,2
440,272,1541432,1,0
372,344,1541626,2,2,B|264:384|188:292,1,200,2|0
256,220,1542211,6,0,B|144:220,1,100,8|0
168,120,1542600,2,0,B|56:120,1,100
40,216,1542990,2,0,B|104:304|216:320,1,200,4|0
256,232,1543574,1,0
256,232,1543769,1,8
388,272,1543964,5,0
404,172,1544159,1,0
364,80,1544354,2,2,B|160:80,1,200
72,124,1544938,1,0
160,168,1545133,2,2,B|108:268|192:360,1,200
260,288,1545717,1,0
336,352,1545912,1,2
388,160,1546302,1,0
484,184,1546497,1,0
464,88,1546691,2,2,B|364:48|248:88,1,200
256,180,1547276,1,0
256,192,1547471,12,6,1549224
408,32,1550782,5,6
104,132,1551172,1,0
408,228,1551562,1,8
100,312,1551951,1,2
256,272,1552341,5,0
256,172,1552536,1,0
256,272,1552730,1,0
256,72,1553120,1,8
56,72,1553510,6,2,B|84:164|20:264,1,200,2|6
160,120,1554289,2,2,B|256:80|356:124,1,200,2|10
492,268,1555068,2,2,B|429:169|457:77,1,200
356,80,1555652,1,0
260,60,1555847,1,2
256,220,1556237,1,8
256,220,1556626,1,0
224,316,1556821,1,0
124,308,1557016,5,6
256,60,1557406,1,0
380,312,1557795,1,8
256,60,1558185,2,2,B|256:264,1,200,2|0
256,260,1558769,1,0
256,260,1558964,1,0
256,192,1559354,12,0,1561302
68,116,1561691,5,0
168,116,1561886,1,8
216,136,1561984,1,8
260,116,1562081,1,8
360,116,1562276,1,8
324,208,1562471,1,8
424,192,1562665,1,0
360,116,1562860,1,0
432,280,1563055,6,0,B|384:300|320:292,1,100,0|6
184,160,1563639,2,0,B|128:160|104:108,2,100,0|0|8
368,80,1564419,2,2,B|360:196|276:256,1,200
228,168,1565003,1,0
280,252,1565198,1,0
100,336,1565587,6,2,B|32:272|32:136,1,200,10|2
84,64,1566172,2,0,B|140:64|180:96,1,100,0|4
256,276,1566756,1,2
368,108,1567146,1,8
488,268,1567536,2,2,B|440:348|304:328,1,200
212,348,1568120,1,0
200,248,1568315,2,2,B|136:164|12:176,1,200,2|10
168,40,1569094,1,0
256,84,1569289,2,0,B|276:28,2,50,0|0|4
472,192,1569873,5,0
256,336,1570263,1,8
40,192,1570652,2,2,B|248:192,1,200,2|0
240,192,1571237,1,0
240,192,1571432,1,0
256,192,1571821,12,0,1573769
392,292,1574159,5,0
360,156,1574354,1,8
236,92,1574549,1,0
128,180,1574743,1,0
112,320,1574938,1,8
240,264,1575133,1,0
128,180,1575328,1,0
284,152,1575523,5,0
300,200,1575620,1,0
316,248,1575717,1,4
68,48,1585068,5,2
132,280,1585652,1,2
192,48,1586237,1,2
432,192,1586626,5,2
192,192,1587211,1,2
316,88,1587600,5,0
416,72,1587795,1,0
316,88,1587990,2,2,B|344:196|288:288,1,200,2|2
220,352,1588574,1,0
200,256,1588769,2,2,B|124:192|12:168,1,200
64,80,1589354,1,0
64,80,1589549,1,2
260,44,1589938,2,2,B|412:44,1,150,0|8
488,104,1590717,5,0
472,204,1590912,1,0
376,236,1591107,1,2
204,340,1591497,1,0
248,252,1591691,1,0
148,260,1591886,1,2
28,100,1592276,1,0
128,104,1592471,1,0
208,44,1592665,2,2,B|324:32|380:132,1,200
428,216,1593250,1,0
484,24,1593639,1,8
452,120,1593834,5,0
428,216,1594029,1,0
340,164,1594224,1,2
256,344,1594613,1,0
256,244,1594808,1,0
256,344,1595003,1,2
60,300,1595393,1,0
156,276,1595587,1,0
132,180,1595782,2,2,B|108:72|20:8,1,200
20,316,1596756,1,8
160,328,1596951,5,0
260,348,1597146,1,0
328,276,1597341,1,2
300,180,1597536,1,0
204,164,1597730,1,2
204,164,1598315,1,8
28,260,1598704,5,0
80,172,1598899,1,0
156,240,1599094,1,0
320,168,1599484,1,0
280,76,1599678,1,0
380,84,1599873,1,8
404,180,1600068,6,0,B|428:284,2,100,0|8|10
256,44,1600847,1,0
256,144,1601042,1,0
256,44,1601237,1,2
56,68,1601626,2,0,B|88:120|56:168,1,100
52,264,1602016,2,2,B|96:364|232:352,1,200
312,328,1602600,1,0
152,208,1602990,1,8
208,80,1603185,5,2
304,100,1603380,1,0
400,80,1603574,1,2
464,268,1603964,1,0
404,348,1604159,1,0
304,352,1604354,1,2
128,256,1604743,1,0
224,280,1604938,1,0
316,236,1605133,2,2,B|440:236|500:136,2,200,2|0|2
224,280,1606107,1,8
256,144,1606302,5,0
160,120,1606497,1,0
96,196,1606691,1,2
292,232,1607081,1,0
348,316,1607276,1,0
444,292,1607471,1,2
248,328,1607860,1,0
248,328,1608055,2,2,B|148:292|108:176,1,200,2|0
116,88,1608639,1,2
200,144,1608834,2,0,B|252:164|312:144,2,100,0|0|8
252,60,1609419,6,0,B|300:40|356:64,1,100,2|0
440,100,1609808,2,0,B|420:148|456:216,1,100,2|0
408,288,1610198,1,2
124,192,1610782,5,8
252,344,1611172,1,0
156,316,1611367,1,0
60,348,1611562,1,0
44,148,1611951,2,0,B|112:68|224:64,1,200,0|8
356,36,1612536,5,0
328,132,1612730,1,0
428,140,1612925,2,2,B|448:256|344:324,1,200
276,256,1613510,1,0
204,324,1613704,2,2,B|100:324|64:188,1,200
36,104,1614289,1,0
116,44,1614484,2,2,B|324:44,1,200
416,52,1615068,1,0
480,128,1615263,2,2,B|472:232|352:284,1,200
356,180,1615847,2,2,B|296:172|272:244,2,100
132,352,1616626,5,8
60,232,1616821,1,8
120,104,1617016,1,8
240,32,1617211,1,8
376,72,1617406,1,8
416,208,1617600,1,0
236,204,1617795,6,2,B|310:134|424:135,1,200,2|0
472,328,1618574,1,8
388,276,1618769,1,0
476,228,1618964,1,0
472,328,1619159,1,0
324,340,1619354,6,0,B|220:364|124:320,1,200,6|0
44,140,1620133,1,8
132,188,1620328,1,0
204,116,1620523,2,2,B|312:116|396:36,1,200
456,120,1621107,1,0
364,156,1621302,1,2
468,328,1621691,1,8
284,248,1622081,2,2,B|212:188|212:188|192:64,1,200,2|6
28,192,1622860,5,2
184,316,1623250,1,8
248,124,1623639,2,2,B|352:60|458:182|384:292,1,300,2|0
389,283,1624419,1,2
200,216,1624808,1,8
44,340,1625198,1,0
44,340,1625393,5,0
44,340,1625490,1,0
44,340,1625587,2,0,B|88:136,1,200,6|0
276,80,1626367,2,0,B|372:52|476:88,2,200,8|2|0
184,124,1627341,1,0
256,192,1627536,1,0
256,192,1627925,12,0,1629873
256,36,1630263,5,0
292,56,1630458,1,8
312,88,1630652,1,0
316,128,1630847,1,0
308,168,1631042,1,8
296,208,1631237,1,0
272,240,1631432,1,0
244,268,1631626,1,0
204,276,1631821,6,2,B|91:252|43:156,1,200,6|2
304,48,1632600,2,0,B|428:72|444:204,2,200,8|2|0
304,48,1633574,1,0
304,48,1633769,1,2
456,284,1634159,2,0,B|372:344|264:304,2,200,8|2|4
240,104,1635328,6,2,B|140:108|72:204,1,200,2|8
340,108,1636107,2,2,B|304:212|172:196,1,200
180,196,1636691,1,0
180,196,1636886,2,2,B|196:324|328:324,1,200,2|10
452,84,1637665,1,0
452,84,1637860,5,8
452,84,1637958,1,8
452,84,1638055,2,0,B|348:116|244:68,1,200,6|0
64,124,1638834,1,8
64,124,1639224,2,2,B|64:228|152:308,1,200
244,316,1639808,1,0
256,216,1640003,1,0
256,192,1640393,12,8,1641951
416,192,1642536,5,0
416,192,1642730,2,8,B|432:116,2,66.6666666666667,0|8|8
352,272,1643120,2,0,B|368:356,2,66.6666666666667,8|8|0
292,192,1643510,2,0,B|272:120,2,66.6666666666667,0|8|8
232,272,1643899,2,0,B|204:348,2,66.6666666666667,8|0|0
132,296,1644289,1,4
104,96,1644678,5,0
196,136,1644873,1,0
288,96,1645068,1,8
456,208,1645458,1,0
356,192,1645652,1,0
264,228,1645847,2,2,B|152:228|60:324,2,200,10|2|10
432,116,1647016,1,6
264,228,1647406,5,8
344,172,1647600,2,0,B|364:124,2,50
248,152,1647990,1,0
176,80,1648185,1,8
76,96,1648380,1,0
32,188,1648574,1,0
84,272,1648769,1,0
132,260,1648867,1,0
176,280,1648964,6,2,B|248:344|368:312,1,200,10|2
248,152,1649743,1,8
424,56,1650133,2,2,B|320:28|224:56,1,200,2|10
256,252,1650912,2,2,B|368:252|432:364,1,200,2|10
220,344,1651691,5,2
120,328,1651886,1,0
128,228,1652081,1,8
36,48,1652471,2,2,B|244:48,1,200,2|10
436,60,1653250,2,2,B|420:160|468:268,1,200,2|10
376,304,1653834,5,0
292,192,1654029,1,0
268,236,1654126,1,0
220,248,1654224,1,0
172,236,1654321,1,0
148,192,1654419,1,8
84,68,1654613,1,0
32,196,1654808,5,0
32,196,1655003,1,0
32,196,1655198,1,10
256,348,1655587,1,2
476,192,1655977,1,10
256,40,1656367,2,0,B|256:152,2,100,2|0|6
160,192,1657146,5,0
256,220,1657341,1,0
340,164,1657536,1,8
156,92,1657925,1,0
80,156,1658120,1,0
92,256,1658315,1,10
276,176,1658704,6,2,B|312:288|196:344,2,200,2|10|2
212,100,1659678,1,0
308,68,1659873,1,8
472,184,1660263,2,0,B|472:244|424:280,2,100,0|0|8
376,360,1661042,1,0
324,272,1661237,1,0
324,272,1661334,1,0
324,272,1661432,6,0,B|216:248|128:328,1,200,8|0
52,268,1662016,1,0
36,168,1662211,2,0,B|84:68|196:64,1,200,2|2
256,144,1662795,1,0
256,192,1662990,12,0,1666107
256,192,1677016,12,4,1678574
256,180,1678964,5,0
256,180,1679159,1,0
256,180,1679354,1,2
160,308,1679743,1,0
100,252,1679938,1,0
56,184,1680133,2,0,B|140:92,1,100,2|0
196,76,1680523,2,0,B|308:76,3,100,0|0|2|0
376,76,1681302,2,0,B|412:124|396:176,1,100
364,244,1681691,5,4
208,272,1682081,2,0,B|208:392,2,100,0|0|2
68,192,1682860,1,0
140,156,1683055,1,0
152,76,1683250,1,2
256,200,1683639,1,0
364,80,1684029,1,2
428,128,1684224,1,0
440,208,1684419,1,0
392,272,1684613,1,0
392,272,1684808,6,0,B|304:264|180:304,1,200,4|0
256,152,1685587,1,2
256,152,1685782,1,0
256,152,1685977,1,0
100,188,1686367,1,2
256,228,1686756,1,0
412,188,1687146,1,2
364,124,1687341,1,0
292,92,1687536,1,0
220,124,1687730,1,0
172,188,1687925,1,2
472,312,1688315,5,0
400,348,1688510,1,0
300,348,1688704,1,8
184,312,1688899,1,8
136,180,1689094,1,8
248,68,1689289,1,8
400,164,1689484,1,6
56,68,1690263,5,0
32,132,1690393,1,0
36,200,1690523,1,8
68,256,1690652,1,8
124,296,1690782,1,8
192,300,1690912,1,0
252,272,1691042,6,2,B|360:300|428:200,1,200,6|2
300,48,1691821,1,8
156,188,1692211,1,2
284,240,1692406,1,0
396,172,1692600,2,0,B|452:160|492:200,2,100,0|0|2
256,316,1693380,1,8
220,120,1693769,6,2,B|128:48|32:120,1,200,2|6
56,316,1694549,2,2,B|260:316,1,200,2|10
452,280,1695328,1,2
424,184,1695523,1,0
444,88,1695717,1,0
348,120,1695912,1,0
248,128,1696107,1,2
256,328,1696497,1,8
92,212,1696886,1,0
92,212,1697081,5,0
92,212,1697178,1,0
92,212,1697276,2,2,B|191:234|304:212,2,200,6|2|10
200,44,1698445,2,2,B|292:20|416:52,1,200
444,136,1699029,1,0
408,232,1699224,1,0
256,192,1699613,12,0,1701562
428,192,1701951,5,4
376,192,1702049,1,0
328,192,1702146,1,0
280,192,1702243,1,0
228,192,1702341,6,0,B|240:260,2,66.6666666666667,0|0|0
132,228,1702730,2,0,B|100:300,2,66.6666666666667,0|0|0
100,132,1703120,2,0,B|28:152,2,66.6666666666667
192,88,1703510,6,2,B|284:44|404:92,1,200,6|2
420,284,1704289,2,2,B|332:360|228:284,1,200,10|2
156,352,1704873,1,0
156,252,1705068,1,0
60,280,1705263,1,0
52,180,1705458,2,2,B|148:132|192:32,1,200,2|10
360,284,1706237,6,2,B|448:204|384:92,2,200,2|6|2
256,112,1707406,1,8
184,300,1707795,2,2,B|96:268|56:136,1,200
32,56,1708380,1,0
132,56,1708574,2,2,B|352:56,1,200,2|10
480,188,1709354,5,8
460,288,1709549,1,8
412,280,1709646,1,8
380,240,1709743,1,6
200,328,1710133,2,0,B|160:236|196:120,2,200,0|8|2
100,152,1711302,1,0
28,220,1711497,1,0
16,120,1711691,1,8
96,60,1711886,1,0
196,56,1712081,2,2,B|308:32|400:88,1,200
356,176,1712665,1,0
308,264,1712860,1,4
256,192,1712958,12,0,1714419
