osu file format v9

[General]
AudioFilename: Within Temptation - The Unforgiving.mp3
AudioLeadIn: 2000
PreviewTime: 3106127
Countdown: 0
SampleSet: Soft
StackLeniency: 0.7
Mode: 0
LetterboxInBreaks: 1

[Editor]
Bookmarks: 3177331
DistanceSpacing: 0.9
BeatDivisor: 3
GridSize: 4

[Metadata]
Title:The Unforgiving
Artist:Within Temptation
Creator:Armin
Version:Stairway to the Skies
Source:
Tags:Gonzvlo narakucrimson Roddie Vass_Bass ErufenRito Glass Card N'FoRcE force HakunoKaemi metal Why not me Shot in the Dark In the Middle of the Night Faster Fire and Ice Iron Where is the edge Sinead Lost Murder A Demon's Fate Stairway to the skies TU Marathon symphonic metal rock Sharon den Adel collab

[Difficulty]
HPDrainRate:6
CircleSize:4
OverallDifficulty:7
ApproachRate:8
SliderMultiplier:2
SliderTickRate:1

[Events]
//Background and Video events
0,0,"Within-Temptation.png"
//Break Periods
2,2925673,2939538
2,3002710,3007686
2,3086784,3102501
//Storyboard Layer 0 (Background)
//Storyboard Layer 1 (Fail)
//Storyboard Layer 2 (Pass)
//Storyboard Layer 3 (Foreground)
//Storyboard Sound Samples
//Background Colour Transformations
3,100,163,162,255

[TimingPoints]
2406,418.848167539267,4,2,0,100,1,0
15829,418.848167539267,4,2,0,100,1,0
34572,565.904267861353,4,1,0,100,1,0
47011,-100,4,2,1,100,0,0
95696,566.037735849057,4,2,1,100,1,0
97111,-100,4,1,0,80,0,1
97247,-100,4,1,0,82,0,1
97388,-100,4,1,0,84,0,1
97530,-100,4,1,0,86,0,1
97671,-100,4,1,0,90,0,1
97818,-100,4,1,0,93,0,0
97960,-100,4,1,0,96,0,1
98096,-100,4,2,1,100,0,1
106020,-100,4,1,1,80,0,1
106233,-100,4,1,1,83,0,1
106374,-100,4,1,1,86,0,1
106516,-100,4,1,1,89,0,1
106657,-100,4,1,1,92,0,1
106799,-100,4,1,1,95,0,1
106940,-100,4,2,1,98,0,1
116073,-100,4,2,1,98,0,0
124134,-100,4,1,0,100,0,0
124983,-100,4,2,1,100,0,0
160926,-100,4,1,0,100,0,0
161209,-100,4,2,1,100,0,0
165454,-100,4,1,0,100,0,0
165737,-100,4,2,1,100,0,0
169983,-100,4,1,0,100,0,0
170266,-100,4,2,0,87,0,0
172671,-100,4,1,0,100,0,0
173101,-100,4,1,0,81,0,1
173237,-100,4,1,0,84,0,1
173379,-100,4,1,0,87,0,1
173520,-100,4,1,0,90,0,1
174658,-100,4,2,0,100,0,0
174941,-100,4,2,1,100,0,1
182436,-100,4,2,0,100,0,1
183002,-100,4,1,0,100,0,1
183714,-100,4,2,0,100,0,0
183997,-100,4,2,1,100,0,1
191563,-100,4,1,0,80,0,1
191775,-100,4,1,0,83,0,1
191917,-100,4,1,0,86,0,1
192058,-100,4,1,0,89,0,1
192200,-100,4,1,0,91,0,1
192341,-100,4,1,0,93,0,1
192483,-100,4,1,0,95,0,1
192624,-100,4,1,0,97,0,1
192766,-100,4,1,0,98,0,1
192907,-100,4,1,0,99,0,1
193054,-100,4,2,0,100,0,0
209888,-100,4,1,0,63,0,0
211311,-100,4,2,0,5,0,0
214708,-100,4,2,0,30,0,0
215549,-100,4,1,0,15,0,0
215686,566.037735849057,4,1,0,15,1,0
215761,-100,4,2,0,5,0,0
217105,-100,4,2,0,31,0,0
217884,-100,4,1,0,15,0,0
218450,-100,4,2,0,30,0,0
218662,-100,4,1,0,15,0,0
219299,-100,4,2,0,29,0,0
219511,-100,4,2,0,36,0,0
220148,-100,4,1,0,16,0,0
220289,-100,4,2,0,16,0,0
220997,-100,4,1,0,16,0,0
221138,-100,4,2,0,16,0,0
222341,-100,4,1,0,16,0,0
222907,-100,4,2,0,16,0,0
223190,-100,4,1,0,16,0,0
223473,-100,4,2,0,16,0,0
224605,-100,4,1,0,16,0,0
225171,-100,4,2,0,16,0,0
225454,-100,4,1,0,16,0,0
226091,-100,4,2,0,16,0,0
226870,-100,4,1,0,16,0,0
227436,-100,4,2,0,16,0,0
227719,-100,4,1,0,16,0,0
228072,-100,4,2,0,16,0,0
229134,-100,4,1,0,16,0,0
229770,-100,4,2,0,16,0,0
229983,-100,4,1,0,16,0,0
230195,-100,4,2,0,16,0,0
231469,-100,4,1,0,16,0,0
231610,-100,4,2,0,16,0,0
232318,-100,4,1,0,16,0,0
232601,-100,4,2,0,33,0,0
233167,-100,4,2,0,21,0,0
233733,-100,4,1,0,21,0,0
243355,-100,4,1,0,41,0,0
246256,-100,4,1,0,26,0,0
247954,-100,4,1,0,39,0,0
250510,-100,4,2,0,40,0,0
250651,-100,4,2,0,50,0,0
250793,-100,4,2,0,60,0,0
251912,-100,4,2,1,100,0,1
267761,-100,4,2,1,100,0,0
270025,-100,4,2,1,100,0,1
270171,-76.9230769230769,4,2,1,83,0,1
285737,-76.9230769230769,4,1,0,36,0,1
286162,-76.9230769230769,4,1,0,45,0,1
286445,-76.9230769230769,4,1,0,52,0,1
286728,-76.9230769230769,4,1,0,60,0,1
287011,-76.9230769230769,4,1,0,68,0,1
287294,-76.9230769230769,4,1,0,76,0,1
287577,-76.9230769230769,4,1,1,83,0,1
287855,-76.9230769230769,4,2,1,100,0,0
288138,-76.9230769230769,4,2,1,100,0,1
296068,-76.9230769230769,4,1,1,54,0,1
296351,-76.9230769230769,4,1,1,60,0,1
296634,-76.9230769230769,4,1,1,71,0,1
296923,-76.9230769230769,4,2,1,93,0,0
297195,-76.9230769230769,4,2,1,100,0,1
306252,-76.9230769230769,4,2,1,100,0,0
324082,-76.9230769230769,4,2,1,100,0,0
324152,-76.9230769230769,4,2,1,65,0,0
337093,300,4,2,1,40,1,0
346663,-100,4,1,0,70,0,0
346851,-100,4,2,1,70,0,0
366193,-100,4,2,1,70,0,0
384870,-100,4,2,0,70,0,0
384943,-100,4,1,0,70,0,0
385138,-100,4,2,1,70,0,0
388663,-100,4,1,0,70,0,0
389001,-100,4,2,1,70,0,0
399493,-100,4,1,0,70,0,0
399651,-100,4,2,1,70,0,0
408343,-100,4,1,0,70,0,0
408943,-100,4,1,0,70,0,0
409093,-100,4,1,0,70,0,0
409168,-100,4,2,1,70,0,0
416593,-100,4,1,0,70,0,0
416670,-100,4,2,0,70,0,0
416743,-100,4,1,0,50,0,0
416893,-100,4,1,0,80,0,0
416968,-100,4,2,0,70,0,0
417043,-100,4,1,0,50,0,0
417193,-100,4,1,0,90,0,0
417270,-100,4,2,0,70,0,0
417493,-100,4,1,0,100,0,0
417568,-100,4,2,0,70,0,0
418693,-100,4,2,1,70,0,1
428226,-100,4,1,0,70,0,1
428451,-100,4,2,1,70,0,1
436634,-100,4,2,0,70,0,1
436784,-100,4,1,0,70,0,1
437830,-100,4,1,0,70,0,0
437893,-100,4,1,0,70,0,1
442693,-100,4,1,0,70,0,0
452001,-100,4,2,1,70,0,0
461293,-100,4,1,0,70,0,0
461976,-100,4,2,1,70,0,0
470293,-100,4,1,0,70,0,0
471576,-100,4,2,0,70,0,0
471726,-100,4,1,0,70,0,0
471876,-100,4,2,1,70,0,0
475693,-100,4,1,0,70,0,0
475926,-100,4,1,0,70,0,0
476526,-100,4,1,0,70,0,0
476676,-100,4,2,1,70,0,0
479893,-100,4,1,0,70,0,0
481176,-100,4,2,0,70,0,0
481326,-100,4,1,0,70,0,0
481476,-100,4,2,1,70,0,0
490693,-100,4,1,0,70,0,1
490851,-100,4,2,1,70,0,1
499693,-100,4,1,0,60,0,1
499993,-100,4,1,0,65,0,1
500143,-100,4,1,0,70,0,0
500293,-100,4,1,0,70,0,1
501276,-100,4,2,0,70,0,1
501426,-100,4,1,0,70,0,1
501876,-100,4,2,0,70,0,1
502326,-100,4,1,0,70,0,1
502776,-100,4,2,0,70,0,1
502926,-100,4,1,0,70,0,1
509293,-100,4,1,0,60,0,1
509593,-100,4,1,0,65,0,1
514693,-100,4,1,0,70,0,0
514709,-100,4,1,0,70,0,0
563151,-83.3333333333333,4,1,0,70,0,0
574251,-76.9230769230769,4,1,0,70,0,0
581893,-76.9230769230769,4,1,0,70,0,1
591193,-76.9230769230769,4,1,0,70,0,0
591493,-76.9230769230769,4,1,0,70,0,1
601093,-76.9230769230769,4,1,0,70,0,1
603726,-83.3333333333333,4,1,0,70,0,1
605893,-83.3333333333333,4,1,0,70,0,0
634993,-83.3333333333333,4,1,0,20,0,0
648736,500,4,2,1,100,1,0
710611,-100,4,1,0,63,0,0
710781,-100,4,1,0,65,0,0
710857,-100,4,1,0,70,0,0
710982,-100,4,1,0,76,0,0
711107,-100,4,1,0,79,0,0
711232,-100,4,1,0,85,0,0
711357,-100,4,1,0,91,0,0
711482,-100,4,1,0,94,0,0
711781,-100,4,1,0,100,0,0
712736,-76.9230769230769,4,1,0,100,0,1
712798,-76.9230769230769,4,2,1,100,0,1
720498,-76.9230769230769,4,1,0,100,0,0
720736,-76.9230769230769,4,1,0,100,0,1
721986,-76.9230769230769,4,2,1,100,0,1
727986,-76.9230769230769,4,1,0,80,0,1
728111,-76.9230769230769,4,1,0,83,0,1
728236,-76.9230769230769,4,1,0,86,0,1
728361,-76.9230769230769,4,1,0,89,0,1
728486,-76.9230769230769,4,1,0,92,0,1
728623,-76.9230769230769,4,1,0,95,0,0
728736,-76.9230769230769,4,1,0,98,0,1
744736,-100,4,1,0,100,0,0
751234,-100,4,2,1,100,0,0
752611,-100,4,1,0,100,0,0
752861,-100,4,2,1,100,0,0
759611,-100,4,1,0,100,0,0
759861,-100,4,2,0,100,0,0
760173,-100,4,1,0,100,0,0
760361,-100,4,2,0,100,0,0
760673,-100,4,1,0,100,0,0
760861,-100,4,2,1,100,0,0
784548,-100,4,2,0,100,0,0
785111,-100,4,1,0,100,0,0
785361,-83.3333333333333,4,1,0,100,0,0
785548,-83.3333333333333,4,2,0,100,0,0
786111,-83.3333333333333,4,1,0,100,0,0
786361,-71.4285714285714,4,1,0,100,0,0
786548,-71.4285714285714,4,2,0,100,0,0
787111,-62.5,4,1,0,100,0,0
787548,-62.5,4,2,0,100,0,0
788111,-55.5555555555556,4,1,0,100,0,0
789361,-50,4,1,0,100,0,0
789548,-50,4,2,0,100,0,0
790111,-76.9230769230769,4,1,0,100,0,0
790736,-76.9230769230769,4,1,0,80,0,0
790986,-76.9230769230769,4,1,0,85,0,0
791236,-76.9230769230769,4,1,0,90,0,0
791486,-76.9230769230769,4,1,0,95,0,0
791736,-76.9230769230769,4,1,0,100,0,0
792736,-76.9230769230769,4,1,0,100,0,1
800486,-76.9230769230769,4,1,0,100,0,0
800736,-76.9230769230769,4,1,0,100,0,1
808611,-76.9230769230769,4,1,0,100,0,0
808736,-76.9230769230769,4,1,0,100,0,1
824611,-76.9230769230769,4,1,0,100,0,0
824736,-76.9230769230769,4,1,0,100,0,1
824861,-76.9230769230769,4,1,0,100,0,0
852361,-76.9230769230769,4,2,0,100,0,0
858736,-76.9230769230769,4,1,0,100,0,0
860736,-66.6666666666667,4,1,0,100,0,1
868486,-66.6666666666667,4,1,0,100,0,0
868736,-66.6666666666667,4,1,0,100,0,1
872361,-66.6666666666667,4,1,0,100,0,1
873861,-66.6666666666667,4,1,0,100,0,1
884486,-66.6666666666667,4,1,0,100,0,0
884736,-66.6666666666667,4,1,0,100,0,1
886236,-66.6666666666667,4,1,0,100,0,0
912957,856.959223023638,4,2,0,21,1,0
941887,-117.647058823529,4,2,0,21,0,0
972298,-100,4,2,0,21,0,0
974654,-100,4,2,0,21,0,0
991894,-117.647058823529,4,2,0,21,0,0
992858,-100,4,2,0,21,0,0
1015131,-90.9090909090909,4,2,0,21,0,0
1015452,-90.9090909090909,4,2,0,5,0,0
1017701,-100,4,2,0,15,0,0
1022649,428.571428571429,4,2,1,78,1,0
1030031,-90.9090909090909,4,2,0,79,0,0
1031103,-100,4,2,1,79,0,0
1049960,-100,4,1,0,60,0,0
1050174,-100,4,2,0,100,0,0
1051674,-100,4,1,0,60,0,0
1051889,-100,4,2,0,100,0,0
1052103,-100,4,1,0,60,0,0
1052317,-100,4,2,0,100,0,0
1052531,-100,4,1,0,60,0,0
1052746,-100,4,2,0,100,0,0
1052960,-100,4,1,0,60,0,0
1053174,-100,4,2,0,100,0,0
1053389,-100,4,1,0,80,0,0
1053603,-100,4,2,0,100,0,0
1054246,-100,4,1,0,80,0,0
1054460,-100,4,2,1,81,0,0
1067103,-100,4,1,0,80,0,0
1067317,-100,4,2,1,100,0,0
1069674,-100,4,1,0,85,0,0
1069996,-100,4,2,1,85,0,0
1070531,-100,4,1,0,68,0,0
1070746,-100,4,2,0,100,0,0
1071389,-100,4,1,0,80,0,0
1071603,-100,4,2,0,100,0,0
1072246,-100,4,1,0,60,0,0
1072460,-100,4,2,0,100,0,0
1073103,-100,4,1,0,80,0,0
1073317,-100,4,2,0,100,0,0
1073960,-100,4,1,0,60,0,0
1074174,-100,4,2,0,100,0,0
1074389,-100,4,1,0,60,0,0
1074603,-100,4,2,0,100,0,0
1074817,-100,4,1,0,80,0,0
1075031,-100,4,2,0,100,0,0
1075674,-100,4,1,0,60,0,0
1076317,-100,4,2,0,100,0,0
1076531,-100,4,1,0,80,0,0
1076746,-100,4,2,0,100,0,0
1077389,-100,4,2,1,81,0,0
1081246,-90.9090909090909,4,2,1,82,0,0
1082317,-100,4,2,1,80,0,0
1083281,-100,4,2,1,80,0,0
1093460,-90.9090909090909,4,2,1,80,0,0
1094317,-100,4,2,1,80,0,0
1105674,-100,4,2,1,80,0,0
1118531,-100,4,1,0,80,0,0
1118746,-100,4,2,1,80,0,0
1122014,-100,4,1,0,80,0,0
1122174,-100,4,2,1,80,0,0
1128817,-133.333333333333,4,2,1,80,0,0
1135674,-100,4,2,0,22,0,0
1137505,444.444444444444,4,2,0,22,1,0
1139282,461.538461538462,4,2,0,16,1,0
1140205,571.428571428571,4,2,0,19,1,0
1141347,571.428571428571,4,2,0,19,1,0
1150313,454.545454545455,4,2,0,100,1,0
1153040,-100,4,2,1,100,0,0
1226981,-72.992700729927,4,2,1,100,0,0
1241222,-68.0272108843537,4,2,1,100,0,1
1284868,-105.042016806723,4,1,0,100,0,0
1291224,-80.7754442649435,4,1,0,100,0,0
1291299,-80.7754442649435,4,2,1,100,0,0
1291375,-80.7754442649435,4,1,0,100,0,0
1291451,-80.7754442649435,4,2,1,100,0,0
1291527,-80.7754442649435,4,1,0,100,0,0
1291602,-80.7754442649435,4,2,1,100,0,0
1291678,-74.6268656716418,4,1,0,100,0,0
1292133,-72.7272727272727,4,2,1,100,0,0
1328494,-72.992700729927,4,2,1,100,0,1
1342147,-72.992700729927,4,2,1,100,0,1
1342737,-72.992700729927,4,2,1,100,0,0
1343040,-72.992700729927,4,2,1,100,0,1
1345025,-63.2911392405063,4,2,1,100,0,1
1345935,-72.992700729927,4,2,1,100,0,1
1357585,-72.992700729927,4,2,1,100,0,0
1372139,-72.992700729927,4,2,1,100,0,0
1408427,-86.2068965517241,4,2,1,100,0,0
1409571,-87.5656742556918,4,2,1,100,0,0
1412071,-87.5656742556918,4,1,0,100,0,0
1412222,-87.5656742556918,4,2,1,100,0,0
1415767,-72.992700729927,4,2,1,100,0,1
1430009,-72.992700729927,4,2,1,100,0,0
1430312,-72.992700729927,4,2,1,100,0,1
1430632,-63.2911392405063,4,2,1,100,0,1
1444706,-63.2911392405063,4,2,1,100,0,0
1444858,-63.2911392405063,4,2,1,100,0,1
1473949,-63.2911392405063,4,2,1,100,0,0
1491562,389.61038961039,4,1,0,80,1,0
1506367,-200,4,1,0,80,0,0
1507146,-100,4,1,0,80,0,0
1550782,-100,4,1,0,80,0,1
1575717,-100,4,1,0,80,0,0
1584873,-100,4,2,0,70,0,0
1587511,-100,4,1,0,80,0,0
1589938,-200,4,1,0,80,0,0
1590523,-100,4,1,0,80,0,0
1619354,-100,4,1,0,80,0,1
1644289,-100,4,1,0,80,0,0
1662990,-100,4,2,0,40,0,0
1678575,-100,4,2,0,70,0,0
1688315,-100,4,1,0,40,0,0
1688510,-100,4,1,0,50,0,0
1688704,-100,4,1,0,60,0,0
1688899,-100,4,1,0,70,0,0
1689094,-100,4,1,0,80,0,0
1689289,-100,4,1,0,80,0,0
1689484,-100,4,1,0,80,0,0
1691042,-100,4,1,0,80,0,1
1714419,-100,4,2,0,40,0,0
1730551,512.820512820513,4,1,0,100,1,0
1747667,-181.818181818182,4,2,0,35,0,0
1763137,-120.481927710843,4,2,1,70,0,0
1795191,-120.481927710843,4,2,1,90,0,0
1796192,-90.9090909090909,4,2,1,100,0,1
1824909,-100,4,2,1,100,0,0
1830166,-119.760479041916,4,2,1,100,0,0
1874140,-90.9090909090909,4,2,1,100,0,1
1902858,-100,4,2,1,100,0,0
1917477,-120.481927710843,4,2,1,100,0,0
1950551,-120.481927710843,4,2,1,70,0,0
1951063,-120.481927710843,4,2,1,60,0,0
1952088,-90.9090909090909,4,2,1,100,0,1
1967986,-90.9090909090909,4,2,1,100,0,0
1968499,-90.9090909090909,4,2,1,100,0,1
1980807,-90.9090909090909,4,2,1,100,0,0
1994397,428.571428571429,3,2,0,30,1,0
1995484,-100,3,2,0,48,0,0
1995913,-100,3,2,0,30,0,0
2000627,-100,3,2,0,51,0,0
2001055,-100,3,2,0,30,0,0
2045825,-100,3,2,0,40,0,0
2070163,-100,3,1,0,60,0,0
2070323,-100,3,2,0,60,0,0
2071539,-100,3,1,0,50,0,0
2072825,-100,3,1,0,60,0,0
2073055,-100,3,2,0,60,0,0
2073913,-100,3,2,1,60,0,0
2130682,-100,3,2,1,60,0,1
2141198,-87.719298245614,3,2,1,60,0,1
2142484,-100,3,2,1,60,0,1
2153825,-100,3,2,1,60,0,0
2189734,-87.719298245614,3,2,1,60,0,0
2197448,-100,3,2,1,60,0,0
2245012,-100,3,1,0,60,0,0
2246397,-100,3,1,0,60,0,1
2246619,-100,3,2,1,60,0,1
2269111,-100,3,2,1,60,0,0
2269539,-100,3,2,1,60,0,1
2290111,-100,3,2,1,60,0,0
2308992,447.761194029851,4,2,0,29,1,0
2316044,-100,4,2,1,51,0,0
2336305,-100,4,1,0,41,0,0
2337318,-100,4,2,1,51,0,0
2350969,-100,4,1,0,41,0,0
2351865,-133.333333333333,4,2,1,60,0,0
2365521,-133.333333333333,4,1,0,20,0,0
2365745,-133.333333333333,4,1,0,30,0,0
2365969,-100,4,1,0,50,0,0
2366305,-100,4,1,2,60,0,1
2379408,-100,4,1,2,70,0,1
2381087,-100,4,1,2,60,0,1
2394962,-100,4,1,2,60,0,0
2402350,-100,4,2,1,55,0,0
2415223,-100,4,1,0,50,0,0
2416566,-100,4,2,1,50,0,0
2429775,-100,4,1,0,50,0,0
2430671,-133.333333333333,4,2,1,50,0,0
2444327,-133.333333333333,4,2,1,40,0,0
2444551,-133.333333333333,4,2,1,50,0,0
2445111,-100,4,1,2,60,0,1
2470186,-100,4,1,0,65,0,0
2488096,-100,4,1,0,65,0,1
2488214,-100,4,1,0,65,0,0
2502424,-100,4,1,0,65,0,1
2502542,-100,4,1,0,65,0,0
2526162,-100,4,1,0,40,0,0
2526721,-100,4,1,0,50,0,0
2527169,-100,4,1,0,60,0,0
2527499,-100,4,1,2,65,0,1
2541380,-100,4,1,2,65,0,0
2541827,-100,4,1,2,65,0,1
2553021,-100,4,1,2,65,0,1
2555596,-100,4,1,2,5,0,1
2556156,-100,4,1,2,56,0,0
2565180,447.761194029851,4,1,0,100,1,0
2579508,-100,4,2,0,100,0,0
2586112,-100,4,1,0,69,0,0
2643985,-100,4,1,0,69,0,1
2658314,-100,4,1,0,69,0,1
2671747,-100,4,1,0,69,0,1
2672642,-100,4,1,0,69,0,0
2701539,-90.9090909090909,4,1,0,69,0,0
2715643,-100,4,1,0,69,0,0
2729956,-100,4,1,0,69,0,1
2758612,-76.9230769230769,4,1,0,69,0,0
2761875,-66.6666666666667,4,1,0,69,0,0
2801605,-133.333333333333,4,1,0,60,0,0
2815926,-100,4,1,0,60,0,0
2844582,-100,4,1,0,60,0,1
2855329,-100,4,1,0,60,0,0
2858911,-100,4,1,0,60,0,1
2873239,-100,4,1,0,60,0,0
2889304,-100,4,2,0,5,0,0
2895844,370.37037037037,4,2,0,100,1,0
2901399,-166.666666666667,4,2,0,50,0,0
2924269,-200,4,2,0,50,0,0
2940108,-200,4,2,1,50,0,0
2952145,-100,4,2,1,75,0,0
2960479,-133.333333333333,4,2,1,75,0,0
2962331,-100,4,2,1,75,0,0
2976220,-100,4,2,1,75,0,0
3016775,-133.333333333333,4,2,1,75,0,0
3018627,-100,4,2,1,75,0,0
3057232,-151.515151515152,4,1,0,60,0,0
3058719,-100,4,2,0,75,0,0
3059182,-100,4,2,1,75,0,0
3082562,-100,4,2,0,10,0,0
3086775,-100,4,2,0,75,0,0
3103066,-151.515151515152,4,1,0,60,0,0
3105571,-151.515151515152,4,2,0,75,0,0
3106126,-151.515151515152,4,1,0,60,0,0
3108066,-151.515151515152,4,2,0,75,0,0
3108437,-151.515151515152,4,1,0,60,0,0
3108626,-151.515151515152,4,2,0,75,0,0
3109177,-151.515151515152,4,1,0,60,0,0
3111029,-151.515151515152,4,2,0,75,0,0
3111400,-151.515151515152,4,1,0,60,0,0
3111589,-151.515151515152,4,2,0,75,0,0
3112140,-151.515151515152,4,1,0,60,0,0
3117978,-100,4,2,1,75,0,0
3126214,-100,4,2,1,75,0,0
3165474,-100,4,2,1,75,0,1
3176960,-100,4,2,1,75,0,0
3177325,-100,4,2,1,75,0,1
3177695,-100,4,2,1,75,0,0

[Colours]
Combo1 : 12,50,233
Combo2 : 253,225,28
Combo3 : 185,17,17
Combo4 : 30,136,35
SliderBorder : 0,0,0

[HitObjects]
176,192,2901769,6,0,B|196:288|272:340|364:360,1,240.000005722046
332,84,2903251,1,0
428,136,2903621,1,2
336,192,2903991,1,0
428,252,2904362,1,2
336,192,2904732,6,0,B|316:288|240:340|148:360,1,240.000005722046
180,84,2906214,1,0
84,136,2906584,1,2
176,192,2906954,1,0
84,252,2907325,1,2
176,192,2907695,6,0,B|196:96|272:44|364:24,1,240.000005722046
332,300,2909176,1,0
428,248,2909547,1,2
336,192,2909917,1,0
428,132,2910288,1,2
336,192,2910658,6,0,B|316:96|240:44|148:24,1,240.000005722046
180,324,2912139,1,0
332,324,2912510,1,2
176,192,2912880,1,0
204,236,2913065,1,0
256,248,2913251,1,2
308,236,2913436,1,0
336,192,2913621,5,0
76,324,2914362,1,0
236,96,2915102,1,0
340,128,2915473,2,0,B|308:164|304:200|352:248,1,120.000002861023,2|0
240,276,2916214,1,2
176,192,2916584,5,0
436,324,2917325,1,0
276,96,2918065,1,0
172,128,2918436,2,0,B|204:164|208:200|160:248,1,120.000002861023,2|0
272,276,2919176,1,2
336,192,2919547,5,0
76,60,2920288,1,0
236,288,2921028,1,0
340,256,2921399,2,0,B|308:220|304:184|352:136,1,120.000002861023,2|0
240,108,2922139,1,2
176,192,2922510,5,0
436,60,2923251,1,0
316,312,2923991,1,0
228,296,2924362,2,0,B|228:280|228:280|228:208|280:208|280:120|280:120|280:104,1,200
196,88,2925473,1,0
174,95,2940288,6,0,B|194:52|255:27|316:48|338:97,2,200,2|8|2
256,144,2942139,1,0
208,224,2942510,1,8
304,224,2942880,1,0
347,302,2943251,2,0,B|308:333|270:317|255:302|255:302|240:317|199:333|164:302,1,200,2|8
88,155,2944732,5,2
68,67,2945102,1,0
149,28,2945473,1,8
210,93,2945843,1,0
181,184,2946214,2,0,B|191:220|255:244|255:244|319:220|333:183,1,200,2|8
424,229,2947695,5,2
444,317,2948065,1,0
363,356,2948436,1,8
302,291,2948806,1,0
331,200,2949176,2,0,B|321:164|257:140|257:140|194:160|181:202,1,200,2|8
352,88,2950658,1,2
256,48,2951028,1,0
152,88,2951399,1,8
44,56,2951769,21,8
44,56,2951954,1,0
44,56,2952139,1,4
160,348,2952880,1,8
36,172,2953436,1,0
36,172,2953621,1,0
192,140,2953991,1,0
320,244,2954362,1,8
476,212,2954732,1,0
476,212,2954917,2,0,B|424:8|112:76|168:296,1,500,0|8
320,244,2956214,1,0
476,212,2956584,5,0
320,244,2956954,1,0
192,140,2957325,1,8
36,172,2957695,1,0
36,172,2957880,2,0,B|88:376|400:308|344:88,1,500,0|8
192,140,2959176,1,0
112,276,2959547,5,0
256,344,2959917,1,0
400,276,2960288,1,8
340,136,2960658,2,0,B|364:66|291:34|256:69|256:69|221:34|148:66|172:136,2,299.999991059304
460,270,2962510,1,0
421,325,2962695,1,0
360,300,2962880,1,0
256,256,2963251,1,8
152,300,2963621,1,0
91,325,2963806,1,0
52,270,2963991,5,0
352,56,2964732,1,8
116,92,2965288,1,0
116,92,2965473,1,0
176,240,2965843,1,0
336,240,2966214,1,8
396,92,2966584,1,0
396,92,2966769,2,0,B|492:128|532:196|532:304|448:392|348:384|260:320,1,500,0|8
396,92,2968065,5,0
396,92,2968251,1,0
396,92,2968436,1,0
336,240,2968806,1,0
176,240,2969176,1,8
116,92,2969547,1,0
116,92,2969732,2,0,B|20:128|-20:196|-20:304|64:392|164:384|252:320,1,500,0|8
256,36,2971399,5,0
176,172,2971769,1,0
336,172,2972139,1,8
432,300,2972510,2,0,B|356:399|257:327|257:327|158:399|83:300,1,400
256,236,2973621,1,8
432,172,2973991,2,0,B|356:73|257:144|257:144|158:73|83:172,1,400
256,236,2975102,1,8
256,60,2975473,1,8
256,60,2975658,1,0
256,60,2975843,5,4
378,372,2976584,2,0,B|348:306|260:264|172:297|136:371,1,300,8|0
156,204,2977325,2,0,B|372:204,1,200,8|8
296,32,2978065,2,0,B|314:70|296:101|268:115|240:115|212:101|194:70|212:32,1,200,8|0
126,127,2978621,2,0,B|174:192|256:213|337:192|385:127,1,300
432,304,2979547,5,8
256,352,2979917,1,0
80,304,2980288,1,8
181,159,2980658,2,0,B|191:195|255:219|255:219|319:195|333:158,1,200,0|8
127,79,2981399,2,0,B|143:14|207:-1|272:14|304:46|288:95|256:111|223:95|207:46|239:14|304:-1|368:14|384:79,1,400
480,224,2982510,5,8
360,322,2982880,2,0,B|325:339|290:339|256:322|221:304|204:252|221:201|256:183|290:201|308:252|290:304|256:322|221:339|187:339|152:322,1,400
32,224,2983991,1,8
173,146,2984362,2,0,B|181:115|213:90|254:84|254:84|281:74|303:41|281:9|257:3|229:9|201:41|227:74|254:84|254:84|297:90|324:111|338:152,1,400
448,288,2985473,1,8
256,368,2985843,5,8
184,312,2986028,1,8
208,224,2986214,1,0
304,224,2986399,1,8
328,312,2986584,1,8
334,99,2986954,2,0,B|317:52|255:28|199:50|176:101,1,200,4|0
256,136,2987510,1,0
256,136,2987695,5,4
256,352,2988436,1,8
412,108,2988991,1,0
412,194,2989176,2,0,B|362:199|313:154|308:94|344:51,1,200,8|0
167,51,2989917,2,0,B|203:94|198:154|149:199|100:194,1,200,8|0
100,108,2990473,1,0
256,204,2990843,1,0
330,254,2991028,2,0,B|320:290|256:314|256:314|192:290|178:253,1,200,0|8
364,344,2991769,5,0
420,140,2992139,1,0
256,48,2992510,1,0
92,140,2992880,1,8
148,344,2993251,1,0
256,48,2993991,5,0
432,336,2994732,1,0
80,332,2995473,1,0
256,304,2995843,1,8
172,152,2996214,2,0,B|136:76|172:14|227:-12|283:-12|338:14|374:76|338:152,1,400
472,276,2997325,1,8
311,381,2997695,2,0,B|311:325|255:307|255:307|200:288|200:233,1,200,0|8
256,168,2998251,1,8
311,232,2998436,2,0,B|311:288|256:307|256:307|201:325|201:381,1,200,8|8
39,276,2999176,1,8
39,276,2999362,1,8
39,276,2999547,1,4
256,192,2999639,12,8,3001769
256,192,3002510,5,4
468,56,3008436,5,4
352,348,3009176,1,8
476,172,3009732,1,0
476,172,3009917,1,0
320,140,3010288,1,0
192,244,3010658,1,8
36,212,3011028,1,0
36,212,3011214,2,0,B|88:8|400:76|344:296,1,500,0|8
36,212,3012880,5,0
192,244,3013251,1,0
320,140,3013621,1,8
476,172,3013991,1,0
476,172,3014176,2,0,B|424:376|112:308|168:88,1,500,0|8
320,140,3015473,1,0
400,276,3015843,5,0
256,344,3016214,1,0
112,276,3016584,1,8
172,136,3016954,2,0,B|148:66|221:34|256:69|256:69|291:34|364:66|340:136,2,299.999991059304
256,272,3018806,1,0
412,300,3019176,1,0
256,272,3019547,1,8
100,300,3019917,1,0
100,300,3020102,1,0
100,300,3020288,5,0
376,99,3021028,2,0,B|349:30|255:-8|170:25|135:103,1,300,8|0
176,180,3021769,2,0,B|193:227|255:251|311:229|334:178,1,200,0|0
488,264,3022510,1,8
336,348,3022880,1,0
256,372,3023065,1,0
176,348,3023251,1,0
256,52,3023991,5,8
24,264,3024547,1,0
24,264,3024732,1,0
120,112,3025102,1,0
256,228,3025473,1,8
392,112,3025843,1,0
336,180,3026028,2,0,B|308:136|239:99|166:123|80:208|151:317|208:352|279:356|344:292|344:245,1,500,0|8
448,352,3027325,5,0
255,229,3027695,1,0
64,352,3028065,1,0
32,128,3028436,5,8
173,13,3028806,2,0,B|137:89|173:151|228:177|284:177|339:151|375:89|339:13,1,400
480,128,3029917,1,8
352,288,3030288,5,0
160,288,3030658,1,0
336,184,3031028,1,8
256,216,3031214,1,0
176,184,3031399,1,8
304,96,3031769,21,8
208,96,3031954,1,0
256,32,3032139,1,4
256,32,3032880,37,8
48,280,3033436,1,0
48,280,3033621,1,0
192,212,3033991,1,0
328,292,3034362,1,8
464,216,3034732,1,0
464,216,3034917,2,0,B|397:316|291:313|235:285|185:249|132:157|191:49,1,500,0|8
320,48,3036214,1,0
256,196,3036584,5,0
320,336,3036954,1,0
416,208,3037325,1,8
256,195,3037695,2,0,B|122:154|122:154|189:218|155:337|25:311,2,400
256,196,3039917,1,0
256,36,3040288,1,8
256,195,3040658,2,0,B|389:154|389:154|322:218|356:337|486:311,1,400
476,152,3041769,1,8
352,52,3042139,5,0
316,108,3042325,1,0
256,136,3042510,1,0
196,108,3042695,1,8
160,52,3042880,1,0
256,232,3043251,1,8
256,40,3043621,1,0
256,40,3043806,1,0
256,40,3043991,5,4
256,40,3044732,1,8
464,280,3045288,1,0
464,280,3045473,1,0
320,212,3045843,1,0
184,292,3046214,1,8
48,216,3046584,1,0
48,216,3046769,2,0,B|114:316|220:313|276:285|326:249|379:157|320:49,1,500,0|8
192,48,3048065,1,0
256,196,3048436,5,0
192,336,3048806,1,0
96,208,3049176,1,8
256,196,3049547,2,0,B|389:236|389:236|322:173|356:54|486:80,2,400
256,196,3051769,1,0
256,355,3052139,1,8
256,196,3052510,2,0,B|122:236|122:236|189:173|155:54|25:80,1,400
36,239,3053621,1,8
160,339,3053991,5,0
196,283,3054176,1,0
256,255,3054362,1,0
316,283,3054547,1,8
352,339,3054732,1,0
256,159,3055102,1,8
256,351,3055473,1,0
256,351,3055658,1,0
256,351,3055843,5,4
256,36,3056584,1,8
256,260,3057139,1,0
256,260,3057325,2,0,B|256:112,1,132.00000125885
312,96,3057880,1,0
316,160,3058065,1,0
256,188,3058251,1,0
196,160,3058436,1,0
200,96,3058621,1,0
256,64,3058806,5,4
332,348,3059547,2,0,B|289:366|256:333|256:308|256:308|256:333|222:366|181:348,1,200,8|0
80,192,3060288,1,8
256,88,3060658,1,0
432,192,3061028,1,8
340,39,3061399,2,0,B|376:115|340:177|285:203|229:203|174:177|138:115|174:39,2,400
432,192,3063251,5,8
256,296,3063621,1,0
80,192,3063991,1,8
172,345,3064362,2,0,B|136:269|172:207|227:181|283:181|338:207|374:269|338:345,2,400
356,48,3066584,6,0,B|156:48,1,200,0|8
52,196,3067325,1,0
174,338,3067695,2,0,B|321:183|321:183|256:126|256:126|190:183|190:183|337:338,1,600,8|0
464,192,3069176,1,8
464,192,3069362,1,8
464,192,3069547,1,0
341,61,3069917,6,0,B|309:102|257:126|200:102|170:59,1,200,8|0
19,154,3070658,2,0,B|49:231|123:301|196:315|255:330|314:315|392:300|461:231|492:152,1,600,4|0
480,336,3072139,5,8
384,80,3072510,1,0
256,288,3072880,1,8
128,80,3073251,1,0
32,336,3073621,1,8
97,274,3073806,1,0
171,219,3073991,2,0,B|202:175|257:161|311:175|342:219,1,200,0|8
344,39,3074732,6,0,B|311:82|258:96|203:82|171:39,1,200,0|8
160,224,3075473,1,0
352,224,3075843,1,8
256,352,3076214,1,0
256,352,3076954,5,0
256,192,3077325,1,8
120,76,3077695,2,0,B|147:143|226:120|256:102|256:37|256:37|256:102|292:120|368:144|400:65,1,400
376,248,3078806,5,8
256,344,3079176,1,0
256,140,3079547,1,0
136,248,3079917,1,0
256,44,3080288,1,8
376,248,3080658,1,0
340,172,3080843,1,8
256,140,3081028,1,8
172,172,3081214,1,8
136,248,3081399,1,8
256,344,3081769,21,8
488,104,3082510,2,0,B|500:97|521:64|516:9|478:-2|456:-23|369:-26|316:12|357:88|357:122|390:190|423:190|491:190|495:255|495:288|495:288|496:323|465:380|423:389|358:386|328:339|323:322|323:289|325:257|345:218|345:218|56:190|256:-177|457:190|157:221|157:221|189:250|198:289|190:322|190:338|156:389|90:389|51:373|21:337|19:289|19:289|20:240|33:208|90:190|123:190|156:122|156:88|169:17|140:-9|52:-29|18:-4|-9:55|4:88|27:110,1,2200,4|0
72,192,3103251,5,0
168,332,3103621,1,0
344,332,3103991,1,0
440,192,3104362,1,0
256,148,3104732,1,0
256,148,3105102,1,0
168,296,3105473,5,0
200,348,3105658,1,0
256,364,3105843,1,0
312,348,3106028,1,0
344,296,3106214,2,0,B|272:208|348:88|472:128,1,264.0000025177
500,268,3107510,1,0
500,268,3107695,1,0
400,236,3108065,1,0
300,204,3108436,1,0
300,100,3108806,1,0
168,88,3109176,6,0,B|240:176|164:296|40:256,1,264.0000025177
12,116,3110473,1,0
12,116,3110658,1,0
112,148,3111028,1,0
212,180,3111399,1,0
212,284,3111769,1,0
344,288,3112139,6,0,B|410:277|421:196|403:192|403:192|421:189|410:108|344:97,2,264.0000025177
256,192,3113991,1,0
168,96,3114362,2,0,B|101:106|90:187|108:191|108:191|90:194|101:275|168:286,1,264.0000025177
344,284,3115473,1,0
256,192,3115843,1,0
168,100,3116214,1,0
196,44,3116399,1,0
256,20,3116584,1,0
316,44,3116769,1,0
344,100,3116954,1,0
256,192,3117325,1,0
168,300,3117695,1,0
168,300,3117880,1,0
168,300,3118065,6,0,B|208:344|312:364|448:344|444:164|432:108|372:56|288:-28|144:4|64:152|140:248,2,800,4|8|8
256,192,3121121,12,8,3122510
256,192,3122602,12,8,3123991
256,192,3124084,12,8,3126214
108,240,3126584,5,0
168,72,3126954,1,0
348,72,3127325,1,0
404,240,3127695,1,8
256,360,3128065,1,8
192,312,3128251,1,8
212,232,3128436,1,8
300,232,3128621,1,0
320,312,3128806,1,8
344,56,3129176,6,0,B|340:104|340:104|288:136,1,100,8|0
216,131,3129547,2,0,B|171:103|171:103|167:55,1,100,8|0
256,44,3129917,5,4
256,44,3130658,1,8
464,280,3131214,1,0
464,280,3131399,1,0
320,212,3131769,1,0
184,292,3132139,1,8
48,216,3132510,1,0
48,216,3132695,2,0,B|115:316|221:313|277:285|327:249|380:157|321:49,1,500,0|8
192,48,3133991,1,0
256,196,3134362,5,0
192,336,3134732,1,0
96,208,3135102,1,8
256,195,3135473,2,0,B|390:154|390:154|323:218|357:337|487:311,2,400
256,196,3137695,5,0
256,36,3138065,1,8
256,195,3138436,2,0,B|123:154|123:154|190:218|156:337|26:311,1,400
36,152,3139547,1,8
160,52,3139917,1,0
196,108,3140102,1,0
256,136,3140288,1,0
316,108,3140473,1,8
352,52,3140658,1,0
256,232,3141028,5,8
256,40,3141399,1,0
256,40,3141584,1,0
256,40,3141769,1,4
378,372,3142510,6,0,B|348:306|260:264|172:297|136:371,1,300,8|0
156,204,3143251,2,0,B|372:204,1,200,8|8
296,32,3143991,2,0,B|314:70|296:101|268:115|240:115|212:101|194:70|212:32,1,200,8|0
126,127,3144547,2,0,B|174:192|256:213|337:192|385:127,1,300
428,304,3145473,5,8
256,364,3145843,1,0
84,304,3146214,1,0
332,212,3146584,6,0,B|322:176|258:152|258:152|192:172|180:213,1,200,0|8
104,72,3147325,2,0,B|189:109|256:42|256:-7|256:-7|256:42|322:109|406:72,1,400
480,224,3148436,1,8
360,322,3148806,2,0,B|325:339|290:339|256:322|221:304|204:252|221:201|256:183|290:201|308:252|290:304|256:322|221:339|187:339|152:322,1,400
32,224,3149917,5,8
173,146,3150288,2,0,B|181:115|213:90|254:84|254:84|281:74|303:41|281:9|257:3|229:9|201:41|227:74|254:84|254:84|297:90|324:111|338:152,1,400
492,232,3151399,1,8
352,344,3151769,2,0,B|312:312|312:312|304:264,1,100,8|0
392,256,3152139,2,0,B|384:208|384:208|344:176,1,100,8|0
328,88,3152510,1,8
256,144,3152695,1,0
184,88,3152880,1,8
168,176,3153065,2,0,B|128:208|128:208|120:256,1,100,0|8
208,264,3153436,2,0,B|200:312|200:312|160:344,1,100,0|4
160,56,3154362,5,8
396,92,3154917,1,0
396,92,3155102,1,0
336,240,3155473,1,0
176,240,3155843,1,8
116,91,3156214,2,0,B|51:116|28:160|20:208|72:284|148:287|204:212,1,300
176,240,3156954,1,0
288,116,3157325,1,8
116,92,3157695,5,0
116,92,3157880,1,0
116,92,3158065,1,0
176,240,3158436,1,0
336,240,3158806,1,8
396,91,3159176,2,0,B|460:116|484:160|492:208|440:284|363:287|308:212,1,300
336,240,3159917,2,0,B|372:288|288:332|256:256|256:256|224:332|140:288|176:240,1,300
175,240,3160658,1,0
256,80,3161028,5,0
388,320,3161399,1,0
124,320,3161769,1,8
96,104,3162139,2,0,B|132:10|259:-40|374:4|421:109,1,400
256,192,3163251,1,8
96,280,3163621,2,0,B|132:373|259:424|374:379|421:274,1,400
366,112,3164732,6,0,B|320:92|320:92|300:48,1,100,8|0
212,46,3165102,2,0,B|192:92|192:92|146:112,1,100,8|0
207,184,3165473,2,0,B|146:207|146:207|67:176|67:176|99:348|99:348|177:317|177:317|224:348|224:348|256:333|256:333|287:348|287:348|334:317|334:317|412:348|412:348|444:176|444:176|365:207|365:207|303:184,1,1000,4|0
256,24,3167695,5,8
396,91,3168065,2,0,B|461:116|484:160|492:208|440:284|364:287|308:212,1,300
336,240,3168806,1,0
224,116,3169176,1,8
396,92,3169547,5,0
396,92,3169732,1,0
396,92,3169917,1,0
336,240,3170288,1,0
176,240,3170658,1,8
116,91,3171028,2,0,B|52:116|28:160|20:208|72:284|149:287|204:212,1,300
176,240,3171769,2,0,B|140:288|224:332|256:256|256:256|288:332|372:288|336:240,1,300
337,240,3172510,1,0
256,80,3172880,5,0
124,320,3173251,1,0
388,320,3173621,1,8
416,104,3173991,2,0,B|380:10|253:-40|138:4|91:109,1,400
256,192,3175102,1,8
104,304,3175473,2,0,B|189:267|256:334|256:383|256:383|256:334|322:267|406:304,1,400,8|0
386,195,3176460,5,0
309,126,3176583,2,0,B|341:62,2,66.6666666666667,8|0|8
203,126,3176954,2,0,B|171:62,2,66.6666666666667,8|0|8
126,195,3177324,1,4
