osu file format v9

[General]
AudioFilename: Within Temptation - The Unforgiving.mp3
AudioLeadIn: 2000
PreviewTime: 1873286
Countdown: 0
SampleSet: Soft
StackLeniency: 0.7
Mode: 0
LetterboxInBreaks: 1

[Editor]
DistanceSpacing: 1.1
BeatDivisor: 4
GridSize: 4

[Metadata]
Title:The Unforgiving
Artist:Within Temptation
Creator:Armin
Version:Sinead
Source:
Tags:Gonzvlo narakucrimson Roddie Vass_Bass ErufenRito Glass Card N'FoRcE force HakunoKaemi metal Why not me Shot in the Dark In the Middle of the Night Faster Fire and Ice Iron Where is the edge Sinead Lost Murder A Demon's Fate Stairway to the skies TU Marathon symphonic metal rock Sharon den Adel collab

[Difficulty]
HPDrainRate:6
CircleSize:4
OverallDifficulty:7
ApproachRate:8
SliderMultiplier:2
SliderTickRate:1

[Events]
//Background and Video events
0,0,"Within-Temptation.png"
Video,1730578,"19 Sinead_xvid_001.avi"
//Break Periods
2,1825109,1829544
2,1903058,1916980
2,1935879,1949288
//Storyboard Layer 0 (Background)
//Storyboard Layer 1 (Fail)
//Storyboard Layer 2 (Pass)
//Storyboard Layer 3 (Foreground)
//Storyboard Sound Samples
//Background Colour Transformations
3,100,163,162,255

[TimingPoints]
2406,418.848167539267,4,2,0,100,1,0
15829,418.848167539267,4,2,0,100,1,0
34572,565.904267861353,4,1,0,100,1,0
47011,-100,4,2,1,100,0,0
95696,566.037735849057,4,2,1,100,1,0
97111,-100,4,1,0,80,0,1
97247,-100,4,1,0,82,0,1
97388,-100,4,1,0,84,0,1
97530,-100,4,1,0,86,0,1
97671,-100,4,1,0,90,0,1
97818,-100,4,1,0,93,0,0
97960,-100,4,1,0,96,0,1
98096,-100,4,2,1,100,0,1
106020,-100,4,1,1,80,0,1
106233,-100,4,1,1,83,0,1
106374,-100,4,1,1,86,0,1
106516,-100,4,1,1,89,0,1
106657,-100,4,1,1,92,0,1
106799,-100,4,1,1,95,0,1
106940,-100,4,2,1,98,0,1
116073,-100,4,2,1,98,0,0
124134,-100,4,1,0,100,0,0
124983,-100,4,2,1,100,0,0
160926,-100,4,1,0,100,0,0
161209,-100,4,2,1,100,0,0
165454,-100,4,1,0,100,0,0
165737,-100,4,2,1,100,0,0
169983,-100,4,1,0,100,0,0
170266,-100,4,2,0,87,0,0
172671,-100,4,1,0,100,0,0
173101,-100,4,1,0,81,0,1
173237,-100,4,1,0,84,0,1
173379,-100,4,1,0,87,0,1
173520,-100,4,1,0,90,0,1
174658,-100,4,2,0,100,0,0
174941,-100,4,2,1,100,0,1
182436,-100,4,2,0,100,0,1
183002,-100,4,1,0,100,0,1
183714,-100,4,2,0,100,0,0
183997,-100,4,2,1,100,0,1
191563,-100,4,1,0,80,0,1
191775,-100,4,1,0,83,0,1
191917,-100,4,1,0,86,0,1
192058,-100,4,1,0,89,0,1
192200,-100,4,1,0,91,0,1
192341,-100,4,1,0,93,0,1
192483,-100,4,1,0,95,0,1
192624,-100,4,1,0,97,0,1
192766,-100,4,1,0,98,0,1
192907,-100,4,1,0,99,0,1
193054,-100,4,2,0,100,0,0
209888,-100,4,1,0,63,0,0
211311,-100,4,2,0,5,0,0
214708,-100,4,2,0,30,0,0
215549,-100,4,1,0,15,0,0
215686,566.037735849057,4,1,0,15,1,0
215761,-100,4,2,0,5,0,0
217105,-100,4,2,0,31,0,0
217884,-100,4,1,0,15,0,0
218450,-100,4,2,0,30,0,0
218662,-100,4,1,0,15,0,0
219299,-100,4,2,0,29,0,0
219511,-100,4,2,0,36,0,0
220148,-100,4,1,0,16,0,0
220289,-100,4,2,0,16,0,0
220997,-100,4,1,0,16,0,0
221138,-100,4,2,0,16,0,0
222341,-100,4,1,0,16,0,0
222907,-100,4,2,0,16,0,0
223190,-100,4,1,0,16,0,0
223473,-100,4,2,0,16,0,0
224605,-100,4,1,0,16,0,0
225171,-100,4,2,0,16,0,0
225454,-100,4,1,0,16,0,0
226091,-100,4,2,0,16,0,0
226870,-100,4,1,0,16,0,0
227436,-100,4,2,0,16,0,0
227719,-100,4,1,0,16,0,0
228072,-100,4,2,0,16,0,0
229134,-100,4,1,0,16,0,0
229770,-100,4,2,0,16,0,0
229983,-100,4,1,0,16,0,0
230195,-100,4,2,0,16,0,0
231469,-100,4,1,0,16,0,0
231610,-100,4,2,0,16,0,0
232318,-100,4,1,0,16,0,0
232601,-100,4,2,0,33,0,0
233167,-100,4,2,0,21,0,0
233733,-100,4,1,0,21,0,0
243355,-100,4,1,0,41,0,0
246256,-100,4,1,0,26,0,0
247954,-100,4,1,0,39,0,0
250510,-100,4,2,0,40,0,0
250651,-100,4,2,0,50,0,0
250793,-100,4,2,0,60,0,0
251912,-100,4,2,1,100,0,1
267761,-100,4,2,1,100,0,0
270025,-100,4,2,1,100,0,1
270171,-76.9230769230769,4,2,1,83,0,1
285737,-76.9230769230769,4,1,0,36,0,1
286162,-76.9230769230769,4,1,0,45,0,1
286445,-76.9230769230769,4,1,0,52,0,1
286728,-76.9230769230769,4,1,0,60,0,1
287011,-76.9230769230769,4,1,0,68,0,1
287294,-76.9230769230769,4,1,0,76,0,1
287577,-76.9230769230769,4,1,1,83,0,1
287855,-76.9230769230769,4,2,1,100,0,0
288138,-76.9230769230769,4,2,1,100,0,1
296068,-76.9230769230769,4,1,1,54,0,1
296351,-76.9230769230769,4,1,1,60,0,1
296634,-76.9230769230769,4,1,1,71,0,1
296923,-76.9230769230769,4,2,1,93,0,0
297195,-76.9230769230769,4,2,1,100,0,1
306252,-76.9230769230769,4,2,1,100,0,0
324082,-76.9230769230769,4,2,1,100,0,0
324152,-76.9230769230769,4,2,1,65,0,0
337093,300,4,2,1,40,1,0
346663,-100,4,1,0,70,0,0
346851,-100,4,2,1,70,0,0
366193,-100,4,2,1,70,0,0
384870,-100,4,2,0,70,0,0
384943,-100,4,1,0,70,0,0
385138,-100,4,2,1,70,0,0
388663,-100,4,1,0,70,0,0
389001,-100,4,2,1,70,0,0
399493,-100,4,1,0,70,0,0
399651,-100,4,2,1,70,0,0
408343,-100,4,1,0,70,0,0
408943,-100,4,1,0,70,0,0
409093,-100,4,1,0,70,0,0
409168,-100,4,2,1,70,0,0
416593,-100,4,1,0,70,0,0
416670,-100,4,2,0,70,0,0
416743,-100,4,1,0,50,0,0
416893,-100,4,1,0,80,0,0
416968,-100,4,2,0,70,0,0
417043,-100,4,1,0,50,0,0
417193,-100,4,1,0,90,0,0
417270,-100,4,2,0,70,0,0
417493,-100,4,1,0,100,0,0
417568,-100,4,2,0,70,0,0
418693,-100,4,2,1,70,0,1
428226,-100,4,1,0,70,0,1
428451,-100,4,2,1,70,0,1
436634,-100,4,2,0,70,0,1
436784,-100,4,1,0,70,0,1
437830,-100,4,1,0,70,0,0
437893,-100,4,1,0,70,0,1
442693,-100,4,1,0,70,0,0
452001,-100,4,2,1,70,0,0
461293,-100,4,1,0,70,0,0
461976,-100,4,2,1,70,0,0
470293,-100,4,1,0,70,0,0
471576,-100,4,2,0,70,0,0
471726,-100,4,1,0,70,0,0
471876,-100,4,2,1,70,0,0
475693,-100,4,1,0,70,0,0
475926,-100,4,1,0,70,0,0
476526,-100,4,1,0,70,0,0
476676,-100,4,2,1,70,0,0
479893,-100,4,1,0,70,0,0
481176,-100,4,2,0,70,0,0
481326,-100,4,1,0,70,0,0
481476,-100,4,2,1,70,0,0
490693,-100,4,1,0,70,0,1
490851,-100,4,2,1,70,0,1
499693,-100,4,1,0,60,0,1
499993,-100,4,1,0,65,0,1
500143,-100,4,1,0,70,0,0
500293,-100,4,1,0,70,0,1
501276,-100,4,2,0,70,0,1
501426,-100,4,1,0,70,0,1
501876,-100,4,2,0,70,0,1
502326,-100,4,1,0,70,0,1
502776,-100,4,2,0,70,0,1
502926,-100,4,1,0,70,0,1
509293,-100,4,1,0,60,0,1
509593,-100,4,1,0,65,0,1
514693,-100,4,1,0,70,0,0
514709,-100,4,1,0,70,0,0
563151,-83.3333333333333,4,1,0,70,0,0
574251,-76.9230769230769,4,1,0,70,0,0
581893,-76.9230769230769,4,1,0,70,0,1
591193,-76.9230769230769,4,1,0,70,0,0
591493,-76.9230769230769,4,1,0,70,0,1
601093,-76.9230769230769,4,1,0,70,0,1
603726,-83.3333333333333,4,1,0,70,0,1
605893,-83.3333333333333,4,1,0,70,0,0
634993,-83.3333333333333,4,1,0,20,0,0
648736,500,4,2,1,100,1,0
710611,-100,4,1,0,63,0,0
710781,-100,4,1,0,65,0,0
710857,-100,4,1,0,70,0,0
710982,-100,4,1,0,76,0,0
711107,-100,4,1,0,79,0,0
711232,-100,4,1,0,85,0,0
711357,-100,4,1,0,91,0,0
711482,-100,4,1,0,94,0,0
711781,-100,4,1,0,100,0,0
712736,-76.9230769230769,4,1,0,100,0,1
712798,-76.9230769230769,4,2,1,100,0,1
720498,-76.9230769230769,4,1,0,100,0,0
720736,-76.9230769230769,4,1,0,100,0,1
721986,-76.9230769230769,4,2,1,100,0,1
727986,-76.9230769230769,4,1,0,80,0,1
728111,-76.9230769230769,4,1,0,83,0,1
728236,-76.9230769230769,4,1,0,86,0,1
728361,-76.9230769230769,4,1,0,89,0,1
728486,-76.9230769230769,4,1,0,92,0,1
728623,-76.9230769230769,4,1,0,95,0,0
728736,-76.9230769230769,4,1,0,98,0,1
744736,-100,4,1,0,100,0,0
751234,-100,4,2,1,100,0,0
752611,-100,4,1,0,100,0,0
752861,-100,4,2,1,100,0,0
759611,-100,4,1,0,100,0,0
759861,-100,4,2,0,100,0,0
760173,-100,4,1,0,100,0,0
760361,-100,4,2,0,100,0,0
760673,-100,4,1,0,100,0,0
760861,-100,4,2,1,100,0,0
784548,-100,4,2,0,100,0,0
785111,-100,4,1,0,100,0,0
785361,-83.3333333333333,4,1,0,100,0,0
785548,-83.3333333333333,4,2,0,100,0,0
786111,-83.3333333333333,4,1,0,100,0,0
786361,-71.4285714285714,4,1,0,100,0,0
786548,-71.4285714285714,4,2,0,100,0,0
787111,-62.5,4,1,0,100,0,0
787548,-62.5,4,2,0,100,0,0
788111,-55.5555555555556,4,1,0,100,0,0
789361,-50,4,1,0,100,0,0
789548,-50,4,2,0,100,0,0
790111,-76.9230769230769,4,1,0,100,0,0
790736,-76.9230769230769,4,1,0,80,0,0
790986,-76.9230769230769,4,1,0,85,0,0
791236,-76.9230769230769,4,1,0,90,0,0
791486,-76.9230769230769,4,1,0,95,0,0
791736,-76.9230769230769,4,1,0,100,0,0
792736,-76.9230769230769,4,1,0,100,0,1
800486,-76.9230769230769,4,1,0,100,0,0
800736,-76.9230769230769,4,1,0,100,0,1
808611,-76.9230769230769,4,1,0,100,0,0
808736,-76.9230769230769,4,1,0,100,0,1
824611,-76.9230769230769,4,1,0,100,0,0
824736,-76.9230769230769,4,1,0,100,0,1
824861,-76.9230769230769,4,1,0,100,0,0
852361,-76.9230769230769,4,2,0,100,0,0
858736,-76.9230769230769,4,1,0,100,0,0
860736,-66.6666666666667,4,1,0,100,0,1
868486,-66.6666666666667,4,1,0,100,0,0
868736,-66.6666666666667,4,1,0,100,0,1
872361,-66.6666666666667,4,1,0,100,0,1
873861,-66.6666666666667,4,1,0,100,0,1
884486,-66.6666666666667,4,1,0,100,0,0
884736,-66.6666666666667,4,1,0,100,0,1
886236,-66.6666666666667,4,1,0,100,0,0
912957,856.959223023638,4,2,0,21,1,0
941887,-117.647058823529,4,2,0,21,0,0
972298,-100,4,2,0,21,0,0
974654,-100,4,2,0,21,0,0
991894,-117.647058823529,4,2,0,21,0,0
992858,-100,4,2,0,21,0,0
1015131,-90.9090909090909,4,2,0,21,0,0
1015452,-90.9090909090909,4,2,0,5,0,0
1017701,-100,4,2,0,15,0,0
1022649,428.571428571429,4,2,1,78,1,0
1030031,-90.9090909090909,4,2,0,79,0,0
1031103,-100,4,2,1,79,0,0
1049960,-100,4,1,0,60,0,0
1050174,-100,4,2,0,100,0,0
1051674,-100,4,1,0,60,0,0
1051889,-100,4,2,0,100,0,0
1052103,-100,4,1,0,60,0,0
1052317,-100,4,2,0,100,0,0
1052531,-100,4,1,0,60,0,0
1052746,-100,4,2,0,100,0,0
1052960,-100,4,1,0,60,0,0
1053174,-100,4,2,0,100,0,0
1053389,-100,4,1,0,80,0,0
1053603,-100,4,2,0,100,0,0
1054246,-100,4,1,0,80,0,0
1054460,-100,4,2,1,81,0,0
1067103,-100,4,1,0,80,0,0
1067317,-100,4,2,1,100,0,0
1069674,-100,4,1,0,85,0,0
1069996,-100,4,2,1,85,0,0
1070531,-100,4,1,0,68,0,0
1070746,-100,4,2,0,100,0,0
1071389,-100,4,1,0,80,0,0
1071603,-100,4,2,0,100,0,0
1072246,-100,4,1,0,60,0,0
1072460,-100,4,2,0,100,0,0
1073103,-100,4,1,0,80,0,0
1073317,-100,4,2,0,100,0,0
1073960,-100,4,1,0,60,0,0
1074174,-100,4,2,0,100,0,0
1074389,-100,4,1,0,60,0,0
1074603,-100,4,2,0,100,0,0
1074817,-100,4,1,0,80,0,0
1075031,-100,4,2,0,100,0,0
1075674,-100,4,1,0,60,0,0
1076317,-100,4,2,0,100,0,0
1076531,-100,4,1,0,80,0,0
1076746,-100,4,2,0,100,0,0
1077389,-100,4,2,1,81,0,0
1081246,-90.9090909090909,4,2,1,82,0,0
1082317,-100,4,2,1,80,0,0
1083281,-100,4,2,1,80,0,0
1093460,-90.9090909090909,4,2,1,80,0,0
1094317,-100,4,2,1,80,0,0
1105674,-100,4,2,1,80,0,0
1118531,-100,4,1,0,80,0,0
1118746,-100,4,2,1,80,0,0
1122014,-100,4,1,0,80,0,0
1122174,-100,4,2,1,80,0,0
1128817,-133.333333333333,4,2,1,80,0,0
1135674,-100,4,2,0,22,0,0
1137505,444.444444444444,4,2,0,22,1,0
1139282,461.538461538462,4,2,0,16,1,0
1140205,571.428571428571,4,2,0,19,1,0
1141347,571.428571428571,4,2,0,19,1,0
1150313,454.545454545455,4,2,0,100,1,0
1153040,-100,4,2,1,100,0,0
1226981,-72.992700729927,4,2,1,100,0,0
1241222,-68.0272108843537,4,2,1,100,0,1
1284868,-105.042016806723,4,1,0,100,0,0
1291224,-80.7754442649435,4,1,0,100,0,0
1291299,-80.7754442649435,4,2,1,100,0,0
1291375,-80.7754442649435,4,1,0,100,0,0
1291451,-80.7754442649435,4,2,1,100,0,0
1291527,-80.7754442649435,4,1,0,100,0,0
1291602,-80.7754442649435,4,2,1,100,0,0
1291678,-74.6268656716418,4,1,0,100,0,0
1292133,-72.7272727272727,4,2,1,100,0,0
1328494,-72.992700729927,4,2,1,100,0,1
1342147,-72.992700729927,4,2,1,100,0,1
1342737,-72.992700729927,4,2,1,100,0,0
1343040,-72.992700729927,4,2,1,100,0,1
1345025,-63.2911392405063,4,2,1,100,0,1
1345935,-72.992700729927,4,2,1,100,0,1
1357585,-72.992700729927,4,2,1,100,0,0
1372139,-72.992700729927,4,2,1,100,0,0
1408427,-86.2068965517241,4,2,1,100,0,0
1409571,-87.5656742556918,4,2,1,100,0,0
1412071,-87.5656742556918,4,1,0,100,0,0
1412222,-87.5656742556918,4,2,1,100,0,0
1415767,-72.992700729927,4,2,1,100,0,1
1430009,-72.992700729927,4,2,1,100,0,0
1430312,-72.992700729927,4,2,1,100,0,1
1430632,-63.2911392405063,4,2,1,100,0,1
1444706,-63.2911392405063,4,2,1,100,0,0
1444858,-63.2911392405063,4,2,1,100,0,1
1473949,-63.2911392405063,4,2,1,100,0,0
1491562,389.61038961039,4,1,0,80,1,0
1506367,-200,4,1,0,80,0,0
1507146,-100,4,1,0,80,0,0
1550782,-100,4,1,0,80,0,1
1575717,-100,4,1,0,80,0,0
1584873,-100,4,2,0,70,0,0
1587511,-100,4,1,0,80,0,0
1589938,-200,4,1,0,80,0,0
1590523,-100,4,1,0,80,0,0
1619354,-100,4,1,0,80,0,1
1644289,-100,4,1,0,80,0,0
1662990,-100,4,2,0,40,0,0
1678575,-100,4,2,0,70,0,0
1688315,-100,4,1,0,40,0,0
1688510,-100,4,1,0,50,0,0
1688704,-100,4,1,0,60,0,0
1688899,-100,4,1,0,70,0,0
1689094,-100,4,1,0,80,0,0
1689289,-100,4,1,0,80,0,0
1689484,-100,4,1,0,80,0,0
1691042,-100,4,1,0,80,0,1
1714419,-100,4,2,0,40,0,0
1730551,512.820512820513,4,1,0,100,1,0
1747667,-181.818181818182,4,2,0,35,0,0
1763137,-120.481927710843,4,2,1,70,0,0
1795191,-120.481927710843,4,2,1,90,0,0
1796192,-90.9090909090909,4,2,1,100,0,1
1824909,-100,4,2,1,100,0,0
1830166,-119.760479041916,4,2,1,100,0,0
1874140,-90.9090909090909,4,2,1,100,0,1
1902858,-100,4,2,1,100,0,0
1917477,-120.481927710843,4,2,1,100,0,0
1950551,-120.481927710843,4,2,1,70,0,0
1951063,-120.481927710843,4,2,1,60,0,0
1952088,-90.9090909090909,4,2,1,100,0,1
1967986,-90.9090909090909,4,2,1,100,0,0
1968499,-90.9090909090909,4,2,1,100,0,1
1980807,-90.9090909090909,4,2,1,100,0,0
1994397,428.571428571429,3,2,0,30,1,0
1995484,-100,3,2,0,48,0,0
1995913,-100,3,2,0,30,0,0
2000627,-100,3,2,0,51,0,0
2001055,-100,3,2,0,30,0,0
2045825,-100,3,2,0,40,0,0
2070163,-100,3,1,0,60,0,0
2070323,-100,3,2,0,60,0,0
2071539,-100,3,1,0,50,0,0
2072825,-100,3,1,0,60,0,0
2073055,-100,3,2,0,60,0,0
2073913,-100,3,2,1,60,0,0
2130682,-100,3,2,1,60,0,1
2141198,-87.719298245614,3,2,1,60,0,1
2142484,-100,3,2,1,60,0,1
2153825,-100,3,2,1,60,0,0
2189734,-87.719298245614,3,2,1,60,0,0
2197448,-100,3,2,1,60,0,0
2245012,-100,3,1,0,60,0,0
2246397,-100,3,1,0,60,0,1
2246619,-100,3,2,1,60,0,1
2269111,-100,3,2,1,60,0,0
2269539,-100,3,2,1,60,0,1
2290111,-100,3,2,1,60,0,0
2308992,447.761194029851,4,2,0,29,1,0
2316044,-100,4,2,1,51,0,0
2336305,-100,4,1,0,41,0,0
2337318,-100,4,2,1,51,0,0
2350969,-100,4,1,0,41,0,0
2351865,-133.333333333333,4,2,1,60,0,0
2365521,-133.333333333333,4,1,0,20,0,0
2365745,-133.333333333333,4,1,0,30,0,0
2365969,-100,4,1,0,50,0,0
2366305,-100,4,1,2,60,0,1
2379408,-100,4,1,2,70,0,1
2381087,-100,4,1,2,60,0,1
2394962,-100,4,1,2,60,0,0
2402350,-100,4,2,1,55,0,0
2415223,-100,4,1,0,50,0,0
2416566,-100,4,2,1,50,0,0
2429775,-100,4,1,0,50,0,0
2430671,-133.333333333333,4,2,1,50,0,0
2444327,-133.333333333333,4,2,1,40,0,0
2444551,-133.333333333333,4,2,1,50,0,0
2445111,-100,4,1,2,60,0,1
2470186,-100,4,1,0,65,0,0
2488096,-100,4,1,0,65,0,1
2488214,-100,4,1,0,65,0,0
2502424,-100,4,1,0,65,0,1
2502542,-100,4,1,0,65,0,0
2526162,-100,4,1,0,40,0,0
2526721,-100,4,1,0,50,0,0
2527169,-100,4,1,0,60,0,0
2527499,-100,4,1,2,65,0,1
2541380,-100,4,1,2,65,0,0
2541827,-100,4,1,2,65,0,1
2553021,-100,4,1,2,65,0,1
2555596,-100,4,1,2,5,0,1
2556156,-100,4,1,2,56,0,0
2565180,447.761194029851,4,1,0,100,1,0
2579508,-100,4,2,0,100,0,0
2586112,-100,4,1,0,69,0,0
2643985,-100,4,1,0,69,0,1
2658314,-100,4,1,0,69,0,1
2671747,-100,4,1,0,69,0,1
2672642,-100,4,1,0,69,0,0
2701539,-90.9090909090909,4,1,0,69,0,0
2715643,-100,4,1,0,69,0,0
2729956,-100,4,1,0,69,0,1
2758612,-76.9230769230769,4,1,0,69,0,0
2761875,-66.6666666666667,4,1,0,69,0,0
2801605,-133.333333333333,4,1,0,60,0,0
2815926,-100,4,1,0,60,0,0
2844582,-100,4,1,0,60,0,1
2855329,-100,4,1,0,60,0,0
2858911,-100,4,1,0,60,0,1
2873239,-100,4,1,0,60,0,0
2889304,-100,4,2,0,5,0,0
2895844,370.37037037037,4,2,0,100,1,0
2901399,-166.666666666667,4,2,0,50,0,0
2924269,-200,4,2,0,50,0,0
2940108,-200,4,2,1,50,0,0
2952145,-100,4,2,1,75,0,0
2960479,-133.333333333333,4,2,1,75,0,0
2962331,-100,4,2,1,75,0,0
2976220,-100,4,2,1,75,0,0
3016775,-133.333333333333,4,2,1,75,0,0
3018627,-100,4,2,1,75,0,0
3057232,-151.515151515152,4,1,0,60,0,0
3058719,-100,4,2,0,75,0,0
3059182,-100,4,2,1,75,0,0
3082562,-100,4,2,0,10,0,0
3086775,-100,4,2,0,75,0,0
3103066,-151.515151515152,4,1,0,60,0,0
3105571,-151.515151515152,4,2,0,75,0,0
3106126,-151.515151515152,4,1,0,60,0,0
3108066,-151.515151515152,4,2,0,75,0,0
3108437,-151.515151515152,4,1,0,60,0,0
3108626,-151.515151515152,4,2,0,75,0,0
3109177,-151.515151515152,4,1,0,60,0,0
3111029,-151.515151515152,4,2,0,75,0,0
3111400,-151.515151515152,4,1,0,60,0,0
3111589,-151.515151515152,4,2,0,75,0,0
3112140,-151.515151515152,4,1,0,60,0,0
3117978,-100,4,2,1,75,0,0
3126214,-100,4,2,1,75,0,0
3165474,-100,4,2,1,75,0,1
3176960,-100,4,2,1,75,0,0
3177325,-100,4,2,1,75,0,1
3177695,-100,4,2,1,75,0,0

[Colours]
Combo1 : 192,12,12
Combo2 : 165,18,214
Combo3 : 19,73,217
SliderBorder : 0,0,0

[HitObjects]
256,308,1748243,6,0,B|256:364,2,54.9999983608723
256,252,1749012,2,0,B|244:216|268:192|256:144,1,109.999996721745,0|0
284,36,1750038,1,0
228,36,1750294,1,0
347,99,1750807,6,0,B|392:128|424:192|392:260|348:284,1,219.999993443489
256,192,1752602,1,0
164,100,1753115,2,0,B|120:124|88:192|120:256|164:284,1,219.999993443489
332,292,1755166,54,0,B|320:352|256:392|192:352|180:292,1,219.999993443489
176,236,1756448,1,0
228,216,1756704,1,0
284,216,1756961,1,0
336,236,1757217,1,0
436,188,1757730,1,0
348,124,1758243,5,0
308,84,1758499,2,0,B|256:68|256:68|204:84,1,109.999996721745,0|0
204,140,1759268,2,0,B|200:184|256:220|312:184|308:140,1,164.999995082617,0|0
356,332,1760807,6,0,B|324:360|288:364|256:336|256:336|224:364|188:360|156:332,1,219.999993443489,0|0
204,272,1762345,2,0,B|256:300|308:272,1,109.999996721745,2|0
336,188,1763371,2,0,B|304:168|256:188|256:188|208:208|176:196,1,165.99999386549,4|8
100,164,1764140,6,0,B|76:132|74:87,1,82.9999969327451,0|8
140,32,1764653,2,0,B|220:56,1,82.9999969327451,0|8
300,76,1765166,1,0
324,156,1765422,2,0,B|304:188|256:220|208:188|186:154,1,165.99999386549,2|8
212,76,1766192,1,0
292,55,1766448,2,0,B|372:32,1,82.9999969327451,2|0
436,86,1766961,2,0,B|436:132|412:164,1,82.9999969327451,8|0
336,236,1767474,2,0,B|256:196|176:236,2,165.99999386549,4|8|2
416,252,1768756,5,0
432,172,1769012,1,8
348,156,1769268,2,0,B|260:155|212:76,1,165.99999386549,2|0
299,76,1770038,2,0,B|251:155|163:155,1,165.99999386549,2|8
80,144,1770807,1,0
132,80,1771063,1,2
52,68,1771320,1,0
16,196,1771576,2,0,B|36:360,1,165.99999386549,4|8
116,340,1772345,2,0,B|108:280|108:280|100:220|144:188,1,165.99999386549,2|0
224,168,1773115,5,8
288,216,1773371,1,0
367,196,1773627,2,0,B|412:164|404:104|404:104|396:44,2,165.99999386549,2|8|8
320,128,1774909,1,0
256,72,1775166,1,2
196,128,1775422,1,0
180,208,1775679,6,0,B|200:284|272:284|272:284|308:284,1,165.99999386549,4|8
392,288,1776448,2,0,B|372:364|300:364|300:364|264:364,1,165.99999386549,2|0
180,360,1777217,2,0,B|156:272|64:256,1,165.99999386549,2|8
40,176,1777986,5,0
96,116,1778243,1,8
176,100,1778499,1,0
256,112,1778756,1,2
344,192,1779012,1,0
256,272,1779268,1,8
168,192,1779525,1,0
256,112,1779781,1,4
324,44,1780038,54,0,B|408:32,1,82.9999969327451,0|8
500,96,1780551,2,0,B|416:108,1,82.9999969327451,0|2
364,192,1781063,2,0,B|388:272,1,82.9999969327451,0|8
336,347,1781576,2,0,B|256:314|170:348,1,165.99999386549,4|0
148,192,1782345,2,0,B|124:272,1,82.9999969327451,2|0
64,216,1782858,5,8
88,136,1783115,2,0,B|112:56,1,82.9999969327451,2|0
196,52,1783627,2,0,B|236:76|256:108|256:108|276:76|316:52,1,165.99999386549,4|0
364,120,1784397,5,2
256,176,1784653,1,0
148,120,1784909,1,2
336,224,1785166,1,0
176,224,1785422,1,2
256,360,1785679,1,0
256,276,1785935,1,8
256,192,1786192,1,0
344,136,1786448,6,0,B|360:52,1,82.9999969327451,8|0
256,1,1786961,2,0,B|256:84,1,82.9999969327451,2|0
168,136,1787474,2,0,B|152:52,1,82.9999969327451,8|0
44,176,1787986,2,0,B|24:340,1,165.99999386549,4|8
112,296,1788756,2,0,B|116:212,1,82.9999969327451,0|2
204,81,1789268,2,0,B|204:164,1,82.9999969327451,0|8
280,244,1789781,5,0
468,208,1790038,2,0,B|488:44,1,165.99999386549,4|8
400,88,1790807,2,0,B|396:172,1,82.9999969327451,0|2
309,302,1791320,2,0,B|308:220,1,82.9999969327451,0|8
256,136,1791833,1,0
184,56,1792089,2,0,B|208:24|256:8|300:24|330:57,1,165.99999386549,4|8
328,156,1792858,5,0
256,224,1793115,2,0,B|176:276|208:368,1,165.99999386549,2|8
305,366,1793884,2,0,B|338:275|254:224,1,165.99999386549,2|8
256,124,1794653,1,8
256,48,1795166,5,0
256,244,1795422,1,8
184,124,1795679,1,8
328,124,1795935,1,8
400,244,1796192,1,4
340,336,1796448,6,2,B|316:280|256:248|196:280|171:338,1,219.999993443489,2|0
64,352,1797217,2,0,B|40:244,1,109.999996721745,2|0
92,148,1797730,1,8
184,84,1797986,2,0,B|268:100|316:156|332:228,1,219.999993443489,4|0
256,308,1798756,1,8
180,228,1799012,2,0,B|197:155|245:99|329:83,1,219.999993443489,2|0
432,120,1799781,1,8
456,336,1800038,6,0,B|348:288|348:160,1,219.999993443489,4|0
312,56,1800807,1,8
200,56,1801063,1,0
256,216,1801320,1,2
256,104,1801576,1,0
164,160,1801833,1,8
108,68,1802089,1,0
165,160,1802345,2,0,B|164:288|56:336,1,219.999993443489,4|8
12,236,1803115,5,0
64,216,1803243,2,0,B|144:236|200:304,1,164.999995082617,2|0
308,276,1803884,1,8
232,196,1804140,1,2
96,132,1804397,2,0,B|72:75|124:3|204:35|212:103,1,219.999993443489,4|8
300,36,1805166,1,0
356,36,1805294,2,0,B|388:32|408:16|408:16|424:40|448:52,1,109.999996721745,2|0
500,72,1805679,5,2
492,180,1805935,1,8
388,148,1806192,1,0
416,252,1806448,2,0,B|440:309|388:381|308:349|300:281,1,219.999993443489,4|8
208,220,1807217,2,0,B|199:152|119:120|67:192|91:249,1,219.999993443489,2|0
176,320,1807986,1,8
280,352,1808243,1,0
404,276,1808499,5,4
404,276,1808756,2,0,B|336:192,1,109.999996721745,2|8
108,107,1809268,2,0,B|178:193,1,109.999996721745,2|0
328,100,1809781,2,0,B|360:48|408:28,2,109.999996721745,0|8|2
185,283,1810551,2,0,B|152:336|104:356,2,109.999996721745,0|2|8
296,228,1811320,6,0,B|260:212|252:172|216:156,2,109.999996721745,0|2|8
368,144,1812089,5,8
308,52,1812345,1,8
256,36,1812474,1,0
204,52,1812602,1,4
144,144,1812858,1,2
92,240,1813115,1,8
148,336,1813371,1,0
256,344,1813627,2,0,B|308:324|324:264,1,109.999996721745,2|0
268,168,1814140,5,8
204,256,1814397,2,0,B|292:332|408:316,1,219.999993443489,4|0
484,236,1815166,1,8
492,124,1815422,2,0,B|464:52|368:32|312:100,1,219.999993443489,2|0
216,156,1816192,1,8
56,48,1816448,6,0,B|8:168|92:252,1,219.999993443489,4|0
200,256,1817217,2,0,B|312:256,1,109.999996721745,8|0
420,240,1817730,2,0,B|360:332,1,109.999996721745,2|0
312,360,1818115,1,2
200,360,1818371,1,0
152,332,1818499,2,0,B|92:240,1,109.999996721745,2|4
256,252,1819012,5,0
208,100,1819268,1,8
332,196,1819525,1,0
180,196,1819781,1,2
304,100,1820038,5,0
256,168,1820294,1,8
400,108,1820551,1,0
420,160,1820679,1,0
440,212,1820807,1,4
356,284,1821063,2,0,B|304:288|256:244|256:244|208:288|156:284,1,219.999993443489,2|0
52,320,1821833,1,2
72,212,1822089,5,0
92,160,1822217,1,0
112,108,1822345,1,8
156,8,1822602,2,0,B|207:4|255:48|255:48|303:4|354:7,1,219.999993443489,4|0
352,120,1823371,1,8
256,172,1823627,1,2
160,120,1823884,1,0
192,224,1824140,5,8
180,276,1824268,1,0
204,324,1824397,1,8
256,344,1824525,1,0
308,324,1824653,1,2
332,276,1824781,1,0
320,224,1824909,1,4
152,140,1830294,6,0,B|232:111,1,83.5000010451675,0|8
360,244,1830807,2,0,B|280:272,1,83.5000010451675,0|2
124,240,1831320,2,0,B|204:212,1,83.5000010451675,0|8
388,144,1831833,2,0,B|308:172,1,83.5000010451675,0|2
208,60,1832345,2,0,B|236:140,1,83.5000010451675,0|8
304,324,1832858,2,0,B|276:244,1,83.5000010451675,0|4
440,232,1833627,5,8
428,152,1833884,1,0
360,200,1834140,1,2
504,180,1834397,5,0
492,100,1834653,1,8
416,72,1834909,1,0
332,68,1835166,2,0,B|292:68|292:68|256:44|256:44|220:68|220:68|180:68,1,167.000002090335,2|8
96,72,1835935,1,0
20,100,1836192,1,2
8,180,1836448,1,0
84,148,1836704,1,8
176,284,1837217,6,0,B|343:284,2,167.000002090335,0|8|0
100,164,1838499,6,0,B|180:192,1,83.5000010451675,2|8
412,164,1839012,2,0,B|332:192,1,83.5000010451675,0|2
76,72,1839525,2,0,B|156:100,1,83.5000010451675,0|8
436,72,1840038,2,0,B|356:100,1,83.5000010451675,0|2
256,52,1840551,1,0
256,136,1840807,1,8
256,176,1840935,1,0
256,216,1841063,1,8
256,300,1841320,1,4
92,312,1841833,6,0,B|48:304|28:264,1,83.5000010451675,8|0
104,232,1842345,1,2
168,180,1842602,1,0
192,100,1842858,1,8
196,16,1843115,1,0
116,36,1843371,2,0,B|120:124|42:176,2,167.000002090335,4|8|2
176,152,1844653,6,4,B|256:136|256:136|338:152,1,167.000002090335,4|0
395,36,1845422,2,0,B|392:124|468:178,1,167.000002090335,4|8
492,96,1846192,2,0,B|368:205,1,167.000002090335,2|2
292,172,1846961,1,8
152,104,1847217,6,0,B|116:188|17:185,1,167.000002090335,2|0
8,268,1847986,2,0,B|85:296,1,83.5000010451675,8|0
221,264,1848499,2,0,B|143:235,1,83.5000010451675,2|0
220,344,1849012,2,0,B|299:374,1,83.5000010451675,8|0
432,356,1849525,5,4
508,328,1849781,2,0,B|488:288|445:276,1,83.5000010451675,0|8
364,268,1850294,2,0,B|358:176|289:122,1,167.000002090335
352,68,1851063,2,0,B|296:8,1,83.5000010451675,8|0
216,7,1851576,2,0,B|160:68,1,83.5000010451675,2|0
80,88,1852089,2,0,B|44:168,1,83.5000010451675,8|0
16,240,1852602,1,2
32,312,1852858,2,0,B|104:332|124:260|189:280,1,167.000002090335
323,280,1853627,6,0,B|388:260|408:332|481:311,1,167.000002090335,4|8
456,240,1854397,2,0,B|388:260|408:332|340:352,1,167.000002090335,0|2
256,280,1855166,1,8
148,324,1855422,1,0
104,220,1855679,1,2
212,176,1855935,1,0
256,280,1856192,5,8
104,220,1856448,1,0
164,64,1856704,1,2
316,124,1856961,1,0
316,124,1857089,1,8
316,124,1857217,1,8
420,252,1857474,1,8
420,252,1857602,1,8
420,252,1857730,5,4
476,192,1857986,1,0
500,272,1858243,2,0,B|496:332|424:344|424:344|372:352,1,167.000002090335,8|2
300,312,1859012,1,0
256,240,1859268,1,8
212,312,1859525,1,0
137,351,1859781,2,0,B|87:344|87:344|15:332|10:271,1,167.000002090335,4|8
96,264,1860551,2,0,B|176:244,1,83.5000010451675,0|2
124,180,1861063,2,0,B|200:148,2,83.5000010451675,0|8|0
120,96,1861833,6,0,B|176:28|271:47,1,167.000002090335,4|8
292,160,1862602,1,0
256,264,1862858,1,2
220,160,1863115,1,0
312,224,1863371,1,8
200,224,1863627,1,0
243,48,1863884,6,0,B|336:28|393:97,1,167.000002090335,4|8
460,168,1864653,1,0
408,252,1864909,1,2
424,348,1865166,1,0
324,336,1865422,1,8
244,280,1865679,1,8
224,316,1865807,1,8
188,336,1865935,5,4
168,256,1866192,2,0,B|212:188|306:172,1,167.000002090335,2|0
336,96,1866961,2,0,B|376:112|384:160,1,83.5000010451675,2|0
424,232,1867474,1,8
344,256,1867730,2,0,B|300:188|206:170,1,167.000002090335,4|0
128,158,1868499,2,0,B|136:112|176:96,1,83.5000010451675,8|0
120,12,1869012,2,0,B|112:58|72:74,1,83.5000010451675,2|0
0,116,1869525,1,8
40,188,1869781,1,0
112,148,1870038,1,4
256,64,1870551,6,0,B|288:132|224:236|256:310,2,250.500003135502,8|2|8
256,64,1872217,1,0
380,64,1872474,2,0,B|420:80,1,41.7500005225837
440,192,1872858,2,0,B|376:164|376:164,1,41.7500005225837
240,168,1873371,5,8
204,216,1873499,1,8
144,224,1873627,1,8
92,188,1873756,1,0
88,128,1873884,1,8
124,76,1874012,1,8
184,68,1874140,5,4
292,76,1874397,2,0,B|364:88|360:168|360:168|356:260,1,219.999993443489,2|0
324,364,1875166,1,2
256,276,1875422,1,0
188,364,1875679,1,8
156,260,1875935,2,0,B|152:168|152:168|148:88|220:76,1,219.999993443489,2|0
324,104,1876704,1,8
256,192,1876961,2,0,B|184:104|72:80,1,219.999993443489,2|0
168,24,1877730,1,8
256,192,1877986,6,0,B|328:280|440:304,1,219.999993443489,4|0
352,372,1878756,1,8
252,328,1879012,2,0,B|216:280|160:276,1,109.999996721745,0|2
28,300,1879525,2,0,B|64:348|120:352,1,109.999996721745,0|8
76,224,1880038,1,0
36,120,1880294,6,0,B|32:76|104:40|120:84|136:128|208:92|196:48,1,219.999993443489,4|8
204,156,1881063,1,0
216,208,1881192,2,0,B|228:244|256:244|284:244|296:208,1,109.999996721745,2|0
308,156,1881576,1,2
360,24,1881833,1,8
452,132,1882089,1,2
476,272,1882345,6,0,B|480:316|408:352|392:308|376:264|304:300|316:344,1,219.999993443489,4|8
256,252,1883115,1,0
200,344,1883371,1,2
108,284,1883627,2,0,B|84:176,1,109.999996721745,0|8
164,100,1884140,2,0,B|176:208,1,109.999996721745,0|2
256,132,1884653,2,0,B|256:20,1,109.999996721745,0|8
348,100,1885166,2,0,B|336:208,1,109.999996721745,0|2
404,284,1885679,2,0,B|428:176,1,109.999996721745,0|8
452,68,1886192,1,0
256,40,1886448,5,4
152,80,1886704,1,0
256,196,1886961,1,8
360,304,1887217,1,2
256,344,1887474,1,0
256,196,1887730,1,0
104,192,1887986,5,8
144,296,1888243,1,0
256,196,1888499,1,0
368,88,1888756,1,2
408,192,1889012,1,8
256,196,1889268,1,0
104,192,1889525,1,2
144,88,1889781,5,0
256,40,1890038,1,8
368,88,1890294,1,8
396,136,1890422,1,0
420,184,1890551,1,4
416,296,1890807,2,0,B|368:312|316:288|316:288|256:256|196:288|196:288|144:312|96:296,1,329.999990165234,2|0
148,200,1891833,1,0
256,176,1892089,1,8
403,79,1892345,6,0,B|456:100|456:100|432:152|456:204|456:204|403:224,1,219.999993443489,4|0
256,256,1893115,1,8
109,224,1893371,2,0,B|56:204|56:204|80:152|56:100|56:100|108:80,1,219.999993443489,2|0
256,48,1894140,1,8
344,196,1894397,6,0,B|300:264|204:264|160:196,1,219.999993443489,4|0
152,84,1895166,1,8
256,48,1895422,1,0
360,84,1895679,1,2
440,160,1895935,2,0,B|456:212,1,54.9999983608723,0|2
412,312,1896320,2,0,B|396:260,1,54.9999983608723,0|2
256,176,1896704,5,4
208,328,1896961,1,0
332,232,1897217,1,8
180,232,1897474,1,0
304,328,1897730,1,2
256,256,1897986,1,0
116,308,1898243,5,8
80,264,1898371,1,0
72,208,1898499,1,2
84,156,1898627,1,0
116,112,1898756,1,4
312,12,1899268,5,8
412,52,1899525,1,0
324,120,1899781,1,2
428,156,1900038,1,0
428,336,1900294,5,8
360,248,1900551,2,0,B|292:204|220:316|152:268,1,219.999993443489,4|0
80,184,1901320,1,8
188,160,1901576,1,0
192,104,1901704,1,8
196,48,1901833,1,8
316,48,1902089,5,8
320,104,1902217,1,8
324,160,1902345,1,0
340,212,1902474,1,8
376,256,1902602,1,8
424,280,1902730,1,0
480,288,1902858,1,4
256,132,1917730,5,0
316,192,1917986,1,0
256,252,1918243,1,8
196,192,1918499,1,0
256,92,1918756,5,2
360,272,1919012,1,0
152,272,1919268,1,4
80,232,1919525,6,0,B|93:151,1,82.9999969327451,0|2
56,47,1920038,2,0,B|16:120,2,82.9999969327451,0|8|0
136,32,1920807,1,2
208,68,1921063,1,0
352,100,1921320,6,0,B|388:112|432:92|432:92|420:140|436:176,1,165.99999386549,4|2
424,256,1922089,2,0,B|452:288|496:292,2,82.9999969327451,0|8|0
360,204,1922858,2,0,B|312:272,1,82.9999969327451,2|0
208,360,1923371,6,0,B|147:316|111:364|49:325,1,165.99999386549,4|2
60,240,1924140,2,0,B|108:240|132:208,1,82.9999969327451,0|8
148,88,1924653,2,0,B|152:132|193:153,1,82.9999969327451,0|2
212,232,1925166,2,0,B|180:308,1,82.9999969327451
256,336,1925679,1,0
332,308,1925935,6,0,B|299:231,1,82.9999969327451,0|0
312,148,1926448,1,8
404,60,1926704,1,0
376,180,1926961,1,2
328,68,1927217,1,0
436,132,1927474,1,4
136,180,1927986,5,2
108,60,1928243,1,0
200,140,1928499,1,8
76,132,1928756,1,0
184,68,1929012,1,2
136,180,1929268,1,0
176,296,1929525,6,0,B|340:296,1,165.99999386549,4|2
400,236,1930294,2,0,B|330:191,1,82.9999969327451,0|8
256,152,1930807,1,0
181,191,1931063,2,0,B|112:236,1,82.9999969327451,2|0
80,128,1931576,6,0,B|112:48|112:48|188:24,1,165.99999386549,4|2
256,100,1932345,1,0
324,24,1932602,2,0,B|400:48|400:48|432:128,1,165.99999386549,8|2
408,204,1933371,1,0
388,240,1933499,1,0
356,268,1933627,1,0
308,200,1933884,1,0
256,264,1934140,1,0
204,200,1934397,1,0
256,136,1934653,1,8
104,204,1934909,5,0
124,240,1935038,1,0
156,268,1935166,1,0
256,264,1935422,1,0
256,280,1935679,1,0
136,128,1950038,6,0,B|134:99|134:99,5,27.6666656442484
208,128,1950551,2,0,B|208:95|208:95,5,27.6666656442484
280,128,1951063,2,0,B|280:97|280:97,5,27.6666656442484
352,128,1951576,2,0,B|352:99|352:99,5,27.6666656442484
404,184,1952089,6,0,B|384:244|304:256|304:256|216:268,1,219.999993443489,4|8
104,280,1952858,1,0
128,328,1952986,2,0,B|188:328|228:364,1,109.999996721745,2|0
287,368,1953371,2,0,B|328:332|388:332,1,109.999996721745,2|8
356,228,1953884,6,0,B|384:184|356:124|356:124|384:68|356:16,1,219.999993443489,4|0
256,60,1954653,1,8
155,16,1954909,2,0,B|128:68|156:124|156:124|128:184|156:228,1,219.999993443489,2|0
256,184,1955679,1,8
448,128,1955935,6,0,B|468:208|416:288|348:296,1,219.999993443489,4|0
176,200,1956704,1,8
256,52,1956961,1,0
336,200,1957217,1,2
176,104,1957474,1,0
336,104,1957730,1,8
256,248,1957986,1,0
64,127,1958243,6,0,B|44:208|96:288|164:296,1,219.999993443489,4|8
208,196,1959012,1,2
256,168,1959140,1,0
304,196,1959268,1,2
388,80,1959525,1,0
256,20,1959781,1,8
124,80,1960038,1,2
76,204,1960294,5,4
84,336,1960551,2,0,B|112:288,1,54.9999983608723,2|0
160,244,1960807,1,10
256,152,1961063,2,0,B|256:208,1,54.9999983608723,2|0
256,272,1961320,1,2
428,336,1961576,2,0,B|400:288,1,54.9999983608723,2|0
352,244,1961833,1,10
256,332,1962089,1,0
160,244,1962345,5,2
216,244,1962474,1,0
272,232,1962602,1,0
320,204,1962730,1,0
344,156,1962858,1,8
348,100,1962986,1,0
328,48,1963115,1,0
284,16,1963243,1,0
228,16,1963371,5,2
184,48,1963499,1,0
164,100,1963627,1,0
168,156,1963756,1,0
192,204,1963884,1,8
240,232,1964012,1,0
296,244,1964140,1,0
352,244,1964268,1,0
408,236,1964397,5,4
408,124,1964653,1,0
256,148,1964909,1,8
316,44,1965166,1,2
196,44,1965422,1,0
108,208,1965679,5,2
256,312,1965935,1,8
404,208,1966192,1,4
256,192,1966448,12,4,1968499
76,64,1969012,5,8
180,104,1969268,1,0
140,208,1969525,2,0,B|112:260|56:272,2,109.999996721745,2|0|8
40,160,1970294,6,0,B|72:276|180:320,1,219.999993443489,4|0
256,192,1971063,1,8
332,64,1971320,2,0,B|440:108|472:224,1,219.999993443489,2|0
256,288,1972089,1,8
40,223,1972345,6,0,B|72:108|180:64,1,219.999993443489,4|0
200,172,1973115,2,0,B|312:172,2,109.999996721745,8|0|2
148,268,1973884,1,0
204,272,1974012,2,0,B|256:288|256:288|308:272,1,109.999996721745,2|0
364,268,1974397,1,2
190,203,1974653,6,0,B|116:168|116:64|192:28,1,219.999993443489,4|8
256,116,1975422,1,0
320,28,1975679,2,0,B|396:64|396:168|320:204,1,219.999993443489,4|8
256,292,1976448,1,0
168,360,1976704,6,0,B|204:284|308:284|344:360,2,219.999993443489,4|8|2
144,252,1977986,1,0
40,216,1978243,1,8
56,324,1978499,1,4
256,44,1979012,1,0
456,324,1979525,1,2
192,244,1980038,5,8
180,192,1980166,1,0
204,144,1980294,1,8
256,124,1980422,1,0
308,144,1980551,1,2
332,192,1980679,1,0
320,244,1980807,1,4
