osu file format v9

[General]
AudioFilename: Within Temptation - The Unforgiving.mp3
AudioLeadIn: 2000
PreviewTime: 172968
Countdown: 0
SampleSet: Soft
StackLeniency: 0.7
Mode: 0
LetterboxInBreaks: 1

[Editor]
DistanceSpacing: 0.9
BeatDivisor: 8
GridSize: 4

[Metadata]
Title:The Unforgiving
Artist:Within Temptation
Creator:Armin
Version:Shot In The Dark
Source:
Tags:Gonzvlo narakucrimson Roddie Vass_Bass ErufenRito Glass Card N'FoRcE force HakunoKaemi metal Why not me Shot in the Dark In the Middle of the Night Faster Fire and Ice Iron Where is the edge Sinead Lost Murder A Demon's Fate Stairway to the skies TU Marathon symphonic metal rock Sharon den Adel collab

[Difficulty]
HPDrainRate:6
CircleSize:4
OverallDifficulty:7
ApproachRate:8
SliderMultiplier:2
SliderTickRate:1

[Events]
//Background and Video events
0,0,"Within-Temptation.png"
Video,-300,"Mother Maiden_xvid_003.avi"
Video,34667,"Within Temptation-Shot In The _x264_001.avi"
//Break Periods
2,116273,123530
2,193254,209002
//Storyboard Layer 0 (Background)
//Storyboard Layer 1 (Fail)
//Storyboard Layer 2 (Pass)
//Storyboard Layer 3 (Foreground)
//Storyboard Sound Samples
//Background Colour Transformations
3,100,163,162,255

[TimingPoints]
2406,418.848167539267,4,2,0,100,1,0
15829,418.848167539267,4,2,0,100,1,0
34572,565.904267861353,4,1,0,100,1,0
47011,-100,4,2,1,100,0,0
95696,566.037735849057,4,2,1,100,1,0
97111,-100,4,1,0,80,0,1
97247,-100,4,1,0,82,0,1
97388,-100,4,1,0,84,0,1
97530,-100,4,1,0,86,0,1
97671,-100,4,1,0,90,0,1
97818,-100,4,1,0,93,0,0
97960,-100,4,1,0,96,0,1
98096,-100,4,2,1,100,0,1
106020,-100,4,1,1,80,0,1
106233,-100,4,1,1,83,0,1
106374,-100,4,1,1,86,0,1
106516,-100,4,1,1,89,0,1
106657,-100,4,1,1,92,0,1
106799,-100,4,1,1,95,0,1
106940,-100,4,2,1,98,0,1
116073,-100,4,2,1,98,0,0
124134,-100,4,1,0,100,0,0
124983,-100,4,2,1,100,0,0
160926,-100,4,1,0,100,0,0
161209,-100,4,2,1,100,0,0
165454,-100,4,1,0,100,0,0
165737,-100,4,2,1,100,0,0
169983,-100,4,1,0,100,0,0
170266,-100,4,2,0,87,0,0
172671,-100,4,1,0,100,0,0
173101,-100,4,1,0,81,0,1
173237,-100,4,1,0,84,0,1
173379,-100,4,1,0,87,0,1
173520,-100,4,1,0,90,0,1
174658,-100,4,2,0,100,0,0
174941,-100,4,2,1,100,0,1
182436,-100,4,2,0,100,0,1
183002,-100,4,1,0,100,0,1
183714,-100,4,2,0,100,0,0
183997,-100,4,2,1,100,0,1
191563,-100,4,1,0,80,0,1
191775,-100,4,1,0,83,0,1
191917,-100,4,1,0,86,0,1
192058,-100,4,1,0,89,0,1
192200,-100,4,1,0,91,0,1
192341,-100,4,1,0,93,0,1
192483,-100,4,1,0,95,0,1
192624,-100,4,1,0,97,0,1
192766,-100,4,1,0,98,0,1
192907,-100,4,1,0,99,0,1
193054,-100,4,2,0,100,0,0
209888,-100,4,1,0,63,0,0
211311,-100,4,2,0,5,0,0
214708,-100,4,2,0,30,0,0
215549,-100,4,1,0,15,0,0
215686,566.037735849057,4,1,0,15,1,0
215761,-100,4,2,0,5,0,0
217105,-100,4,2,0,31,0,0
217884,-100,4,1,0,15,0,0
218450,-100,4,2,0,30,0,0
218662,-100,4,1,0,15,0,0
219299,-100,4,2,0,29,0,0
219511,-100,4,2,0,36,0,0
220148,-100,4,1,0,16,0,0
220289,-100,4,2,0,16,0,0
220997,-100,4,1,0,16,0,0
221138,-100,4,2,0,16,0,0
222341,-100,4,1,0,16,0,0
222907,-100,4,2,0,16,0,0
223190,-100,4,1,0,16,0,0
223473,-100,4,2,0,16,0,0
224605,-100,4,1,0,16,0,0
225171,-100,4,2,0,16,0,0
225454,-100,4,1,0,16,0,0
226091,-100,4,2,0,16,0,0
226870,-100,4,1,0,16,0,0
227436,-100,4,2,0,16,0,0
227719,-100,4,1,0,16,0,0
228072,-100,4,2,0,16,0,0
229134,-100,4,1,0,16,0,0
229770,-100,4,2,0,16,0,0
229983,-100,4,1,0,16,0,0
230195,-100,4,2,0,16,0,0
231469,-100,4,1,0,16,0,0
231610,-100,4,2,0,16,0,0
232318,-100,4,1,0,16,0,0
232601,-100,4,2,0,33,0,0
233167,-100,4,2,0,21,0,0
233733,-100,4,1,0,21,0,0
243355,-100,4,1,0,41,0,0
246256,-100,4,1,0,26,0,0
247954,-100,4,1,0,39,0,0
250510,-100,4,2,0,40,0,0
250651,-100,4,2,0,50,0,0
250793,-100,4,2,0,60,0,0
251912,-100,4,2,1,100,0,1
267761,-100,4,2,1,100,0,0
270025,-100,4,2,1,100,0,1
270171,-76.9230769230769,4,2,1,83,0,1
285737,-76.9230769230769,4,1,0,36,0,1
286162,-76.9230769230769,4,1,0,45,0,1
286445,-76.9230769230769,4,1,0,52,0,1
286728,-76.9230769230769,4,1,0,60,0,1
287011,-76.9230769230769,4,1,0,68,0,1
287294,-76.9230769230769,4,1,0,76,0,1
287577,-76.9230769230769,4,1,1,83,0,1
287855,-76.9230769230769,4,2,1,100,0,0
288138,-76.9230769230769,4,2,1,100,0,1
296068,-76.9230769230769,4,1,1,54,0,1
296351,-76.9230769230769,4,1,1,60,0,1
296634,-76.9230769230769,4,1,1,71,0,1
296923,-76.9230769230769,4,2,1,93,0,0
297195,-76.9230769230769,4,2,1,100,0,1
306252,-76.9230769230769,4,2,1,100,0,0
324082,-76.9230769230769,4,2,1,100,0,0
324152,-76.9230769230769,4,2,1,65,0,0
337093,300,4,2,1,40,1,0
346663,-100,4,1,0,70,0,0
346851,-100,4,2,1,70,0,0
366193,-100,4,2,1,70,0,0
384870,-100,4,2,0,70,0,0
384943,-100,4,1,0,70,0,0
385138,-100,4,2,1,70,0,0
388663,-100,4,1,0,70,0,0
389001,-100,4,2,1,70,0,0
399493,-100,4,1,0,70,0,0
399651,-100,4,2,1,70,0,0
408343,-100,4,1,0,70,0,0
408943,-100,4,1,0,70,0,0
409093,-100,4,1,0,70,0,0
409168,-100,4,2,1,70,0,0
416593,-100,4,1,0,70,0,0
416670,-100,4,2,0,70,0,0
416743,-100,4,1,0,50,0,0
416893,-100,4,1,0,80,0,0
416968,-100,4,2,0,70,0,0
417043,-100,4,1,0,50,0,0
417193,-100,4,1,0,90,0,0
417270,-100,4,2,0,70,0,0
417493,-100,4,1,0,100,0,0
417568,-100,4,2,0,70,0,0
418693,-100,4,2,1,70,0,1
428226,-100,4,1,0,70,0,1
428451,-100,4,2,1,70,0,1
436634,-100,4,2,0,70,0,1
436784,-100,4,1,0,70,0,1
437830,-100,4,1,0,70,0,0
437893,-100,4,1,0,70,0,1
442693,-100,4,1,0,70,0,0
452001,-100,4,2,1,70,0,0
461293,-100,4,1,0,70,0,0
461976,-100,4,2,1,70,0,0
470293,-100,4,1,0,70,0,0
471576,-100,4,2,0,70,0,0
471726,-100,4,1,0,70,0,0
471876,-100,4,2,1,70,0,0
475693,-100,4,1,0,70,0,0
475926,-100,4,1,0,70,0,0
476526,-100,4,1,0,70,0,0
476676,-100,4,2,1,70,0,0
479893,-100,4,1,0,70,0,0
481176,-100,4,2,0,70,0,0
481326,-100,4,1,0,70,0,0
481476,-100,4,2,1,70,0,0
490693,-100,4,1,0,70,0,1
490851,-100,4,2,1,70,0,1
499693,-100,4,1,0,60,0,1
499993,-100,4,1,0,65,0,1
500143,-100,4,1,0,70,0,0
500293,-100,4,1,0,70,0,1
501276,-100,4,2,0,70,0,1
501426,-100,4,1,0,70,0,1
501876,-100,4,2,0,70,0,1
502326,-100,4,1,0,70,0,1
502776,-100,4,2,0,70,0,1
502926,-100,4,1,0,70,0,1
509293,-100,4,1,0,60,0,1
509593,-100,4,1,0,65,0,1
514693,-100,4,1,0,70,0,0
514709,-100,4,1,0,70,0,0
563151,-83.3333333333333,4,1,0,70,0,0
574251,-76.9230769230769,4,1,0,70,0,0
581893,-76.9230769230769,4,1,0,70,0,1
591193,-76.9230769230769,4,1,0,70,0,0
591493,-76.9230769230769,4,1,0,70,0,1
601093,-76.9230769230769,4,1,0,70,0,1
603726,-83.3333333333333,4,1,0,70,0,1
605893,-83.3333333333333,4,1,0,70,0,0
634993,-83.3333333333333,4,1,0,20,0,0
648736,500,4,2,1,100,1,0
710611,-100,4,1,0,63,0,0
710781,-100,4,1,0,65,0,0
710857,-100,4,1,0,70,0,0
710982,-100,4,1,0,76,0,0
711107,-100,4,1,0,79,0,0
711232,-100,4,1,0,85,0,0
711357,-100,4,1,0,91,0,0
711482,-100,4,1,0,94,0,0
711781,-100,4,1,0,100,0,0
712736,-76.9230769230769,4,1,0,100,0,1
712798,-76.9230769230769,4,2,1,100,0,1
720498,-76.9230769230769,4,1,0,100,0,0
720736,-76.9230769230769,4,1,0,100,0,1
721986,-76.9230769230769,4,2,1,100,0,1
727986,-76.9230769230769,4,1,0,80,0,1
728111,-76.9230769230769,4,1,0,83,0,1
728236,-76.9230769230769,4,1,0,86,0,1
728361,-76.9230769230769,4,1,0,89,0,1
728486,-76.9230769230769,4,1,0,92,0,1
728623,-76.9230769230769,4,1,0,95,0,0
728736,-76.9230769230769,4,1,0,98,0,1
744736,-100,4,1,0,100,0,0
751234,-100,4,2,1,100,0,0
752611,-100,4,1,0,100,0,0
752861,-100,4,2,1,100,0,0
759611,-100,4,1,0,100,0,0
759861,-100,4,2,0,100,0,0
760173,-100,4,1,0,100,0,0
760361,-100,4,2,0,100,0,0
760673,-100,4,1,0,100,0,0
760861,-100,4,2,1,100,0,0
784548,-100,4,2,0,100,0,0
785111,-100,4,1,0,100,0,0
785361,-83.3333333333333,4,1,0,100,0,0
785548,-83.3333333333333,4,2,0,100,0,0
786111,-83.3333333333333,4,1,0,100,0,0
786361,-71.4285714285714,4,1,0,100,0,0
786548,-71.4285714285714,4,2,0,100,0,0
787111,-62.5,4,1,0,100,0,0
787548,-62.5,4,2,0,100,0,0
788111,-55.5555555555556,4,1,0,100,0,0
789361,-50,4,1,0,100,0,0
789548,-50,4,2,0,100,0,0
790111,-76.9230769230769,4,1,0,100,0,0
790736,-76.9230769230769,4,1,0,80,0,0
790986,-76.9230769230769,4,1,0,85,0,0
791236,-76.9230769230769,4,1,0,90,0,0
791486,-76.9230769230769,4,1,0,95,0,0
791736,-76.9230769230769,4,1,0,100,0,0
792736,-76.9230769230769,4,1,0,100,0,1
800486,-76.9230769230769,4,1,0,100,0,0
800736,-76.9230769230769,4,1,0,100,0,1
808611,-76.9230769230769,4,1,0,100,0,0
808736,-76.9230769230769,4,1,0,100,0,1
824611,-76.9230769230769,4,1,0,100,0,0
824736,-76.9230769230769,4,1,0,100,0,1
824861,-76.9230769230769,4,1,0,100,0,0
852361,-76.9230769230769,4,2,0,100,0,0
858736,-76.9230769230769,4,1,0,100,0,0
860736,-66.6666666666667,4,1,0,100,0,1
868486,-66.6666666666667,4,1,0,100,0,0
868736,-66.6666666666667,4,1,0,100,0,1
872361,-66.6666666666667,4,1,0,100,0,1
873861,-66.6666666666667,4,1,0,100,0,1
884486,-66.6666666666667,4,1,0,100,0,0
884736,-66.6666666666667,4,1,0,100,0,1
886236,-66.6666666666667,4,1,0,100,0,0
912957,856.959223023638,4,2,0,21,1,0
941887,-117.647058823529,4,2,0,21,0,0
972298,-100,4,2,0,21,0,0
974654,-100,4,2,0,21,0,0
991894,-117.647058823529,4,2,0,21,0,0
992858,-100,4,2,0,21,0,0
1015131,-90.9090909090909,4,2,0,21,0,0
1015452,-90.9090909090909,4,2,0,5,0,0
1017701,-100,4,2,0,15,0,0
1022649,428.571428571429,4,2,1,78,1,0
1030031,-90.9090909090909,4,2,0,79,0,0
1031103,-100,4,2,1,79,0,0
1049960,-100,4,1,0,60,0,0
1050174,-100,4,2,0,100,0,0
1051674,-100,4,1,0,60,0,0
1051889,-100,4,2,0,100,0,0
1052103,-100,4,1,0,60,0,0
1052317,-100,4,2,0,100,0,0
1052531,-100,4,1,0,60,0,0
1052746,-100,4,2,0,100,0,0
1052960,-100,4,1,0,60,0,0
1053174,-100,4,2,0,100,0,0
1053389,-100,4,1,0,80,0,0
1053603,-100,4,2,0,100,0,0
1054246,-100,4,1,0,80,0,0
1054460,-100,4,2,1,81,0,0
1067103,-100,4,1,0,80,0,0
1067317,-100,4,2,1,100,0,0
1069674,-100,4,1,0,85,0,0
1069996,-100,4,2,1,85,0,0
1070531,-100,4,1,0,68,0,0
1070746,-100,4,2,0,100,0,0
1071389,-100,4,1,0,80,0,0
1071603,-100,4,2,0,100,0,0
1072246,-100,4,1,0,60,0,0
1072460,-100,4,2,0,100,0,0
1073103,-100,4,1,0,80,0,0
1073317,-100,4,2,0,100,0,0
1073960,-100,4,1,0,60,0,0
1074174,-100,4,2,0,100,0,0
1074389,-100,4,1,0,60,0,0
1074603,-100,4,2,0,100,0,0
1074817,-100,4,1,0,80,0,0
1075031,-100,4,2,0,100,0,0
1075674,-100,4,1,0,60,0,0
1076317,-100,4,2,0,100,0,0
1076531,-100,4,1,0,80,0,0
1076746,-100,4,2,0,100,0,0
1077389,-100,4,2,1,81,0,0
1081246,-90.9090909090909,4,2,1,82,0,0
1082317,-100,4,2,1,80,0,0
1083281,-100,4,2,1,80,0,0
1093460,-90.9090909090909,4,2,1,80,0,0
1094317,-100,4,2,1,80,0,0
1105674,-100,4,2,1,80,0,0
1118531,-100,4,1,0,80,0,0
1118746,-100,4,2,1,80,0,0
1122014,-100,4,1,0,80,0,0
1122174,-100,4,2,1,80,0,0
1128817,-133.333333333333,4,2,1,80,0,0
1135674,-100,4,2,0,22,0,0
1137505,444.444444444444,4,2,0,22,1,0
1139282,461.538461538462,4,2,0,16,1,0
1140205,571.428571428571,4,2,0,19,1,0
1141347,571.428571428571,4,2,0,19,1,0
1150313,454.545454545455,4,2,0,100,1,0
1153040,-100,4,2,1,100,0,0
1226981,-72.992700729927,4,2,1,100,0,0
1241222,-68.0272108843537,4,2,1,100,0,1
1284868,-105.042016806723,4,1,0,100,0,0
1291224,-80.7754442649435,4,1,0,100,0,0
1291299,-80.7754442649435,4,2,1,100,0,0
1291375,-80.7754442649435,4,1,0,100,0,0
1291451,-80.7754442649435,4,2,1,100,0,0
1291527,-80.7754442649435,4,1,0,100,0,0
1291602,-80.7754442649435,4,2,1,100,0,0
1291678,-74.6268656716418,4,1,0,100,0,0
1292133,-72.7272727272727,4,2,1,100,0,0
1328494,-72.992700729927,4,2,1,100,0,1
1342147,-72.992700729927,4,2,1,100,0,1
1342737,-72.992700729927,4,2,1,100,0,0
1343040,-72.992700729927,4,2,1,100,0,1
1345025,-63.2911392405063,4,2,1,100,0,1
1345935,-72.992700729927,4,2,1,100,0,1
1357585,-72.992700729927,4,2,1,100,0,0
1372139,-72.992700729927,4,2,1,100,0,0
1408427,-86.2068965517241,4,2,1,100,0,0
1409571,-87.5656742556918,4,2,1,100,0,0
1412071,-87.5656742556918,4,1,0,100,0,0
1412222,-87.5656742556918,4,2,1,100,0,0
1415767,-72.992700729927,4,2,1,100,0,1
1430009,-72.992700729927,4,2,1,100,0,0
1430312,-72.992700729927,4,2,1,100,0,1
1430632,-63.2911392405063,4,2,1,100,0,1
1444706,-63.2911392405063,4,2,1,100,0,0
1444858,-63.2911392405063,4,2,1,100,0,1
1473949,-63.2911392405063,4,2,1,100,0,0
1491562,389.61038961039,4,1,0,80,1,0
1506367,-200,4,1,0,80,0,0
1507146,-100,4,1,0,80,0,0
1550782,-100,4,1,0,80,0,1
1575717,-100,4,1,0,80,0,0
1584873,-100,4,2,0,70,0,0
1587511,-100,4,1,0,80,0,0
1589938,-200,4,1,0,80,0,0
1590523,-100,4,1,0,80,0,0
1619354,-100,4,1,0,80,0,1
1644289,-100,4,1,0,80,0,0
1662990,-100,4,2,0,40,0,0
1678575,-100,4,2,0,70,0,0
1688315,-100,4,1,0,40,0,0
1688510,-100,4,1,0,50,0,0
1688704,-100,4,1,0,60,0,0
1688899,-100,4,1,0,70,0,0
1689094,-100,4,1,0,80,0,0
1689289,-100,4,1,0,80,0,0
1689484,-100,4,1,0,80,0,0
1691042,-100,4,1,0,80,0,1
1714419,-100,4,2,0,40,0,0
1730551,512.820512820513,4,1,0,100,1,0
1747667,-181.818181818182,4,2,0,35,0,0
1763137,-120.481927710843,4,2,1,70,0,0
1795191,-120.481927710843,4,2,1,90,0,0
1796192,-90.9090909090909,4,2,1,100,0,1
1824909,-100,4,2,1,100,0,0
1830166,-119.760479041916,4,2,1,100,0,0
1874140,-90.9090909090909,4,2,1,100,0,1
1902858,-100,4,2,1,100,0,0
1917477,-120.481927710843,4,2,1,100,0,0
1950551,-120.481927710843,4,2,1,70,0,0
1951063,-120.481927710843,4,2,1,60,0,0
1952088,-90.9090909090909,4,2,1,100,0,1
1967986,-90.9090909090909,4,2,1,100,0,0
1968499,-90.9090909090909,4,2,1,100,0,1
1980807,-90.9090909090909,4,2,1,100,0,0
1994397,428.571428571429,3,2,0,30,1,0
1995484,-100,3,2,0,48,0,0
1995913,-100,3,2,0,30,0,0
2000627,-100,3,2,0,51,0,0
2001055,-100,3,2,0,30,0,0
2045825,-100,3,2,0,40,0,0
2070163,-100,3,1,0,60,0,0
2070323,-100,3,2,0,60,0,0
2071539,-100,3,1,0,50,0,0
2072825,-100,3,1,0,60,0,0
2073055,-100,3,2,0,60,0,0
2073913,-100,3,2,1,60,0,0
2130682,-100,3,2,1,60,0,1
2141198,-87.719298245614,3,2,1,60,0,1
2142484,-100,3,2,1,60,0,1
2153825,-100,3,2,1,60,0,0
2189734,-87.719298245614,3,2,1,60,0,0
2197448,-100,3,2,1,60,0,0
2245012,-100,3,1,0,60,0,0
2246397,-100,3,1,0,60,0,1
2246619,-100,3,2,1,60,0,1
2269111,-100,3,2,1,60,0,0
2269539,-100,3,2,1,60,0,1
2290111,-100,3,2,1,60,0,0
2308992,447.761194029851,4,2,0,29,1,0
2316044,-100,4,2,1,51,0,0
2336305,-100,4,1,0,41,0,0
2337318,-100,4,2,1,51,0,0
2350969,-100,4,1,0,41,0,0
2351865,-133.333333333333,4,2,1,60,0,0
2365521,-133.333333333333,4,1,0,20,0,0
2365745,-133.333333333333,4,1,0,30,0,0
2365969,-100,4,1,0,50,0,0
2366305,-100,4,1,2,60,0,1
2379408,-100,4,1,2,70,0,1
2381087,-100,4,1,2,60,0,1
2394962,-100,4,1,2,60,0,0
2402350,-100,4,2,1,55,0,0
2415223,-100,4,1,0,50,0,0
2416566,-100,4,2,1,50,0,0
2429775,-100,4,1,0,50,0,0
2430671,-133.333333333333,4,2,1,50,0,0
2444327,-133.333333333333,4,2,1,40,0,0
2444551,-133.333333333333,4,2,1,50,0,0
2445111,-100,4,1,2,60,0,1
2470186,-100,4,1,0,65,0,0
2488096,-100,4,1,0,65,0,1
2488214,-100,4,1,0,65,0,0
2502424,-100,4,1,0,65,0,1
2502542,-100,4,1,0,65,0,0
2526162,-100,4,1,0,40,0,0
2526721,-100,4,1,0,50,0,0
2527169,-100,4,1,0,60,0,0
2527499,-100,4,1,2,65,0,1
2541380,-100,4,1,2,65,0,0
2541827,-100,4,1,2,65,0,1
2553021,-100,4,1,2,65,0,1
2555596,-100,4,1,2,5,0,1
2556156,-100,4,1,2,56,0,0
2565180,447.761194029851,4,1,0,100,1,0
2579508,-100,4,2,0,100,0,0
2586112,-100,4,1,0,69,0,0
2643985,-100,4,1,0,69,0,1
2658314,-100,4,1,0,69,0,1
2671747,-100,4,1,0,69,0,1
2672642,-100,4,1,0,69,0,0
2701539,-90.9090909090909,4,1,0,69,0,0
2715643,-100,4,1,0,69,0,0
2729956,-100,4,1,0,69,0,1
2758612,-76.9230769230769,4,1,0,69,0,0
2761875,-66.6666666666667,4,1,0,69,0,0
2801605,-133.333333333333,4,1,0,60,0,0
2815926,-100,4,1,0,60,0,0
2844582,-100,4,1,0,60,0,1
2855329,-100,4,1,0,60,0,0
2858911,-100,4,1,0,60,0,1
2873239,-100,4,1,0,60,0,0
2889304,-100,4,2,0,5,0,0
2895844,370.37037037037,4,2,0,100,1,0
2901399,-166.666666666667,4,2,0,50,0,0
2924269,-200,4,2,0,50,0,0
2940108,-200,4,2,1,50,0,0
2952145,-100,4,2,1,75,0,0
2960479,-133.333333333333,4,2,1,75,0,0
2962331,-100,4,2,1,75,0,0
2976220,-100,4,2,1,75,0,0
3016775,-133.333333333333,4,2,1,75,0,0
3018627,-100,4,2,1,75,0,0
3057232,-151.515151515152,4,1,0,60,0,0
3058719,-100,4,2,0,75,0,0
3059182,-100,4,2,1,75,0,0
3082562,-100,4,2,0,10,0,0
3086775,-100,4,2,0,75,0,0
3103066,-151.515151515152,4,1,0,60,0,0
3105571,-151.515151515152,4,2,0,75,0,0
3106126,-151.515151515152,4,1,0,60,0,0
3108066,-151.515151515152,4,2,0,75,0,0
3108437,-151.515151515152,4,1,0,60,0,0
3108626,-151.515151515152,4,2,0,75,0,0
3109177,-151.515151515152,4,1,0,60,0,0
3111029,-151.515151515152,4,2,0,75,0,0
3111400,-151.515151515152,4,1,0,60,0,0
3111589,-151.515151515152,4,2,0,75,0,0
3112140,-151.515151515152,4,1,0,60,0,0
3117978,-100,4,2,1,75,0,0
3126214,-100,4,2,1,75,0,0
3165474,-100,4,2,1,75,0,1
3176960,-100,4,2,1,75,0,0
3177325,-100,4,2,1,75,0,1
3177695,-100,4,2,1,75,0,0

[Colours]
Combo1 : 4,38,198
Combo2 : 185,0,0
Combo3 : 34,134,47
Combo4 : 253,222,2
SliderBorder : 0,0,0

[HitObjects]
40,116,47304,5,2
100,44,47587,1,0
172,104,47870,2,0,B|200:174|316:184|337:95|337:95,1,200,0|2
412,44,48719,1,0
472,116,49002,1,0
428,304,49568,5,2
354,355,49851,1,0
342,265,50134,1,0
168,265,50700,1,2
156,355,50983,1,0
82,304,51266,1,0
212,171,51832,6,0,B|228:191|256:195|256:195|284:191|300:171,1,100,2|0
333,86,52397,2,0,B|312:44|256:28|256:28|204:40|177:87,1,200,0|0
256,112,53246,1,2
255,112,53529,1,0
340,252,54095,2,0,B|360:348|360:348,1,100,2|0
340,252,54661,2,0,B|312:322|196:332|175:243|175:243,1,200,0|2
151,349,55510,2,0,B|152:348|180:252,1,100,0|0
256,112,56359,5,2
300,40,56642,1,0
212,40,56925,1,0
184,129,57208,2,0,B|190:177|240:200|272:200|324:184|329:130|329:130,1,200,0|2
348,227,58057,2,0,B|314:260|257:270|201:259|164:228,1,200,0|0
104,288,58905,5,2
256,368,59471,1,0
408,288,60037,1,2
408,288,60320,1,0
256,200,60886,5,0
336,160,61169,2,0,B|308:95|199:74|172:168|172:168,1,200,2|0
300,28,62301,1,2
212,32,62584,1,0
212,32,63150,1,0
300,32,63433,1,2
342,197,63999,6,0,B|325:162|279:159|255:183|255:183|230:158|184:162|169:197|169:197,1,200,0|2
168,280,64847,2,0,B|185:315|232:318|256:294|256:294|280:318|326:315|344:280|344:280,1,200,0|2
432,272,65696,5,0
400,356,65979,1,0
336,188,66545,1,2
256,144,66828,1,8
176,188,67111,1,0
112,28,67677,5,2
84,112,67960,1,8
20,44,68243,1,0
216,88,68809,2,0,B|229:52|285:46|295:91|295:91,1,100,2|8
256,164,69375,1,0
432,112,69941,5,2
492,48,70223,1,8
400,28,70506,1,0
332,196,71072,5,2
256,244,71355,1,8
180,196,71638,1,0
336,284,72204,2,0,B|328:340|376:372|376:372,1,100,2|8
336,284,72770,2,0,B|308:354|192:364|171:275|171:275,1,200,0|2
137,371,73619,2,0,B|136:372|185:344|175:284,1,100,8|0
156,108,74468,5,2
212,36,74751,1,8
300,36,75034,1,0
356,108,75317,1,0
256,124,75883,5,8
256,124,76165,1,0
384,332,76731,1,0
384,332,77014,1,8
256,220,77580,5,0
128,332,78146,1,8
128,332,78429,1,0
256,308,78995,5,0
256,308,79278,1,8
300,232,79561,1,0
256,220,79702,1,0
212,232,79844,1,0
112,92,80410,1,8
176,32,80693,2,0,B|202:104|314:115|334:26|334:26,1,200,0|0
400,92,81542,1,8
332,248,82107,2,0,B|307:287|271:282|271:282|255:302|255:302|239:282|239:282|203:290|178:248,1,200,0|8
104,300,82956,5,0
168,364,83239,1,2
256,380,83522,1,0
344,364,83805,1,8
408,300,84088,1,0
336,240,84371,6,4,B|310:312|198:323|178:234|178:234,1,200,2|8
156,152,85220,2,0,B|396:152|396:152,1,200,2|0
336,64,86069,2,0,B|310:-8|198:-19|178:70|178:70,1,200,8|2
48,184,87201,6,0,B|8:284|8:284,1,100,8|0
100,264,87767,2,0,B|124:360|124:360,1,100,2|0
188,300,88332,2,0,B|276:360|276:360,1,100,8|0
316,280,88898,5,2
376,344,89464,1,8
376,344,89747,1,0
408,260,90313,1,0
408,260,90596,1,8
480,316,91162,1,2
464,200,91728,6,0,B|504:100|504:100,1,100,8|0
412,120,92294,2,0,B|388:24|388:24,1,100,2|0
324,84,92860,2,0,B|236:24|236:24,1,100,8|0
196,104,93426,1,2
256,192,93567,12,0,95696
448,352,96262,5,2
376,296,96545,1,0
304,352,96828,1,2
240,288,97111,1,0
200,272,97252,1,0
184,232,97394,1,0
200,192,97535,1,0
240,176,97677,1,0
280,192,97818,1,0
296,232,97960,5,4
376,200,98243,2,0,B|488:200|488:200,1,100,2|8
512,120,98809,2,0,B|512:16|512:16,1,100,0|8
432,64,99375,5,2
360,8,99658,1,8
310,88,99941,2,0,B|340:125|338:201|254:252|176:198|152:135|204:82|204:82,1,300,2|8
152,8,101073,1,2
80,64,101356,1,8
16,128,101639,6,0,B|16:240|16:240,1,100,2|8
96,272,102205,2,0,B|160:220|260:296|192:368|192:368,1,200,2|0
288,384,103054,2,0,B|320:352|320:352|400:352|400:352,1,100,8|0
447,299,103620,1,10
363,264,103903,1,0
305,199,104186,2,0,B|287:169|287:138|318:107|318:107|349:76|349:30|287:15|271:45|256:61|256:61|241:45|225:15|163:30|163:76|194:107|194:107|225:138|225:169|208:199,1,500,8|2
112,208,105884,5,0
40,160,106167,1,0
24,200,106309,1,0
32,248,106450,1,0
56,280,106592,1,0
96,296,106733,1,0
144,292,106875,1,0
184,272,107016,6,0,B|296:272|296:272,1,100,4|0
328,352,107582,2,0,B|216:352|216:352,1,100,8|0
376,272,108148,2,0,B|456:352|456:352,1,100,2|0
488,264,108714,2,0,B|408:184|408:184,1,100,8|0
328,196,109280,1,2
256,144,109563,1,0
184,196,109846,1,8
160,108,110129,6,0,B|216:12|216:12,1,100,0|2
301,25,110695,2,0,B|296:16|352:112,1,100,0|8
256,144,111262,2,0,B|256:352|256:352,1,200,2|0
344,368,112111,2,0,B|440:296|440:296,1,100,8|0
168,368,112677,2,0,B|72:296|72:296,1,100,2|0
177,242,113243,6,0,B|202:312|316:323|340:236|340:236,1,200,8|2
256,200,114092,1,0
320,136,114375,6,0,B|336:96|376:72|424:96|424:96,2,100,8|0|2
256,72,115224,1,0
192,136,115507,2,0,B|176:96|136:70|88:96|88:96,2,100,8|8|4
172,64,124280,5,0
256,36,124563,1,0
340,64,124846,1,0
256,224,125412,1,2
256,136,125695,1,8
332,184,125979,6,0,B|404:210|415:322|326:342|326:342,1,200,0|2
256,376,126828,1,8
180,340,127111,2,0,B|108:314|97:202|186:182|186:182,1,200,0|2
256,136,127960,1,8
256,224,128243,1,0
380,84,128809,6,0,B|472:28,1,100,2|8
476,120,129375,2,0,B|368:184|368:184|368:260,1,200,0|0
456,296,130224,1,8
384,348,130507,1,0
128,348,131073,5,2
56,296,131356,1,8
144,258,131639,2,0,B|144:184|144:184|36:120,1,200,0|0
46,32,132488,2,0,B|132:84,1,100,8|0
256,196,133337,5,2
300,124,133620,1,8
212,124,133903,1,0
184,213,134186,2,0,B|190:261|240:284|272:284|324:268|329:214|329:214,1,200,0|8
256,196,135035,1,0
412,284,135601,5,0
412,284,135884,1,8
256,372,136450,1,0
100,284,137016,1,8
100,284,137299,1,0
28,229,137582,2,0,B|108:40|108:40,1,200,0|8
484,163,138714,2,0,B|404:352|404:352,1,200,0|8
316,348,139563,5,0
196,44,140412,1,8
256,196,140979,1,0
352,96,141545,6,0,B|365:60|421:54|431:99|431:99,1,100,8|0
296,260,142111,2,0,B|283:296|227:302|217:257|217:257,1,100,0|0
84,96,142677,2,0,B|97:60|153:54|163:99|163:99,1,100,8|0
336,176,143526,5,0
256,132,143809,1,8
176,176,144092,1,0
80,328,144658,5,0
148,268,144941,2,0,B|216:360|216:360,1,100,8|0
432,328,145790,1,0
364,268,146073,2,0,B|296:360|296:360,1,100,8|0
260,182,146922,1,0
256,264,147205,1,8
260,180,147488,1,0
80,56,148054,5,0
148,116,148337,2,0,B|216:24|216:24,1,100,8|0
432,56,149186,1,0
364,116,149469,2,0,B|296:24|296:24,1,100,8|0
444,204,150318,5,0
420,292,150601,1,8
344,340,150884,1,0
168,340,151450,1,0
92,292,151733,1,8
68,204,152016,1,0
256,216,152865,5,8
256,216,153148,1,0
360,92,153714,5,0
300,24,153997,1,8
212,24,154280,1,0
152,92,154563,1,0
211,267,155129,2,0,B|227:291|305:301|313:244|313:244,1,100,8|0
256,188,155695,1,0
165,339,156262,2,0,B|213:380|313:386|352:337|352:337,1,200,8|0
256,188,157394,1,8
200,128,157677,2,0,B|170:91|172:15|256:-36|334:18|358:81|306:134|306:134,1,300,0|8
439,58,159092,5,0
439,58,159658,5,8
420,149,159941,1,0
348,198,160224,1,8
256,192,160507,1,0
163,185,160790,1,8
91,234,161073,1,0
72,325,161356,1,4
256,348,162205,5,0
256,192,162771,5,0
192,132,163054,1,8
212,92,163195,1,0
256,76,163337,1,0
300,92,163479,1,0
320,132,163620,1,0
72,58,164186,5,8
91,149,164469,1,0
163,198,164752,1,8
256,192,165035,1,0
348,185,165318,1,8
420,234,165601,1,0
439,325,165884,1,8
184,304,166733,6,0,B|190:352|240:375|272:375|324:359|329:305|329:305,1,200
256,256,167582,1,8
256,168,167865,1,0
72,120,168714,5,8
128,48,168997,1,0
212,16,169280,1,8
300,16,169563,1,0
384,48,169846,1,8
440,120,170129,1,0
256,192,170412,12,0,172677
36,64,173101,5,0
36,64,173243,1,0
36,64,173384,1,0
36,64,173526,1,0
96,132,173809,1,0
168,80,174092,1,0
212,64,174233,1,0
252,80,174375,1,0
264,124,174516,1,0
288,160,174658,1,0
332,168,174799,1,0
372,148,174941,5,4
428,76,175224,2,0,B|496:164|496:164,1,100,0|8
433,225,175790,2,0,B|404:326|404:326,1,100,0|2
320,292,176356,1,0
272,368,176639,1,8
196,320,176922,2,0,B|160:364|88:360|40:304|80:244|80:244,1,200
112,168,177771,2,0,B|108:104|44:88|44:88,1,100,8|0
128,32,178337,6,0,B|236:32|236:32,1,100,2|0
272,112,178903,1,8
356,80,179186,2,0,B|396:40|472:52|508:132|436:180|436:180,1,200
384,232,180035,2,0,B|340:276|372:332|372:332,1,100,8|0
284,360,180601,2,0,B|164:360,1,100,2|0
124,300,181167,2,0,B|66:343|-4:276|33:216|72:200|72:200|105:183|173:149|86:10|12:108|12:108,1,400,8|8
4,16,182582,5,0
92,8,182865,1,2
168,56,183148,1,0
208,76,183290,1,0
232,112,183431,1,0
256,152,183573,1,0
280,112,183714,1,0
304,76,183856,1,0
344,56,183997,1,4
420,8,184280,1,0
508,16,184563,1,8
484,102,184846,6,0,B|424:92|391:141|391:141,1,100,0|2
369,222,185412,2,0,B|439:321|439:321,1,100,0|8
342,362,185979,2,0,B|316:322|256:308|200:320|168:364,1,200,2|0
85,303,186828,2,0,B|73:321|143:222,1,100,8|0
117,136,187394,2,0,B|121:141|88:92|28:102,1,100,2|0
124,32,187960,5,8
220,104,188243,2,0,B|199:79|201:28|257:-5|309:30|325:72|290:108|290:108,1,200,2|0
388,32,189092,1,8
460,100,189375,5,0
392,172,189658,1,2
468,236,189941,1,0
398,303,190224,2,0,B|383:345|327:359|298:317|327:288|312:232|270:246|256:352|256:352|241:246|199:232|185:288|213:317|185:359|114:345|114:303,1,500,8|0
68,308,191780,5,0
26,288,191922,1,0
16,245,192063,1,0
40,207,192205,1,0
81,189,192346,1,0
110,154,192488,1,0
125,114,192629,1,0
104,73,192771,1,0
62,54,192912,1,0
21,72,193054,1,4
256,40,209752,5,2
144,96,210035,1,0
184,112,210177,1,0
212,148,210318,1,0
216,192,210460,1,0
256,212,210601,1,0
296,192,210743,1,0
300,148,210884,1,0
328,112,211026,1,0
368,96,211167,1,4
256,192,211309,12,0,214563
256,32,215129,5,2
236,183,215686,2,0,B|172:199|130:270|147:356|224:381|284:386|309:374|391:320|389:233|322:176|264:182|264:182,1,500,0|0
256,268,217384,1,0
448,64,217950,5,0
256,124,218516,1,0
256,124,218799,1,0
64,64,219365,1,0
64,64,219648,1,0
176,260,220214,2,0,B|204:195|313:174|340:268|340:268,1,200,0|0
336,337,221063,2,0,B|308:402|199:423|172:329|172:329,1,200,0|0
256,299,221912,1,0
256,40,222478,5,0
172,164,223044,1,0
256,204,223327,1,0
340,164,223610,1,0
460,300,224176,5,0
256,360,224742,1,0
52,300,225308,1,0
52,300,225591,5,0
256,360,226157,1,0
256,360,226440,1,0
460,300,227006,1,0
340,164,227572,5,0
256,204,227855,1,0
172,164,228138,1,0
172,76,228421,1,0
256,32,228704,1,0
340,76,228987,1,0
256,120,229270,5,0
376,252,229836,1,0
293,287,230119,2,0,B|314:312|312:363|256:396|204:361|188:319|223:283|223:283,1,200
136,252,230969,1,0
176,72,231535,2,0,B|204:137|313:158|340:64|340:64,1,200,0|0
256,32,232384,1,0
256,32,232667,5,2
480,192,233233,1,2
256,356,233799,1,0
32,192,234365,1,0
336,320,234931,6,0,B|308:255|199:234|172:328|172:328,1,200,0|0
436,112,236063,2,0,B|371:140|350:249|444:276|444:276,1,200,0|0
176,72,237195,2,0,B|204:137|313:158|340:64|340:64,1,200,0|0
76,272,238327,2,0,B|141:244|162:135|68:108|68:108,1,200,0|0
256,208,239459,5,0
472,288,240025,1,0
424,92,240591,1,0
256,340,241157,1,0
88,92,241723,1,0
40,288,242289,1,0
256,208,242855,1,0
256,44,243421,5,0
460,340,244553,1,0
52,340,245685,1,0
81,156,246252,6,0,B|81:80|139:80|196:80|196:156|196:156|196:233|254:233|311:233|311:156|311:156|311:80|368:80|437:80|427:164,1,600
348,328,248516,2,0,B|300:369|200:375|161:326|161:326,1,200
168,152,249648,2,0,B|256:200|256:200|364:140,1,200
257,103,250497,2,0,B|256:64,3,33.3333333333333
257,103,251063,1,0
452,228,251912,6,0,B|376:320,1,100,4|0
256,356,252478,2,0,B|256:236,1,100,8|0
123,305,253044,2,0,B|60:228,1,100,0|0
120,156,253610,1,8
184,61,253893,2,0,B|190:109|240:132|272:132|324:116|329:62|329:62,1,200,0|0
392,156,254742,1,8
300,232,255025,5,0
256,244,255167,1,0
212,232,255308,1,0
152,324,255591,1,0
256,368,255874,1,8
360,324,256157,1,0
256,136,256723,5,0
180,56,257006,2,0,B|120:156,1,100,8|0
332,56,257572,2,0,B|392:156,1,100,0|0
256,136,258138,1,8
184,208,258421,2,0,B|204:248|240:250|256:258|256:258|272:268|280:288|268:302|256:302|256:302|240:302|230:290|240:268|256:260|256:260|268:250|304:252|328:208|328:208,1,300,0|8
384,272,259553,5,0
352,296,259695,1,0
336,332,259836,1,0
312,364,259978,1,0
276,380,260119,1,0
236,380,260261,1,0
200,364,260402,1,8
176,332,260544,1,0
160,296,260685,1,0
128,272,260827,1,0
116,236,260969,6,0,B|48:156|137:48|228:96|255:150|255:150|282:196|338:291|530:151|381:54|381:54,1,600,4|8
304,32,262950,6,0,B|276:16|240:16|240:16,3,50
216,16,263516,2,0,B|192:28|140:20|140:20,3,50,0|0|8|0
128,24,264082,2,0,B|100:36|72:76|72:76,3,50
68,88,264648,2,0,B|68:120|44:152|44:152|48:152,3,50,0|0|8|0
44,172,265214,2,0,B|32:200|40:248|40:248,3,50
52,260,265780,2,0,B|64:288|64:324|64:324,3,50,0|0|8|0
92,336,266346,2,0,B|104:356|144:372|144:372,3,50
172,364,266912,2,0,B|208:348|248:364|248:364,3,50,0|0|8|0
260,368,267478,2,0,B|288:372|328:356|328:356,2,50
256,192,267902,12,4,270025
128,184,270308,5,0
148,72,270591,1,8
256,32,270874,1,0
364,72,271157,1,8
384,184,271440,1,0
256,152,271723,1,8
201,261,272006,2,0,B|177:291|185:358|259:403|325:356|346:301|306:252|306:252,1,259.999995350838
396,352,272855,5,8
256,291,273138,1,0
116,352,273421,1,8
200,196,273704,2,0,B|228:163|314:147|339:225|339:225,1,129.999997675419,0|8
376,112,274270,2,0,B|320:40|192:36|144:112|144:112,1,259.999995350838
100,252,275119,6,0,B|204:352,1,129.999997675419,8|0
318,342,275686,2,0,B|412:252,1,129.999997675419,8|0
275,87,276252,2,0,B|305:44|435:126|257:242|257:242|80:146|188:33|251:98,1,519.999990701676,8|8
412,252,277667,6,0,B|308:352,1,129.999997675419,0|8
194,342,278233,2,0,B|100:252,1,129.999997675419,0|8
230,87,278799,2,0,B|164:90|145:147|174:218|231:190|231:190|260:255|260:255|288:190|288:190|340:215|372:147|366:77|281:88|281:88,1,519.999990701676
416,240,280214,5,8
256,348,280497,1,0
96,240,280780,1,8
204,64,281063,2,0,B|180:94|188:161|262:206|328:159|349:104|309:55|309:55,1,259.999995350838,0|0
416,240,281912,6,0,B|480:120,1,129.999997675419,8|0
304,336,282478,2,0,B|300:305|268:290|247:290|214:300|211:335|211:335,1,129.999997675419,8|0
34,125,283044,2,0,B|96:240,1,129.999997675419,8|0
256,40,283893,5,0
432,156,284176,1,8
360,348,284459,1,0
152,348,284742,1,8
80,156,285025,1,0
256,188,285308,1,8
314,247,285874,5,0
314,247,286016,1,0
314,247,286157,1,0
314,247,286299,1,0
314,247,286440,1,0
314,247,286582,1,0
314,247,286723,1,0
314,247,286865,1,0
314,247,287006,1,0
314,247,287148,1,0
314,247,287289,1,0
314,247,287431,1,0
314,247,287572,1,0
314,247,287714,1,0
314,247,287855,1,0
314,247,287997,1,0
314,247,288138,1,4
320,40,288421,6,0,B|184:40|184:40,1,129.999997675419,0|8
420,256,288987,2,0,B|420:120|420:120,1,129.999997675419,0|8
192,344,289553,2,0,B|328:344|328:344,1,129.999997675419,0|8
92,128,290119,2,0,B|92:264|92:264,1,129.999997675419,0|8
256,192,290686,1,0
256,192,290827,1,0
256,192,290969,1,8
408,254,291252,6,0,B|312:350,1,129.999997675419,0|8
316,38,291818,2,0,B|408:130,1,129.999997675419,0|8
104,130,292384,2,0,B|195:38,1,129.999997675419,0|8
195,345,292950,2,0,B|104:254,1,129.999997675419,0|8
256,192,293516,1,0
408,130,293799,6,0,B|312:34,1,129.999997675419,8|0
316,345,294365,2,0,B|408:254,1,129.999997675419,8|0
104,254,294931,2,0,B|195:345,1,129.999997675419,8|0
195,38,295497,2,0,B|104:130,1,129.999997675419,8|0
256,192,296063,5,0
256,192,296204,1,0
256,192,296346,1,0
256,192,296487,1,0
256,192,296629,1,0
256,192,296770,1,0
256,192,296912,1,0
256,192,297053,1,0
256,192,297195,1,4
212,324,297478,6,0,B|215:354|247:369|267:369|301:358|304:324|304:324,1,129.999997675419,0|8
52,248,298044,2,0,B|84:192|84:192|44:120|44:120,1,129.999997675419,0|8
312,40,298610,2,0,B|256:72|256:72|184:32|184:32,1,129.999997675419,0|8
460,248,299176,2,0,B|428:192|428:192|468:120|468:120,1,129.999997675419,0|8
312,348,299742,6,0,B|256:316|256:316|184:356|184:356,1,129.999997675419,0|8
80,148,300308,2,0,B|50:151|35:183|35:203|46:237|80:240|80:240,1,129.999997675419,0|8
300,36,300874,2,0,B|297:66|265:81|245:81|211:70|208:36|208:36,1,129.999997675419,0|8
432,240,301440,2,0,B|462:237|477:205|477:185|466:151|432:148|432:148,1,129.999997675419,0|8
256,192,302006,5,0
136,272,302289,2,0,B|110:298|74:278|74:278|94:314|69:338|69:338,1,129.999997675419,8|0
256,344,302855,1,8
376,272,303138,2,0,B|401:298|437:278|437:278|417:314|442:338|442:338,1,129.999997675419,0|8
256,192,303704,5,0
136,112,303987,2,0,B|110:86|74:106|74:106|94:70|69:46|69:46,1,129.999997675419,8|0
256,40,304553,1,8
376,112,304836,2,0,B|401:86|437:106|437:106|417:70|442:46|442:46,1,129.999997675419,0|8
256,192,305402,6,0,B|296:256|296:256|360:256,1,129.999997675419,0|8
256,192,305969,2,0,B|216:256|216:256|152:256,1,129.999997675419,0|12
196,352,306535,2,0,B|232:352|232:352|256:336|256:336|280:352|280:352|328:352,1,129.999997675419,0|8
416,256,307101,5,0
444,120,307384,1,8
348,40,307667,2,0,B|340:101|275:131|234:131|167:110|161:41|161:41,1,259.999995350838,0|0
68,120,308516,1,8
96,256,308799,1,0
212,348,309082,6,0,B|215:318|247:303|267:303|301:314|304:348|304:348,1,129.999997675419,8|0
320,192,309648,2,0,B|184:192,1,129.999997675419,8|0
192,48,310214,2,0,B|256:68|256:68|320:48,1,129.999997675419,8|0
372,176,310780,2,0,B|256:228|256:228|132:172,1,259.999995350838,12|8
68,292,311629,1,0
256,368,311912,1,8
444,292,312195,1,0
348,45,312761,6,0,B|341:106|277:136|236:136|169:115|163:46|163:46,1,259.999995350838,0|0
82,161,313610,2,0,B|124:224|188:240|188:240,1,129.999997675419,8|0
328,238,314176,2,0,B|388:216|430:161,2,129.999997675419,8|0|8
256,356,315025,1,0
256,356,315308,5,12
328,240,315591,2,0,B|452:304|452:304,1,129.999997675419,0|8
184,240,316157,2,0,B|60:304|60:304,1,129.999997675419,0|8
151,91,316723,2,0,B|220:112|256:40|256:40|292:112|364:92,1,259.999995350838,0|0
256,356,317855,5,0
380,284,318138,1,8
380,140,318421,1,0
256,68,318704,1,8
132,140,318987,1,0
132,284,319270,1,8
256,208,319553,1,0
256,192,319695,12,0,320686
256,192,320827,12,0,322101
255,57,322950,5,0
115,303,323233,1,8
256,192,323516,1,0
396,304,323799,1,8
256,192,324082,6,0,B|256:292|256:292|312:292|380:264|392:164|368:108|332:60|244:56|164:52|120:144|136:200|120:264|244:292|244:292,1,649.999988377094,4|0
